<?xml version="1.0" standalone="no"?>
<!DOCTYPE svg PUBLIC "-//W3C//DTD SVG 1.1//EN" "http://www.w3.org/Graphics/SVG/1.1/DTD/svg11.dtd" >
<svg xmlns="http://www.w3.org/2000/svg">
<metadata></metadata>
<defs>
<font id="vegan-sans-bold" horiz-adv-x="600" >
<font-face units-per-em="1000" ascent="800" descent="-200" />
<missing-glyph horiz-adv-x="300" />
<glyph unicode="fb" horiz-adv-x="985" d="M20 419v104h82v23q0 105 79 159t201 54q132 0 218 -35v-247q66 65 147 65q91 0 143.5 -77.5t52.5 -201.5q0 -121 -61.5 -200t-152.5 -79q-78 0 -129 62v-46h-155v651q-30 7 -63 7q-54 0 -89.5 -26.5t-35.5 -85.5v-23h105v-104h-105v-419h-155v419h-82zM600 128 q38 -33 82 -33q49 0 76.5 44.5t27.5 123.5q0 80 -25 124.5t-73 44.5q-47 0 -88 -36v-268z" />
<glyph unicode="ff" horiz-adv-x="752" d="M20 419v104h82v55q0 90 50.5 135.5t136.5 45.5q64 0 103 -18v-93q-34 8 -65 8q-70 0 -70 -77v-56h188v55q0 90 50.5 135.5t135.5 45.5q65 0 104 -18v-93q-35 8 -65 8q-70 0 -70 -77v-56h135v-104h-135v-419h-155v419h-188v-419h-155v419h-82z" />
<glyph unicode="fh" horiz-adv-x="998" d="M20 419v104h82v23q0 105 79 159t201 54q132 0 218 -35v-266q82 84 182 84q66 0 108.5 -40t42.5 -133v-369h-155v342q0 78 -77 78q-54 0 -101 -43v-377h-155v651q-30 7 -63 7q-54 0 -89.5 -26.5t-35.5 -85.5v-23h105v-104h-105v-419h-155v419h-82z" />
<glyph unicode="fi" horiz-adv-x="665" d="M20 419v104h82v55q0 90 50.5 135.5t136.5 45.5q57 0 96 -18v-93q-35 8 -58 8q-70 0 -70 -77v-56h343v-523h-155v419h-188v-419h-155v419h-82zM433 665q0 38 25 63.5t64 25.5t64 -25.5t25 -63.5t-25 -63.5t-64 -25.5t-64 25.5t-25 63.5z" />
<glyph unicode="fj" horiz-adv-x="665" d="M20 419v104h82v55q0 90 50.5 135.5t136.5 45.5q57 0 96 -18v-93q-35 8 -58 8q-70 0 -70 -77v-56h343v-731h-155v627h-188v-419h-155v419h-82zM433 665q0 38 25 63.5t64 25.5t64 -25.5t25 -63.5t-25 -63.5t-64 -25.5t-64 25.5t-25 63.5z" />
<glyph unicode="fk" horiz-adv-x="950" d="M20 419v104h82v23q0 105 79 159t201 54q132 0 218 -35v-429l167 228h152l-179 -228l195 -295h-178l-157 251v-251h-155v651q-30 7 -63 7q-54 0 -89.5 -26.5t-35.5 -85.5v-23h105v-104h-105v-419h-155v419h-82z" />
<glyph unicode="fl" horiz-adv-x="665" d="M20 419v104h82v23q0 105 79 159t201 54q132 0 218 -35v-724h-155v651q-30 7 -63 7q-54 0 -89.5 -26.5t-35.5 -85.5v-23h105v-104h-105v-419h-155v419h-82z" />
<glyph unicode="ft" horiz-adv-x="767" d="M20 419v104h82v55q0 90 50.5 135.5t136.5 45.5q64 0 103 -18v-93q-34 8 -65 8q-70 0 -70 -77v-56h188v137h155v-137h127v-104h-127v-245q0 -86 63 -86q19 0 67 12v-93q-61 -22 -121 -22q-75 0 -119.5 39.5t-44.5 126.5v268h-188v-419h-155v419h-82z" />
<glyph unicode="ffb" horiz-adv-x="1328" d="M20 419v104h82v55q0 90 50.5 135.5t136.5 45.5q64 0 103 -18v-93q-34 8 -65 8q-70 0 -70 -77v-56h188v23q0 105 78.5 159t201.5 54q131 0 217 -35v-247q66 65 147 65q91 0 143.5 -77.5t52.5 -201.5q0 -121 -61.5 -200t-152.5 -79q-78 0 -129 62v-46h-155v651q-30 7 -62 7 q-55 0 -90 -26.5t-35 -85.5v-23h105v-104h-105v-419h-155v419h-188v-419h-155v419h-82zM942 128q39 -33 82 -33q49 0 77 44.5t28 123.5q0 80 -25.5 124.5t-73.5 44.5q-45 0 -88 -36v-268z" />
<glyph unicode="ffh" horiz-adv-x="1341" d="M20 419v104h82v55q0 90 50.5 135.5t136.5 45.5q64 0 103 -18v-93q-34 8 -65 8q-70 0 -70 -77v-56h188v23q0 105 78.5 159t201.5 54q131 0 217 -35v-266q84 84 183 84q66 0 108.5 -40t42.5 -133v-369h-155v342q0 78 -78 78q-54 0 -101 -43v-377h-155v651q-30 7 -62 7 q-55 0 -90 -26.5t-35 -85.5v-23h105v-104h-105v-419h-155v419h-188v-419h-155v419h-82z" />
<glyph unicode="ffi" horiz-adv-x="1007" d="M20 419v104h82v55q0 90 50.5 135.5t136.5 45.5q64 0 103 -18v-93q-34 8 -65 8q-70 0 -70 -77v-56h188v55q0 90 50.5 135.5t135.5 45.5q57 0 96 -18v-93q-34 8 -57 8q-70 0 -70 -77v-56h342v-523h-155v419h-187v-419h-155v419h-188v-419h-155v419h-82zM776 665 q0 38 25 63.5t64 25.5t64 -25.5t25 -63.5t-25 -63.5t-64 -25.5t-64 25.5t-25 63.5z" />
<glyph unicode="ffj" horiz-adv-x="1007" d="M20 419v104h82v55q0 90 50.5 135.5t136.5 45.5q64 0 103 -18v-93q-34 8 -65 8q-70 0 -70 -77v-56h188v55q0 90 50.5 135.5t135.5 45.5q57 0 96 -18v-93q-34 8 -57 8q-70 0 -70 -77v-56h342v-731h-155v627h-187v-419h-155v419h-188v-419h-155v419h-82zM776 665 q0 38 25 63.5t64 25.5t64 -25.5t25 -63.5t-25 -63.5t-64 -25.5t-64 25.5t-25 63.5z" />
<glyph unicode="ffk" horiz-adv-x="1292" d="M20 419v104h82v55q0 90 50.5 135.5t136.5 45.5q64 0 103 -18v-93q-34 8 -65 8q-70 0 -70 -77v-56h188v23q0 105 78.5 159t201.5 54q131 0 217 -35v-429l167 228h152l-178 -228l194 -295h-178l-157 251v-251h-155v651q-30 7 -62 7q-55 0 -90 -26.5t-35 -85.5v-23h105v-104 h-105v-419h-155v419h-188v-419h-155v419h-82z" />
<glyph unicode="ffl" horiz-adv-x="1105" d="M20 419v104h82v55q0 90 50.5 135.5t136.5 45.5q64 0 103 -18v-93q-34 8 -65 8q-70 0 -70 -77v-56h188v23q0 105 78.5 159t201.5 54q131 0 217 -35v-724h-155v650q-30 7 -62 7q-55 0 -90 -26t-35 -85v-23h105v-104h-105v-419h-155v419h-188v-419h-155v419h-82z" />
<glyph unicode="fft" horiz-adv-x="1110" d="M20 419v104h82v55q0 90 50.5 135.5t136.5 45.5q64 0 103 -18v-93q-34 8 -65 8q-70 0 -70 -77v-56h188v55q0 90 50.5 135.5t135.5 45.5q65 0 104 -18v-93q-35 8 -65 8q-70 0 -70 -77v-56h187v137h155v-137h128v-104h-128v-245q0 -86 63 -86q21 0 67 12v-93 q-59 -22 -120 -22q-76 0 -120.5 39.5t-44.5 126.5v268h-187v-419h-155v419h-188v-419h-155v419h-82z" />
<glyph unicode="tt" horiz-adv-x="787" d="M20 419v104h82v137h155v-137h208v137h155v-137h127v-104h-127v-245q0 -86 63 -86q19 0 67 12v-93q-61 -22 -121 -22q-75 0 -119.5 39.5t-44.5 126.5v268h-208v-245q0 -86 63 -86q21 0 67 12v-93q-59 -22 -120 -22q-76 0 -120.5 39.5t-44.5 126.5v268h-82z" />
<glyph unicode="&#xd;" horiz-adv-x="0" />
<glyph unicode=" "  horiz-adv-x="300" />
<glyph unicode="&#x09;" horiz-adv-x="300" />
<glyph unicode="&#xa0;" horiz-adv-x="300" />
<glyph unicode="!" horiz-adv-x="320" d="M70 75q0 40 25 64.5t65 24.5t64.5 -24.5t24.5 -64.5t-24.5 -65t-64.5 -25t-65 25t-25 65zM74 700h173l-25 -467h-124z" />
<glyph unicode="&#x22;" horiz-adv-x="415" d="M50 700h135l-18 -288h-99zM230 700h135l-18 -288h-99z" />
<glyph unicode="#" horiz-adv-x="706" d="M27 181v121h107l28 111h-85v121h116l43 166h144l-43 -166h121l43 166h144l-43 -166h76v-121h-107l-28 -111h85v-121h-116l-47 -181h-144l47 181h-121l-47 -181h-144l47 181h-76zM278 302h121l28 111h-121z" />
<glyph unicode="$" horiz-adv-x="634" d="M42 215h165q8 -113 120 -113q48 0 79 22.5t31 64.5q0 14 -4 26.5t-9 20.5t-17 16t-19.5 12t-26 9t-27 7t-31 6.5t-30.5 6.5q-39 8 -64.5 15.5t-59 23.5t-53 36.5t-33.5 55t-14 78.5q0 83 53.5 138.5t141.5 69.5v110h147v-112q175 -33 190 -214h-164q-4 54 -32 79t-80 25 q-46 0 -74.5 -20.5t-28.5 -60.5q0 -13 2.5 -24t9 -19.5t11.5 -15t17.5 -12t19.5 -9t24 -8t24.5 -6l27.5 -5.5t27 -6q32 -7 46.5 -10.5t43.5 -12.5t44 -17.5t35.5 -24.5t31 -34t18 -44.5t7.5 -58.5q0 -82 -56.5 -141t-143.5 -78v-111h-147v111q-193 33 -202 224z" />
<glyph unicode="%" horiz-adv-x="1055" d="M49 490q0 99 54 159t143 60t143 -59.5t54 -159.5t-54 -159.5t-143 -59.5t-143 60t-54 159zM180 490q0 -127 66 -127q67 0 67 127t-67 127q-66 0 -66 -127zM218 0l465 700h151l-465 -700h-151zM610 210q0 99 54 159t143 60t143 -59.5t54 -159.5t-54 -159.5t-143 -59.5 t-143 60t-54 159zM741 210q0 -127 66 -127q67 0 67 127t-67 127q-66 0 -66 -127z" />
<glyph unicode="&#x26;" horiz-adv-x="718" d="M37 194q0 57 29 105t80 77q-60 73 -60 140q0 88 62.5 143.5t164.5 55.5q119 0 180 -47.5t70 -146.5h-164q-8 77 -86 77q-31 0 -52 -18t-21 -51q0 -26 13 -48.5t48 -57.5l172 -173q18 60 18 130h155q0 -127 -69 -235l144 -145h-205l-39 40q-79 -55 -176 -55 q-111 0 -187.5 55t-76.5 154zM184 209q0 -49 35.5 -78t88.5 -29q45 0 82 24l-167 168q-39 -32 -39 -85z" />
<glyph unicode="'" horiz-adv-x="235" d="M50 700h135l-18 -288h-99z" />
<glyph unicode="(" horiz-adv-x="398" d="M60 350q0 153 59.5 273.5t144.5 201.5h146q-83 -83 -132 -213t-49 -262t49 -262t132 -213h-146q-85 82 -144.5 202t-59.5 273z" />
<glyph unicode=")" horiz-adv-x="398" d="M-13 -125q83 83 132 213t49 262t-49 262t-132 213h146q86 -81 145.5 -201.5t59.5 -273.5t-59.5 -273.5t-145.5 -201.5h-146z" />
<glyph unicode="*" horiz-adv-x="516" d="M50 479l131 43l-131 43l66 113l104 -93l-28 135h132l-28 -134l104 92l66 -113l-131 -43l131 -43l-66 -114l-104 92l28 -134h-132l28 135l-104 -93z" />
<glyph unicode="+" horiz-adv-x="575" d="M50 306v121h176v176h121v-176h178v-121h-178v-178h-121v178h-176z" />
<glyph unicode="," horiz-adv-x="219" d="M22 -160l20 310h147l-45 -310h-122z" />
<glyph unicode="-" horiz-adv-x="347" d="M50 216v121h247v-121h-247z" />
<glyph unicode="." horiz-adv-x="239" d="M30 75q0 40 25 64.5t65 24.5t64.5 -24.5t24.5 -64.5t-24.5 -65t-64.5 -25t-65 25t-25 65z" />
<glyph unicode="/" horiz-adv-x="513" d="M20 -40l315 780h158l-315 -780h-158z" />
<glyph unicode="0" horiz-adv-x="653" d="M42 350q0 166 77.5 265.5t206.5 99.5q130 0 207 -99.5t77 -265.5t-77 -265.5t-207 -99.5q-129 0 -206.5 99.5t-77.5 265.5zM208 350q0 -114 30 -179t88 -65t88.5 65t30.5 179t-30.5 179t-88.5 65t-88 -65t-30 -179z" />
<glyph unicode="1" horiz-adv-x="433" d="M32 472v138l165 90h161v-700h-161v561z" />
<glyph unicode="2" horiz-adv-x="577" d="M42 482q7 115 74 174t183 59q111 0 176 -53.5t65 -152.5q0 -86 -61 -166t-217 -222h285v-121h-484v121q16 15 47 43q155 143 201 198q67 80 67 147q0 89 -79 89q-86 0 -92 -116h-165z" />
<glyph unicode="3" horiz-adv-x="596" d="M35 196h164q8 -94 100 -94q46 0 71 27.5t25 71.5q0 42 -33 67t-100 25h-70v121h70q58 0 88 29t30 72q0 40 -21 61.5t-59 21.5q-83 0 -92 -94h-164q8 101 74.5 156t181.5 55q110 0 175.5 -52t65.5 -148q0 -46 -30 -89.5t-79 -63.5q63 -15 93.5 -60t30.5 -101 q0 -99 -71.5 -157.5t-185.5 -58.5q-250 0 -264 211z" />
<glyph unicode="4" horiz-adv-x="590" d="M45 111v121l185 468h149l-189 -468h144v158h146v-158h85v-121h-85v-111h-146v111h-289z" />
<glyph unicode="5" horiz-adv-x="583" d="M42 191h165q6 -89 88 -89q42 0 64 36.5t22 93.5q0 119 -90 119q-55 0 -92 -43h-138v392h438v-121h-300v-180q22 31 63 51.5t83 20.5q94 0 146 -61t52 -178q0 -114 -70 -180.5t-178 -66.5q-239 0 -253 206z" />
<glyph unicode="6" horiz-adv-x="611" d="M42 317q0 191 75.5 294.5t199.5 103.5q101 0 163 -48t72 -140h-164q-5 37 -22 54t-49 17q-52 0 -77.5 -54.5t-30.5 -168.5q28 34 71.5 56t86.5 22q95 0 148.5 -59.5t53.5 -169.5q0 -107 -72.5 -173t-180.5 -66q-130 0 -202 88t-72 244zM208 290q6 -188 108 -188 q43 0 67 36t24 86q0 47 -22 78.5t-72 31.5q-28 0 -57 -12.5t-48 -31.5z" />
<glyph unicode="7" horiz-adv-x="502" d="M32 579v121h440v-121l-228 -579h-152l233 579h-293z" />
<glyph unicode="8" horiz-adv-x="621" d="M42 189q0 59 32 106.5t98 65.5q-52 20 -82.5 61.5t-30.5 91.5q0 97 69.5 149t182.5 52q112 0 181.5 -52t69.5 -149q0 -50 -30.5 -91.5t-82.5 -61.5q66 -18 98 -65.5t32 -106.5q0 -100 -72.5 -152t-195.5 -52q-124 0 -196.5 52t-72.5 152zM200 196q0 -44 29.5 -69 t81.5 -25q51 0 80.5 25t29.5 69q0 43 -28.5 69.5t-81.5 26.5q-54 0 -82.5 -26.5t-28.5 -69.5zM215 507q0 -44 25 -68.5t71 -24.5t71 24.5t25 68.5t-26 67.5t-70 23.5t-70 -23.5t-26 -67.5z" />
<glyph unicode="9" horiz-adv-x="611" d="M42 478q0 109 72.5 173t181.5 64q129 0 201 -88t72 -245q0 -191 -74.5 -294t-200.5 -103q-108 0 -173 51t-72 149h165q9 -83 80 -83q57 0 81.5 56.5t27.5 179.5q-29 -35 -72 -57t-87 -22q-96 0 -149 55.5t-53 163.5zM201 478q0 -44 23.5 -72t73.5 -28q27 0 56 12.5 t48 31.5q-8 176 -106 176q-46 0 -70.5 -32.5t-24.5 -87.5z" />
<glyph unicode=":" horiz-adv-x="239" d="M30 75q0 40 25 64.5t65 24.5t64.5 -24.5t24.5 -64.5t-24.5 -65t-64.5 -25t-65 25t-25 65zM30 442q0 40 25 64.5t65 24.5t64.5 -24.5t24.5 -64.5t-24.5 -65t-64.5 -25t-65 25t-25 65z" />
<glyph unicode=";" horiz-adv-x="239" d="M30 -155l20 305h147l-46 -305h-121zM30 442q0 40 25 64.5t65 24.5t64.5 -24.5t24.5 -64.5t-24.5 -65t-64.5 -25t-65 25t-25 65z" />
<glyph unicode="&#x3c;" horiz-adv-x="575" d="M50 306v122l475 192v-118l-324 -132l324 -131v-126z" />
<glyph unicode="=" horiz-adv-x="575" d="M50 198v121h475v-121h-475zM50 413v121h475v-121h-475z" />
<glyph unicode="&#x3e;" horiz-adv-x="575" d="M50 113v118l323 132l-323 131v126l475 -192v-122z" />
<glyph unicode="?" horiz-adv-x="560" d="M32 508q7 99 72.5 153t177.5 54q110 0 174 -51t64 -143q0 -39 -12 -69.5t-30 -48t-40 -33.5t-41.5 -26.5t-35 -26.5t-20.5 -34t3 -50h-154q-10 48 -1.5 82t27 52t43.5 34.5t47 29t37 35.5t15 55q0 36 -19.5 56.5t-56.5 20.5t-59.5 -23t-25.5 -67h-165zM181 75 q0 40 25 64.5t65 24.5t64.5 -24.5t24.5 -64.5t-24.5 -65t-64.5 -25t-65 25t-25 65z" />
<glyph unicode="@" horiz-adv-x="1082" d="M60 183q0 230 160.5 381t412.5 151q165 0 273 -95t108 -251q0 -94 -29.5 -170t-77 -121t-101.5 -69t-108 -24q-103 0 -124 73q-44 -41 -81 -57.5t-81 -16.5q-66 0 -105 58t-39 152q0 148 79 248t186 100q64 0 105 -61l7 42h155l-68 -382q-9 -55 29 -55q47 0 88.5 81.5 t41.5 190.5q0 123 -71 192t-205 69q-86 0 -164 -28.5t-137.5 -81t-94.5 -133t-35 -177.5q0 -170 90 -248t244 -78q56 0 131.5 13t117.5 29l-16 -95q-46 -17 -121 -30t-143 -13q-82 0 -157 25.5t-136 74t-97.5 128t-36.5 178.5zM426 208q0 -53 17.5 -83t47.5 -30q44 0 84 35 v-1l48 269q-25 34 -63 34q-58 0 -96 -65t-38 -159z" />
<glyph unicode="A" horiz-adv-x="670" d="M10 0l239 700h168l243 -700h-170l-49 156h-232l-47 -156h-152zM245 274h160l-26 82l-55 201l-54 -201z" />
<glyph unicode="B" horiz-adv-x="653" d="M75 0v700h243q53 0 97.5 -8.5t83.5 -27.5t61.5 -55.5t22.5 -87.5q0 -50 -27.5 -91.5t-76.5 -57.5q131 -35 131 -163q0 -54 -22 -95t-60 -65.5t-84.5 -36.5t-100.5 -12h-268zM235 117h108q48 0 77 22t29 70q0 89 -106 89h-108v-181zM235 411h83q104 0 104 90q0 82 -104 82 h-83v-172z" />
<glyph unicode="C" horiz-adv-x="675" d="M42 350q0 165 85.5 265t225.5 100q126 0 202.5 -66.5t84.5 -198.5h-166q-12 144 -121 144q-68 0 -104.5 -65t-36.5 -179q0 -244 141 -244q57 0 86 35.5t35 108.5h166q-8 -132 -84.5 -198.5t-202.5 -66.5q-155 0 -233 97t-78 268z" />
<glyph unicode="D" horiz-adv-x="719" d="M75 0v700h244q159 0 258 -93.5t99 -256.5t-99 -256.5t-258 -93.5h-244zM235 121h84q88 0 138 59.5t50 169.5t-50 169.5t-138 59.5h-84v-458z" />
<glyph unicode="E" horiz-adv-x="571" d="M75 0v700h439v-121h-279v-150h259v-121h-259v-187h279v-121h-439z" />
<glyph unicode="F" horiz-adv-x="536" d="M75 0v700h429v-121h-269v-170h249v-121h-249v-288h-160z" />
<glyph unicode="G" horiz-adv-x="695" d="M42 350q0 166 86 265.5t230 99.5q119 0 192.5 -61t84.5 -179h-166q-7 60 -33.5 89.5t-77.5 29.5q-71 0 -108.5 -65t-37.5 -179q0 -118 41 -182t116 -64q27 0 60 12t53 29v99h-128v113h281v-357h-153v62q-27 -34 -77.5 -55.5t-98.5 -21.5q-125 0 -194.5 96.5t-69.5 268.5z " />
<glyph unicode="H" horiz-adv-x="745" d="M75 0v700h160v-271h275v271h160v-700h-160v308h-275v-308h-160z" />
<glyph unicode="I" horiz-adv-x="310" d="M75 0v700h160v-700h-160z" />
<glyph unicode="J" d="M30 242h160q2 -77 25.5 -109t68.5 -32q91 0 91 107v492h160v-472q0 -123 -72 -183t-179 -60q-55 0 -98.5 12.5t-79 40.5t-55.5 79.5t-21 124.5z" />
<glyph unicode="K" horiz-adv-x="658" d="M75 0v700h160v-313l215 313h153l-221 -318l261 -382h-186l-222 342v-342h-160z" />
<glyph unicode="L" horiz-adv-x="524" d="M75 0v700h160v-579h251v-121h-411z" />
<glyph unicode="M" horiz-adv-x="854" d="M75 0v700h167l189 -450l185 450h163v-700h-148v261l4 188l-139 -350h-137l-141 347l3 -190v-256h-146z" />
<glyph unicode="N" horiz-adv-x="728" d="M75 0v700h144l290 -458l-3 190v268h147v-700h-145l-290 457l4 -190v-267h-147z" />
<glyph unicode="O" horiz-adv-x="743" d="M42 350q0 166 89 265.5t240 99.5q152 0 240.5 -99t88.5 -266t-88.5 -266t-240.5 -99q-151 0 -240 99.5t-89 265.5zM212 350q0 -115 39.5 -179.5t119.5 -64.5t120 64.5t40 179.5t-40 179.5t-120 64.5t-119.5 -64.5t-39.5 -179.5z" />
<glyph unicode="P" horiz-adv-x="622" d="M75 0v700h246q110 0 189 -61.5t79 -177.5t-79 -177.5t-189 -61.5h-86v-222h-160zM235 340h86q45 0 76 31.5t31 89.5q0 59 -31 90.5t-76 31.5h-86v-243z" />
<glyph unicode="Q" horiz-adv-x="743" d="M42 350q0 166 89 265.5t240 99.5q152 0 240.5 -99t88.5 -266q0 -112 -41.5 -195.5t-118.5 -127.5l145 -178h-191l-104 136h-19q-151 0 -240 99.5t-89 265.5zM212 350q0 -115 39.5 -179.5t119.5 -64.5t120 64.5t40 179.5t-40 179.5t-120 64.5t-119.5 -64.5t-39.5 -179.5z " />
<glyph unicode="R" horiz-adv-x="635" d="M75 0v700h241q71 0 129.5 -21.5t98.5 -74t40 -129.5q0 -76 -38 -127t-101 -75l175 -273h-181l-144 250h-60v-250h-160zM235 363h81q46 0 76.5 27.5t30.5 84.5q0 55 -30.5 81.5t-76.5 26.5h-81v-220z" />
<glyph unicode="S" horiz-adv-x="634" d="M42 215h165q8 -113 120 -113q48 0 79 22.5t31 64.5q0 14 -4 26.5t-9 20.5t-17 16t-19.5 12t-26 9t-27 7t-31 6.5t-30.5 6.5q-39 8 -64.5 15.5t-59 23.5t-53 36.5t-33.5 55t-14 78.5q0 97 71.5 155t184.5 58q258 0 276 -221h-164q-4 54 -32 79t-80 25q-46 0 -74.5 -20.5 t-28.5 -60.5q0 -13 2.5 -24t9 -19.5t11.5 -15t17.5 -12t19.5 -9t24 -8t24.5 -6l27.5 -5.5t27 -6q32 -7 46.5 -10.5t43.5 -12.5t44 -17.5t35.5 -24.5t31 -34t18 -44.5t7.5 -58.5q0 -98 -78 -161.5t-186 -63.5q-275 0 -285 230z" />
<glyph unicode="T" horiz-adv-x="568" d="M30 579v121h508v-121h-174v-579h-160v579h-174z" />
<glyph unicode="U" horiz-adv-x="707" d="M65 234v466h160v-446q0 -148 133 -148q67 0 100.5 33.5t33.5 94.5v466h147v-446q0 -134 -76 -201.5t-205 -67.5q-132 0 -212.5 62t-80.5 187z" />
<glyph unicode="V" horiz-adv-x="655" d="M10 700h170l103 -326l55 -201l55 201l100 326h152l-232 -700h-167z" />
<glyph unicode="W" horiz-adv-x="957" d="M10 700h168l73 -321l40 -201l42 201l77 321h158l77 -321l42 -202l40 202l70 321h150l-184 -700h-168l-72 288l-42 202l-44 -202l-71 -288h-168z" />
<glyph unicode="X" horiz-adv-x="617" d="M12 0l212 351l-207 349h171l125 -217l119 217h154l-200 -333l219 -367h-171l-136 236l-131 -236h-155z" />
<glyph unicode="Y" horiz-adv-x="613" d="M15 700h169l139 -322l135 322h140l-210 -445v-255h-160v255z" />
<glyph unicode="Z" horiz-adv-x="554" d="M40 0v121l292 458h-290v121h472v-121l-291 -458h291v-121h-474z" />
<glyph unicode="[" horiz-adv-x="394" d="M120 -125v950h254v-104h-94v-743h94v-103h-254z" />
<glyph unicode="\" horiz-adv-x="513" d="M20 740h158l315 -780h-158z" />
<glyph unicode="]" horiz-adv-x="394" d="M20 -22h93v743h-93v104h254v-950h-254v103z" />
<glyph unicode="^" horiz-adv-x="551" d="M50 300l164 400h122l165 -400h-127l-102 249l-103 -249h-119z" />
<glyph unicode="_" horiz-adv-x="500" d="M40 -15h420v-121h-420v121z" />
<glyph unicode="`" horiz-adv-x="384" d="M50 748h182l102 -163h-123z" />
<glyph unicode="a" horiz-adv-x="574" d="M35 128q0 76 62 123.5t191 47.5q20 0 66 -4v54q0 88 -74 88q-40 0 -60.5 -21t-21.5 -70h-150q4 97 66.5 144.5t165.5 47.5q42 0 79 -7.5t72.5 -25t56.5 -53.5t21 -86v-366h-155v53q-70 -68 -161 -68q-77 0 -117.5 38t-40.5 105zM188 149q0 -59 73 -59q52 0 93 41v84 q-30 3 -58 3q-50 0 -79 -17t-29 -52z" />
<glyph unicode="b" horiz-adv-x="605" d="M65 0v744h155v-271q66 65 147 65q91 0 143.5 -76t52.5 -200q0 -120 -61.5 -198.5t-152.5 -78.5q-78 0 -129 62v-47h-155zM220 129q39 -34 82 -34q49 0 76.5 44t27.5 123q0 80 -25 123t-73 43q-47 0 -88 -36v-263z" />
<glyph unicode="c" horiz-adv-x="558" d="M42 262q0 127 66.5 201.5t182.5 74.5q104 0 165.5 -53t69.5 -152h-151q-6 57 -25 80.5t-59 23.5q-92 0 -92 -175q0 -87 24 -131.5t68 -44.5q35 0 54.5 23t27.5 73h150q-11 -94 -71 -145.5t-161 -51.5q-121 0 -185 74t-64 203z" />
<glyph unicode="d" horiz-adv-x="605" d="M42 262q0 120 61.5 198t152.5 78q78 0 129 -61v267h155v-744h-155v50q-66 -65 -147 -65q-91 0 -143.5 76.5t-52.5 200.5zM199 262q0 -80 25 -123.5t73 -43.5q47 0 88 36v263q-39 34 -82 34q-49 0 -76.5 -43.5t-27.5 -122.5z" />
<glyph unicode="e" horiz-adv-x="567" d="M42 262q0 125 67 200.5t177 75.5q118 0 182 -76q56 -66 56 -191q0 -19 -1 -40h-331q4 -79 27.5 -112t67.5 -33q69 0 80 73h151q-10 -82 -72.5 -128t-158.5 -46q-122 0 -183.5 73t-61.5 204zM194 319h178q-4 121 -86 121q-79 0 -92 -121z" />
<glyph unicode="f" horiz-adv-x="410" d="M20 419v104h82v55q0 90 50.5 135.5t136.5 45.5q64 0 103 -18v-93q-34 8 -65 8q-70 0 -70 -77v-56h135v-104h-135v-419h-155v419h-82z" />
<glyph unicode="g" horiz-adv-x="605" d="M42 268q0 120 61 195t153 75q78 0 129 -61v46h155v-526q0 -56 -22 -100t-58.5 -69.5t-78.5 -38t-87 -12.5q-230 0 -238 184h150q2 -48 25 -65.5t63 -17.5q91 0 91 101v82q-68 -65 -147 -65q-92 0 -144 74.5t-52 197.5zM199 268q0 -161 98 -161q48 0 88 35v252 q-39 34 -82 34q-49 0 -76.5 -41t-27.5 -119z" />
<glyph unicode="h" horiz-adv-x="618" d="M65 0v744h155v-290q81 84 182 84q66 0 108.5 -39.5t42.5 -132.5v-366h-155v338q0 78 -77 78q-54 0 -101 -43v-373h-155z" />
<glyph unicode="i" horiz-adv-x="285" d="M53 665q0 38 25 63.5t64 25.5t64 -25.5t25 -63.5t-25 -63.5t-64 -25.5t-64 25.5t-25 63.5zM65 0v523h155v-523h-155z" />
<glyph unicode="j" horiz-adv-x="285" d="M53 665q0 38 25 63.5t64 25.5t64 -25.5t25 -63.5t-25 -63.5t-64 -25.5t-64 25.5t-25 63.5zM65 -208v731h155v-731h-155z" />
<glyph unicode="k" horiz-adv-x="570" d="M65 0v744h155v-449l167 228h152l-179 -228l195 -295h-178l-157 251v-251h-155z" />
<glyph unicode="l" horiz-adv-x="285" d="M65 0v744h155v-744h-155z" />
<glyph unicode="m" horiz-adv-x="939" d="M65 0v523h155v-69q81 84 179 84q105 0 136 -89q89 89 191 89q65 0 106.5 -39.5t41.5 -132.5v-366h-155v338q0 78 -74 78q-50 0 -98 -43v-7v-366h-155v338q0 78 -74 78q-51 0 -98 -43v-373h-155z" />
<glyph unicode="n" horiz-adv-x="618" d="M65 0v523h155v-69q81 84 182 84q66 0 108.5 -39.5t42.5 -132.5v-366h-155v338q0 78 -77 78q-54 0 -101 -43v-373h-155z" />
<glyph unicode="o" horiz-adv-x="598" d="M42 262q0 127 68.5 201.5t188.5 74.5q121 0 189 -74.5t68 -201.5q0 -128 -68 -202.5t-189 -74.5q-120 0 -188.5 74.5t-68.5 202.5zM199 262q0 -176 100 -176t100 176q0 175 -100 175t-100 -175z" />
<glyph unicode="p" horiz-adv-x="605" d="M65 -208v731h155v-50q66 65 147 65q91 0 143.5 -76t52.5 -200q0 -120 -61.5 -198.5t-152.5 -78.5q-78 0 -129 62v-255h-155zM220 129q39 -34 82 -34q49 0 76.5 44t27.5 123q0 80 -25 123t-73 43q-47 0 -88 -36v-263z" />
<glyph unicode="q" horiz-adv-x="605" d="M42 262q0 120 61.5 198t152.5 78q78 0 129 -61v46h155v-731h-155v258q-66 -65 -147 -65q-91 0 -143.5 76.5t-52.5 200.5zM199 262q0 -80 25 -123.5t73 -43.5q47 0 88 36v263q-39 34 -82 34q-49 0 -76.5 -43.5t-27.5 -122.5z" />
<glyph unicode="r" horiz-adv-x="454" d="M65 0v523h155v-97q26 53 65.5 82.5t77.5 29.5q35 0 63 -20v-135q-38 16 -75 16q-40 0 -76.5 -18.5t-54.5 -46.5v-334h-155z" />
<glyph unicode="s" horiz-adv-x="519" d="M35 158h148q2 -77 86 -77q79 0 79 59q0 43 -105 61q-9 2 -14 3q-34 6 -56 11.5t-50.5 18t-45 29t-28.5 44t-12 63.5q0 79 60 123.5t151 44.5q112 0 165.5 -39.5t57.5 -120.5h-147q-6 65 -77 65q-32 0 -52.5 -13t-20.5 -41q0 -30 21.5 -40.5t77.5 -21.5q10 -2 16 -3 q28 -5 40.5 -7.5t38 -9.5t37.5 -13.5t30.5 -19t27 -27t15 -36.5t6.5 -48q0 -80 -62 -129t-155 -49q-224 0 -232 173z" />
<glyph unicode="t" horiz-adv-x="425" d="M20 419v104h82v137h155v-137h128v-104h-128v-245q0 -86 63 -86q21 0 67 12v-93q-59 -22 -120 -22q-76 0 -120.5 39.5t-44.5 126.5v268h-82z" />
<glyph unicode="u" horiz-adv-x="613" d="M65 158v365h155v-338q0 -78 75 -78q51 0 98 43v373h155v-523h-155v69q-84 -84 -180 -84q-65 0 -106.5 40t-41.5 133z" />
<glyph unicode="v" horiz-adv-x="549" d="M12 523h166l55 -178l54 -193l53 193l53 178h144l-183 -523h-155z" />
<glyph unicode="w" horiz-adv-x="831" d="M12 523h159l42 -173l44 -194l51 194l48 173h135l50 -173l50 -194l45 194l43 173h140l-160 -524h-150l-43 158l-48 193l-51 -193l-44 -157h-150z" />
<glyph unicode="x" horiz-adv-x="551" d="M12 0l179 260l-174 263h160l99 -152l97 152h145l-166 -242l187 -281h-160l-112 170l-110 -170h-145z" />
<glyph unicode="y" horiz-adv-x="542" d="M12 523h166l48 -152l54 -194l57 194l49 152h143l-257 -731h-136l74 209z" />
<glyph unicode="z" horiz-adv-x="462" d="M32 0v104l232 315h-222v104h388v-104l-232 -315h232v-104h-398z" />
<glyph unicode="{" horiz-adv-x="404" d="M30 291v118q52 0 76 16t24 57v147q0 196 228 196h26v-104h-26q-68 0 -68 -82v-149q0 -55 -26.5 -92t-67.5 -48q41 -11 67.5 -49t26.5 -93v-147q0 -83 68 -83h26v-103h-26q-228 0 -228 196v147q0 41 -24 57t-76 16z" />
<glyph unicode="|" horiz-adv-x="327" d="M90 -160v980h147v-980h-147z" />
<glyph unicode="}" horiz-adv-x="404" d="M20 -22h26q67 0 67 83v147q0 55 27 93t68 49q-41 11 -68 48t-27 92v149q0 82 -67 82h-26v104h26q228 0 228 -196v-147q0 -41 23.5 -57t76.5 -16v-118q-53 0 -76.5 -16t-23.5 -57v-147q0 -196 -228 -196h-26v103z" />
<glyph unicode="~" horiz-adv-x="630" d="M45 326q19 51 50 83.5t59 42.5t58 10q53 0 115 -34t86 -34q39 0 71 62l101 -50q-19 -51 -50 -83.5t-59 -42.5t-58 -10q-53 0 -115 34.5t-86 34.5q-39 0 -71 -62z" />
<glyph unicode="&#xa1;" horiz-adv-x="320" d="M70 417q0 40 25 65t65 25t64.5 -25t24.5 -65t-24.5 -64.5t-64.5 -24.5t-65 24.5t-25 64.5zM74 -208l24 467h124l25 -467h-173z" />
<glyph unicode="&#xa2;" horiz-adv-x="558" d="M42 262q0 103 45.5 173t127.5 93v115h147v-112q150 -34 164 -198h-151q-6 57 -25 80.5t-59 23.5q-92 0 -92 -175q0 -87 24 -131.5t68 -44.5q35 0 54.5 23t27.5 73h150q-8 -76 -49.5 -124.5t-111.5 -64.5v-113h-147v114q-85 21 -129 91t-44 177z" />
<glyph unicode="&#xa3;" horiz-adv-x="605" d="M35 0v121h74v167h-74v121h74v90q0 100 64.5 158t171.5 58q232 0 245 -216h-164q-8 99 -81 99q-33 0 -54.5 -21t-21.5 -63v-105h192v-121h-192v-167h291v-121h-525z" />
<glyph unicode="&#xa4;" horiz-adv-x="661" d="M27 578l86 85l77 -77q58 35 140 35t141 -35l77 77l85 -85l-78 -78q33 -60 33 -140q0 -78 -33 -141l78 -78l-86 -85l-77 77q-59 -35 -140 -35t-140 35l-77 -77l-85 85l78 78q-34 60 -34 141q0 79 33 140zM229 360q0 -161 101 -161q102 0 102 161q0 160 -102 160 q-101 0 -101 -160z" />
<glyph unicode="&#xa5;" horiz-adv-x="613" d="M15 700h169l138 -250l136 250h140l-168 -291h116v-121h-158v-86h158v-121h-158v-81h-160v81h-158v121h158v86h-158v121h116z" />
<glyph unicode="&#xa6;" horiz-adv-x="327" d="M90 -160v455h147v-455h-147zM90 420v400h147v-400h-147z" />
<glyph unicode="&#xa7;" horiz-adv-x="640" d="M42 332q0 73 72 129q-59 44 -59 134q0 96 71.5 153t185.5 57q258 0 276 -221h-165q-4 54 -31.5 79t-79.5 25q-47 0 -75 -20t-28 -58q0 -40 34 -56t101 -24q114 -13 152 -26q101 -35 101 -136q0 -73 -71 -130q59 -44 59 -134q0 -95 -72 -152t-185 -57q-258 0 -276 221h164 q9 -104 112 -104q47 0 75 19.5t28 57.5q0 22 -10 36.5t-30.5 23t-41 13t-53.5 8.5q-114 13 -152 26q-102 35 -102 136zM182 368q0 -25 19.5 -39.5t43 -19.5t68.5 -11q80 -8 123 -19q21 25 21 53q0 24 -19.5 39t-43.5 20.5t-68 10.5q-80 8 -123 19q-21 -25 -21 -53z" />
<glyph unicode="&#xa8;" horiz-adv-x="485" d="M50 665q0 36 23.5 60t60.5 24q38 0 61.5 -24t23.5 -60t-23.5 -60t-61.5 -24q-37 0 -60.5 24t-23.5 60zM266 665q0 36 24 60t61 24t60.5 -24t23.5 -60t-23.5 -60t-60.5 -24t-61 24t-24 60z" />
<glyph unicode="&#xa9;" horiz-adv-x="830" d="M50 350q0 152 105 258.5t260 106.5t260 -106.5t105 -258.5t-105 -258.5t-260 -106.5t-260 106.5t-105 258.5zM137 350q0 -119 80 -201.5t198 -82.5q117 0 197.5 82.5t80.5 201.5q0 118 -80.5 201t-197.5 83q-118 0 -198 -82.5t-80 -201.5zM230 350q0 97 50 155.5 t132 58.5q75 0 122 -39t51 -116h-110q-4 38 -18.5 56.5t-44.5 18.5q-35 0 -53 -36.5t-18 -97.5q0 -136 71 -136q30 0 44.5 19t18.5 58h110q-4 -78 -51 -117t-122 -39q-91 0 -136.5 57t-45.5 158z" />
<glyph unicode="&#xaa;" horiz-adv-x="348" d="M15 515q0 44 40 70.5t122 26.5q11 0 39 -2v29q0 39 -43 39q-44 0 -47 -41h-104q2 55 45 83.5t106 28.5q36 0 66.5 -7t57 -31t26.5 -62v-209h-107v28q-42 -37 -98 -37q-51 0 -77 22.5t-26 61.5zM122 527q0 -29 38 -29q33 0 56 21v39q-24 2 -35 2q-59 0 -59 -33z" />
<glyph unicode="&#xab;" horiz-adv-x="595" d="M50 209v137l240 185v-161l-118 -88l118 -88v-170zM305 209v137l240 185v-161l-118 -88l118 -88v-170z" />
<glyph unicode="&#xac;" horiz-adv-x="575" d="M50 306v121h475v-299h-121v178h-354z" />
<glyph unicode="&#xad;" horiz-adv-x="347" d="M50 216v121h247v-121h-247z" />
<glyph unicode="&#xae;" horiz-adv-x="578" d="M50 477q0 100 68.5 169t170.5 69t170.5 -69t68.5 -169t-68.5 -169t-170.5 -69t-170.5 69t-68.5 169zM115 477q0 -74 50 -126.5t124 -52.5t123.5 52.5t49.5 126.5t-49.5 126t-123.5 52t-124 -52t-50 -126zM194 353v255h89q41 0 71.5 -20.5t30.5 -60.5q0 -51 -48 -72 l62 -102h-76l-49 91h-11v-91h-69zM263 493h20q35 0 35 34q0 32 -35 32h-20v-66z" />
<glyph unicode="&#xaf;" horiz-adv-x="420" d="M50 612v101h320v-101h-320z" />
<glyph unicode="&#xb0;" horiz-adv-x="428" d="M50 551q0 71 47 117.5t117 46.5t117 -46.5t47 -117.5t-47 -117.5t-117 -46.5t-117 46.5t-47 117.5zM147 551q0 -30 18.5 -50t48.5 -20t48.5 20t18.5 50t-18.5 50t-48.5 20t-48.5 -20t-18.5 -50z" />
<glyph unicode="&#xb1;" horiz-adv-x="575" d="M50 0v121h475v-121h-475zM50 358v121h176v177h121v-177h178v-121h-178v-177h-121v177h-176z" />
<glyph unicode="&#xb4;" horiz-adv-x="384" d="M50 585l102 163h182l-162 -163h-122z" />
<glyph unicode="&#xb5;" horiz-adv-x="613" d="M65 -208v731h155v-338q0 -78 75 -78q51 0 98 43v373h155v-523h-155v69q-57 -57 -120 -73q-25 -6 -53 -4v-200h-155z" />
<glyph unicode="&#xb6;" horiz-adv-x="705" d="M45 491q0 55 21 97t56 65.5t76 35t87 11.5h320v-700h-113v583h-65v-583h-113v282h-29q-46 0 -87 11.5t-76 35.5t-56 65.5t-21 96.5z" />
<glyph unicode="&#xb7;" horiz-adv-x="280" d="M50 365q0 39 25.5 64.5t64.5 25.5t64.5 -25.5t25.5 -64.5t-25 -64.5t-65 -25.5t-65 25.5t-25 64.5z" />
<glyph unicode="&#xb8;" horiz-adv-x="312" d="M50 -170q29 -13 63 -13q43 0 43 31q0 29 -43 29q-18 0 -35 -5l-25 44l63 84h80l-46 -63q45 2 78.5 -19t33.5 -64q0 -50 -40 -76t-100 -26q-41 0 -72 15v63z" />
<glyph unicode="&#xba;" horiz-adv-x="347" d="M12 591q0 71 44.5 114.5t116.5 43.5q73 0 117 -43.5t44 -114.5q0 -73 -44 -116.5t-117 -43.5q-72 0 -116.5 44t-44.5 116zM121 591q0 -88 52 -88q53 0 53 88q0 87 -53 87q-52 0 -52 -87z" />
<glyph unicode="&#xbb;" horiz-adv-x="595" d="M50 24v162l117 88l-117 88v169l240 -185v-137zM305 24v162l117 88l-117 88v169l240 -185v-137z" />
<glyph unicode="&#xbc;" horiz-adv-x="932" d="M49 540v106l106 54h127v-420h-127v314zM150 0l465 700h151l-465 -700h-151zM522 57v95l120 268h120l-123 -268h72v82h115v-82h56v-95h-56v-57h-115v57h-189z" />
<glyph unicode="&#xbd;" horiz-adv-x="962" d="M49 540v106l106 54h127v-420h-127v314zM150 0l465 700h151l-465 -700h-151zM566 289q4 68 51.5 104t123.5 36q78 0 122.5 -34.5t44.5 -96.5q0 -51 -32 -88t-132 -116h168v-94h-333v94q22 17 52.5 40.5t46 36t36.5 30t31 28t20.5 23.5t14.5 24t4 22q0 44 -43 44 q-45 0 -49 -53h-126z" />
<glyph unicode="&#xbe;" horiz-adv-x="992" d="M49 398h126q5 -41 55 -41q26 0 39.5 12.5t13.5 31.5q0 47 -76 47h-48v89h48q66 0 66 47q0 38 -43 38q-44 0 -49 -40h-126q5 60 52 93.5t123 33.5q74 0 120.5 -31.5t46.5 -88.5q0 -29 -19 -54.5t-55 -36.5q84 -18 84 -98q0 -58 -51 -93.5t-126 -35.5q-83 0 -130 32.5 t-51 94.5zM209 0l465 700h151l-465 -700h-151zM581 57v95l120 268h120l-123 -268h72v82h115v-82h56v-95h-56v-57h-115v57h-189z" />
<glyph unicode="&#xbf;" horiz-adv-x="560" d="M40 -29q0 39 12 69.5t30 48t40 33.5t41.5 26.5t35 26.5t20.5 34t-3 50h154q10 -48 1.5 -82t-27 -52t-43.5 -34.5t-47 -29t-37 -35.5t-15 -55q0 -37 19.5 -57t57.5 -20q77 0 85 90h164q-7 -100 -72.5 -153.5t-176.5 -53.5t-175 50.5t-64 143.5zM200 417q0 40 24.5 65 t64.5 25t65 -25t25 -65t-25 -64.5t-65 -24.5t-64.5 24.5t-24.5 64.5z" />
<glyph unicode="&#xc0;" horiz-adv-x="670" d="M10 0l239 700h168l243 -700h-170l-49 156h-232l-47 -156h-152zM133 895h192l132 -145h-125zM245 274h160l-26 82l-55 201l-54 -201z" />
<glyph unicode="&#xc1;" horiz-adv-x="670" d="M10 0l239 700h168l243 -700h-170l-49 156h-232l-47 -156h-152zM208 750l132 145h192l-199 -145h-125zM245 274h160l-26 82l-55 201l-54 -201z" />
<glyph unicode="&#xc2;" horiz-adv-x="670" d="M10 0l239 700h168l243 -700h-170l-49 156h-232l-47 -156h-152zM106 750l151 145h151l151 -145h-140l-87 60l-86 -60h-140zM245 274h160l-26 82l-55 201l-54 -201z" />
<glyph unicode="&#xc3;" horiz-adv-x="670" d="M10 0l239 700h168l243 -700h-170l-49 156h-232l-47 -156h-152zM124 792q19 54 53 83t73 29q33 0 89 -20.5t69 -20.5q33 0 50 39l82 -37q-18 -54 -52 -83.5t-73 -29.5q-33 0 -90 21t-70 21q-31 0 -49 -39zM245 274h160l-26 82l-55 201l-54 -201z" />
<glyph unicode="&#xc4;" horiz-adv-x="670" d="M10 0l239 700h168l243 -700h-170l-49 156h-232l-47 -156h-152zM134 833q0 36 24 58.5t61 22.5q38 0 61.5 -22.5t23.5 -58.5t-23.5 -58.5t-61.5 -22.5q-37 0 -61 22.5t-24 58.5zM245 274h160l-26 82l-55 201l-54 -201zM359 833q0 36 24 58.5t62 22.5q36 0 60.5 -22.5 t24.5 -58.5t-24.5 -58.5t-60.5 -22.5q-38 0 -62 22.5t-24 58.5z" />
<glyph unicode="&#xc5;" horiz-adv-x="670" d="M10 0l239 700h168l243 -700h-170l-49 156h-232l-47 -156h-152zM201 823q0 46 37.5 75.5t93.5 29.5t93.5 -29t37.5 -76t-37.5 -76t-93.5 -29t-93.5 29.5t-37.5 75.5zM245 274h160l-26 82l-55 201l-54 -201zM301 835q-13 -28 19 -42q30 -13 44 18q5 13 -0.5 24.5 t-19.5 17.5t-26 0.5t-17 -18.5z" />
<glyph unicode="&#xc6;" horiz-adv-x="984" d="M2 0l471 700h454v-121h-279v-150h259v-121h-259v-187h279v-121h-439v156h-212l-96 -156h-178zM349 274h139v230l-95 -158z" />
<glyph unicode="&#xc7;" horiz-adv-x="675" d="M42 350q0 165 85.5 265t225.5 100q126 0 202.5 -66.5t84.5 -198.5h-166q-12 144 -121 144q-68 0 -104.5 -65t-36.5 -179q0 -244 141 -244q57 0 86 35.5t35 108.5h166q-7 -125 -77 -191.5t-185 -72.5l-36 -49q45 2 78.5 -19t33.5 -64q0 -50 -40 -76t-100 -26q-41 0 -72 15 v63q29 -13 63 -13q43 0 43 31q0 29 -43 29q-18 0 -35 -5l-25 44l54 72q-128 17 -192.5 112t-64.5 250z" />
<glyph unicode="&#xc8;" horiz-adv-x="571" d="M75 0v700h439v-121h-279v-150h259v-121h-259v-187h279v-121h-439zM90 895h192l132 -145h-125z" />
<glyph unicode="&#xc9;" horiz-adv-x="571" d="M75 0v700h439v-121h-279v-150h259v-121h-259v-187h279v-121h-439zM160 750l132 145h192l-199 -145h-125z" />
<glyph unicode="&#xca;" horiz-adv-x="571" d="M68 750l151 145h151l151 -145h-140l-87 60l-86 -60h-140zM75 0v700h439v-121h-279v-150h259v-121h-259v-187h279v-121h-439z" />
<glyph unicode="&#xcb;" horiz-adv-x="571" d="M75 0v700h439v-121h-279v-150h259v-121h-259v-187h279v-121h-439zM96 833q0 36 24 58.5t61 22.5q38 0 61.5 -22.5t23.5 -58.5t-23.5 -58.5t-61.5 -22.5q-37 0 -61 22.5t-24 58.5zM321 833q0 36 24 58.5t62 22.5q36 0 60.5 -22.5t24.5 -58.5t-24.5 -58.5t-60.5 -22.5 q-38 0 -62 22.5t-24 58.5z" />
<glyph unicode="&#xcc;" horiz-adv-x="310" d="M-64 895h192l132 -145h-125zM75 0v700h160v-700h-160z" />
<glyph unicode="&#xcd;" horiz-adv-x="310" d="M41 750l132 145h192l-199 -145h-125zM75 0v700h160v-700h-160z" />
<glyph unicode="&#xce;" horiz-adv-x="310" d="M-71 750l151 145h151l151 -145h-140l-87 60l-86 -60h-140zM75 0v700h160v-700h-160z" />
<glyph unicode="&#xcf;" horiz-adv-x="310" d="M-27 833q0 36 24 58.5t61 22.5q38 0 61.5 -22.5t23.5 -58.5t-23.5 -58.5t-61.5 -22.5q-37 0 -61 22.5t-24 58.5zM75 0v700h160v-700h-160zM166 833q0 36 24 58.5t61 22.5t61 -22.5t24 -58.5t-24 -58.5t-61 -22.5t-61 22.5t-24 58.5z" />
<glyph unicode="&#xd0;" horiz-adv-x="719" d="M-20 288v121h95v291h244q159 0 258 -93.5t99 -256.5t-99 -256.5t-258 -93.5h-244v288h-95zM235 121h84q88 0 138 59.5t50 169.5t-50 169.5t-138 59.5h-84v-170h143v-121h-143v-167z" />
<glyph unicode="&#xd1;" horiz-adv-x="728" d="M75 0v700h144l290 -458l-3 190v268h147v-700h-145l-290 457l4 -190v-267h-147zM156 792q19 54 53 83t73 29q33 0 89 -20.5t69 -20.5q33 0 50 39l82 -37q-18 -54 -52 -83.5t-73 -29.5q-33 0 -90 21t-70 21q-31 0 -49 -39z" />
<glyph unicode="&#xd2;" horiz-adv-x="743" d="M42 350q0 166 89 265.5t240 99.5q152 0 240.5 -99t88.5 -266t-88.5 -266t-240.5 -99q-151 0 -240 99.5t-89 265.5zM172 895h192l132 -145h-125zM212 350q0 -115 39.5 -179.5t119.5 -64.5t120 64.5t40 179.5t-40 179.5t-120 64.5t-119.5 -64.5t-39.5 -179.5z" />
<glyph unicode="&#xd3;" horiz-adv-x="743" d="M42 350q0 166 89 265.5t240 99.5q152 0 240.5 -99t88.5 -266t-88.5 -266t-240.5 -99q-151 0 -240 99.5t-89 265.5zM212 350q0 -115 39.5 -179.5t119.5 -64.5t120 64.5t40 179.5t-40 179.5t-120 64.5t-119.5 -64.5t-39.5 -179.5zM247 750l132 145h192l-199 -145h-125z" />
<glyph unicode="&#xd4;" horiz-adv-x="743" d="M42 350q0 166 89 265.5t240 99.5q152 0 240.5 -99t88.5 -266t-88.5 -266t-240.5 -99q-151 0 -240 99.5t-89 265.5zM145 750l151 145h151l151 -145h-140l-87 60l-86 -60h-140zM212 350q0 -115 39.5 -179.5t119.5 -64.5t120 64.5t40 179.5t-40 179.5t-120 64.5 t-119.5 -64.5t-39.5 -179.5z" />
<glyph unicode="&#xd5;" horiz-adv-x="743" d="M42 350q0 166 89 265.5t240 99.5q152 0 240.5 -99t88.5 -266t-88.5 -266t-240.5 -99q-151 0 -240 99.5t-89 265.5zM164 792q19 54 53 83t73 29q33 0 89 -20.5t69 -20.5q33 0 50 39l82 -37q-18 -54 -52 -83.5t-73 -29.5q-33 0 -90 21t-70 21q-31 0 -49 -39zM212 350 q0 -115 39.5 -179.5t119.5 -64.5t120 64.5t40 179.5t-40 179.5t-120 64.5t-119.5 -64.5t-39.5 -179.5z" />
<glyph unicode="&#xd6;" horiz-adv-x="743" d="M42 350q0 166 89 265.5t240 99.5q152 0 240.5 -99t88.5 -266t-88.5 -266t-240.5 -99q-151 0 -240 99.5t-89 265.5zM173 833q0 36 24 58.5t61 22.5q38 0 61.5 -22.5t23.5 -58.5t-23.5 -58.5t-61.5 -22.5q-37 0 -61 22.5t-24 58.5zM212 350q0 -115 39.5 -179.5t119.5 -64.5 t120 64.5t40 179.5t-40 179.5t-120 64.5t-119.5 -64.5t-39.5 -179.5zM398 833q0 36 24 58.5t62 22.5q36 0 60.5 -22.5t24.5 -58.5t-24.5 -58.5t-60.5 -22.5q-38 0 -62 22.5t-24 58.5z" />
<glyph unicode="&#xd7;" horiz-adv-x="552" d="M55 225l141 141l-141 140l86 86l140 -141l142 141l86 -85l-142 -141l142 -142l-86 -85l-142 141l-140 -141z" />
<glyph unicode="&#xd8;" horiz-adv-x="743" d="M42 350q0 166 89 265.5t240 99.5q54 0 104 -14l48 89h169l-89 -165q97 -100 97 -275q0 -167 -88.5 -266t-240.5 -99q-54 0 -104 14l-48 -89h-168l88 165q-97 100 -97 275zM212 350q0 -115 39.5 -179.5t119.5 -64.5t120 64.5t40 179.5t-40 179.5t-120 64.5t-119.5 -64.5 t-39.5 -179.5z" />
<glyph unicode="&#xd9;" horiz-adv-x="707" d="M65 234v466h160v-446q0 -148 133 -148q67 0 100.5 33.5t33.5 94.5v466h147v-446q0 -134 -76 -201.5t-205 -67.5q-132 0 -212.5 62t-80.5 187zM148 895h192l132 -145h-125z" />
<glyph unicode="&#xda;" horiz-adv-x="707" d="M65 234v466h160v-446q0 -148 133 -148q67 0 100.5 33.5t33.5 94.5v466h147v-446q0 -134 -76 -201.5t-205 -67.5q-132 0 -212.5 62t-80.5 187zM225 750l132 145h192l-199 -145h-125z" />
<glyph unicode="&#xdb;" horiz-adv-x="707" d="M65 234v466h160v-446q0 -148 133 -148q67 0 100.5 33.5t33.5 94.5v466h147v-446q0 -134 -76 -201.5t-205 -67.5q-132 0 -212.5 62t-80.5 187zM126 750l151 145h151l151 -145h-140l-87 60l-86 -60h-140z" />
<glyph unicode="&#xdc;" horiz-adv-x="707" d="M65 234v466h160v-446q0 -148 133 -148q67 0 100.5 33.5t33.5 94.5v466h147v-446q0 -134 -76 -201.5t-205 -67.5q-132 0 -212.5 62t-80.5 187zM154 833q0 36 24 58.5t61 22.5q38 0 61.5 -22.5t23.5 -58.5t-23.5 -58.5t-61.5 -22.5q-37 0 -61 22.5t-24 58.5zM379 833 q0 36 24 58.5t62 22.5q36 0 60.5 -22.5t24.5 -58.5t-24.5 -58.5t-60.5 -22.5q-38 0 -62 22.5t-24 58.5z" />
<glyph unicode="&#xdd;" horiz-adv-x="613" d="M15 700h169l139 -322l135 322h140l-210 -445v-255h-160v255zM187 750l132 145h192l-199 -145h-125z" />
<glyph unicode="&#xde;" horiz-adv-x="622" d="M75 0v700h160v-101h86q110 0 189 -61.5t79 -177.5t-79 -177.5t-189 -61.5h-86v-121h-160zM235 238h86q45 0 76 31.5t31 90.5q0 58 -31 89.5t-76 31.5h-86v-243z" />
<glyph unicode="&#xdf;" horiz-adv-x="679" d="M65 0v483q0 130 82 203t202 73q99 0 167.5 -40t68.5 -122q0 -34 -17 -64.5t-37 -48.5t-37 -39t-17 -40t18.5 -36.5t44.5 -33.5t52.5 -36.5t45 -55.5t18.5 -80q0 -87 -62 -132.5t-145 -45.5q-184 0 -192 173h148q2 -77 54 -77q50 0 50 61q0 31 -19 54.5t-46.5 39t-55 32.5 t-46.5 45.5t-19 67.5q0 28 15.5 54.5t34.5 44.5t34.5 45t15.5 56q0 38 -21.5 57.5t-60.5 19.5q-54 0 -87.5 -42t-33.5 -132v-484h-155z" />
<glyph unicode="&#xe0;" horiz-adv-x="574" d="M35 128q0 76 62 123.5t191 47.5q20 0 66 -4v54q0 88 -74 88q-40 0 -60.5 -21t-21.5 -70h-150q4 97 66.5 144.5t165.5 47.5q42 0 79 -7.5t72.5 -25t56.5 -53.5t21 -86v-366h-155v53q-70 -68 -161 -68q-77 0 -117.5 38t-40.5 105zM105 748h182l102 -163h-123zM188 149 q0 -59 73 -59q52 0 93 41v84q-30 3 -58 3q-50 0 -79 -17t-29 -52z" />
<glyph unicode="&#xe1;" horiz-adv-x="574" d="M35 128q0 76 62 123.5t191 47.5q20 0 66 -4v54q0 88 -74 88q-40 0 -60.5 -21t-21.5 -70h-150q4 97 66.5 144.5t165.5 47.5q42 0 79 -7.5t72.5 -25t56.5 -53.5t21 -86v-366h-155v53q-70 -68 -161 -68q-77 0 -117.5 38t-40.5 105zM170 585l102 163h182l-162 -163h-122z M188 149q0 -59 73 -59q52 0 93 41v84q-30 3 -58 3q-50 0 -79 -17t-29 -52z" />
<glyph unicode="&#xe2;" horiz-adv-x="574" d="M35 128q0 76 62 123.5t191 47.5q20 0 66 -4v54q0 88 -74 88q-40 0 -60.5 -21t-21.5 -70h-150q4 97 66.5 144.5t165.5 47.5q42 0 79 -7.5t72.5 -25t56.5 -53.5t21 -86v-366h-155v53q-70 -68 -161 -68q-77 0 -117.5 38t-40.5 105zM87 585l126 163h141l126 -163h-123l-74 70 l-74 -70h-122zM188 149q0 -59 73 -59q52 0 93 41v84q-30 3 -58 3q-50 0 -79 -17t-29 -52z" />
<glyph unicode="&#xe3;" horiz-adv-x="574" d="M35 128q0 76 62 123.5t191 47.5q20 0 66 -4v54q0 88 -74 88q-40 0 -60.5 -21t-21.5 -70h-150q4 97 66.5 144.5t165.5 47.5q42 0 79 -7.5t72.5 -25t56.5 -53.5t21 -86v-366h-155v53q-70 -68 -161 -68q-77 0 -117.5 38t-40.5 105zM86 625q19 54 51.5 83t70.5 29 q33 0 83.5 -21t63.5 -21q28 0 45 39l82 -37q-18 -54 -50.5 -83t-70.5 -29q-33 0 -84 21t-64 21q-26 0 -45 -40zM188 149q0 -59 73 -59q52 0 93 41v84q-30 3 -58 3q-50 0 -79 -17t-29 -52z" />
<glyph unicode="&#xe4;" horiz-adv-x="574" d="M35 128q0 76 62 123.5t191 47.5q20 0 66 -4v54q0 88 -74 88q-40 0 -60.5 -21t-21.5 -70h-150q4 97 66.5 144.5t165.5 47.5q42 0 79 -7.5t72.5 -25t56.5 -53.5t21 -86v-366h-155v53q-70 -68 -161 -68q-77 0 -117.5 38t-40.5 105zM90 665q0 36 23.5 60t60.5 24 q38 0 61.5 -24t23.5 -60t-23.5 -60t-61.5 -24q-37 0 -60.5 24t-23.5 60zM188 149q0 -59 73 -59q52 0 93 41v84q-30 3 -58 3q-50 0 -79 -17t-29 -52zM306 665q0 36 24 60t61 24t60.5 -24t23.5 -60t-23.5 -60t-60.5 -24t-61 24t-24 60z" />
<glyph unicode="&#xe5;" horiz-adv-x="574" d="M35 128q0 76 62 123.5t191 47.5q20 0 66 -4v54q0 88 -74 88q-40 0 -60.5 -21t-21.5 -70h-150q4 97 66.5 144.5t165.5 47.5q42 0 79 -7.5t72.5 -25t56.5 -53.5t21 -86v-366h-155v53q-70 -68 -161 -68q-77 0 -117.5 38t-40.5 105zM152 664q0 46 37.5 73.5t93.5 27.5 q57 0 94 -27.5t37 -73.5t-37 -73.5t-94 -27.5q-56 0 -93.5 27.5t-37.5 73.5zM188 149q0 -59 73 -59q52 0 93 41v84q-30 3 -58 3q-50 0 -79 -17t-29 -52zM252 676q-13 -24 19 -38q30 -13 44 14q12 25 -20 38q-30 13 -43 -14z" />
<glyph unicode="&#xe6;" horiz-adv-x="879" d="M35 128q0 76 62 123.5t191 47.5q20 0 66 -4v54q0 88 -74 88q-40 0 -60.5 -21t-21.5 -70h-150q4 97 66.5 144.5t165.5 47.5q107 0 161 -60q65 60 157 60q118 0 182.5 -76t54.5 -231h-331q3 -78 27 -111.5t68 -33.5q69 0 80 73h151q-10 -82 -72.5 -128t-158.5 -46 q-130 0 -193 88q-99 -88 -213 -88q-77 0 -117.5 38t-40.5 105zM188 149q0 -31 20.5 -45t50.5 -14q57 0 112 53q-9 26 -14 71q-42 4 -61 4q-50 0 -79 -17t-29 -52zM506 319h178q-4 121 -86 121q-78 0 -92 -121z" />
<glyph unicode="&#xe7;" horiz-adv-x="558" d="M42 262q0 127 66.5 201.5t182.5 74.5q104 0 165.5 -53t69.5 -152h-151q-6 57 -25 80.5t-59 23.5q-92 0 -92 -175q0 -87 24 -131.5t68 -44.5q35 0 54.5 23t27.5 73h150q-10 -88 -64.5 -139.5t-145.5 -56.5l-36 -49q45 2 78.5 -19t33.5 -64q0 -50 -40 -76t-100 -26 q-41 0 -72 15v63q29 -13 63 -13q43 0 43 31q0 29 -43 29q-18 0 -35 -5l-25 44l55 74q-95 16 -144 87t-49 185z" />
<glyph unicode="&#xe8;" horiz-adv-x="567" d="M42 262q0 125 67 200.5t177 75.5q118 0 182.5 -76t54.5 -231h-331q4 -79 27.5 -112t67.5 -33q69 0 80 73h151q-10 -82 -72.5 -128t-158.5 -46q-122 0 -183.5 73t-61.5 204zM91 748h182l102 -163h-123zM194 319h178q-4 121 -86 121q-79 0 -92 -121z" />
<glyph unicode="&#xe9;" horiz-adv-x="567" d="M42 262q0 125 67 200.5t177 75.5q118 0 182.5 -76t54.5 -231h-331q4 -79 27.5 -112t67.5 -33q69 0 80 73h151q-10 -82 -72.5 -128t-158.5 -46q-122 0 -183.5 73t-61.5 204zM179 585l102 163h182l-162 -163h-122zM194 319h178q-4 121 -86 121q-79 0 -92 -121z" />
<glyph unicode="&#xea;" horiz-adv-x="567" d="M42 262q0 125 67 200.5t177 75.5q118 0 182.5 -76t54.5 -231h-331q4 -79 27.5 -112t67.5 -33q69 0 80 73h151q-10 -82 -72.5 -128t-158.5 -46q-122 0 -183.5 73t-61.5 204zM86 585l126 163h141l126 -163h-123l-74 70l-74 -70h-122zM194 319h178q-4 121 -86 121 q-79 0 -92 -121z" />
<glyph unicode="&#xeb;" horiz-adv-x="567" d="M42 262q0 125 67 200.5t177 75.5q118 0 182.5 -76t54.5 -231h-331q4 -79 27.5 -112t67.5 -33q69 0 80 73h151q-10 -82 -72.5 -128t-158.5 -46q-122 0 -183.5 73t-61.5 204zM89 665q0 36 23.5 60t60.5 24q38 0 61.5 -24t23.5 -60t-23.5 -60t-61.5 -24q-37 0 -60.5 24 t-23.5 60zM194 319h178q-4 121 -86 121q-79 0 -92 -121zM305 665q0 36 24 60t61 24t60.5 -24t23.5 -60t-23.5 -60t-60.5 -24t-61 24t-24 60z" />
<glyph unicode="&#xec;" horiz-adv-x="285" d="M-74 748h182l102 -163h-123zM65 0v523h155v-523h-155z" />
<glyph unicode="&#xed;" horiz-adv-x="285" d="M65 0v523h155v-523h-155zM68 585l102 163h182l-162 -163h-122z" />
<glyph unicode="&#xee;" horiz-adv-x="285" d="M-53 585l126 163h141l126 -163h-123l-74 70l-74 -70h-122zM65 0v523h155v-523h-155z" />
<glyph unicode="&#xef;" horiz-adv-x="285" d="M-38 665q0 36 24 60t61 24t60.5 -24t23.5 -60t-23.5 -60t-60.5 -24t-61 24t-24 60zM65 0v523h155v-523h-155zM154 665q0 36 23.5 60t60.5 24t61 -24t24 -60t-24 -60t-61 -24t-60.5 24t-23.5 60z" />
<glyph unicode="&#xf0;" horiz-adv-x="597" d="M42 253q0 120 60 191t150 71q59 0 103 -38q-26 61 -66 109l-125 -38l-60 86l108 33q-48 43 -100 77h176q33 -21 52 -37l112 34l60 -86l-92 -28q135 -163 135 -346q0 -135 -68 -215.5t-187 -80.5q-121 0 -189.5 71.5t-68.5 196.5zM199 253q0 -167 101 -167q99 0 99 170 q0 64 -13 127q-37 31 -79 31q-51 0 -79.5 -41t-28.5 -120z" />
<glyph unicode="&#xf1;" horiz-adv-x="618" d="M65 0v523h155v-69q81 84 182 84q66 0 108.5 -39.5t42.5 -132.5v-366h-155v338q0 78 -77 78q-54 0 -101 -43v-373h-155zM101 625q19 54 51.5 83t70.5 29q33 0 83.5 -21t63.5 -21q28 0 45 39l82 -37q-18 -54 -50.5 -83t-70.5 -29q-33 0 -84 21t-64 21q-26 0 -45 -40z" />
<glyph unicode="&#xf2;" horiz-adv-x="598" d="M42 262q0 127 68.5 201.5t188.5 74.5q121 0 189 -74.5t68 -201.5q0 -128 -68 -202.5t-189 -74.5q-120 0 -188.5 74.5t-68.5 202.5zM122 748h182l102 -163h-123zM199 262q0 -176 100 -176t100 176q0 175 -100 175t-100 -175z" />
<glyph unicode="&#xf3;" horiz-adv-x="598" d="M42 262q0 127 68.5 201.5t188.5 74.5q121 0 189 -74.5t68 -201.5q0 -128 -68 -202.5t-189 -74.5q-120 0 -188.5 74.5t-68.5 202.5zM192 585l102 163h182l-162 -163h-122zM199 262q0 -176 100 -176t100 176q0 175 -100 175t-100 -175z" />
<glyph unicode="&#xf4;" horiz-adv-x="598" d="M42 262q0 127 68.5 201.5t188.5 74.5q121 0 189 -74.5t68 -201.5q0 -128 -68 -202.5t-189 -74.5q-120 0 -188.5 74.5t-68.5 202.5zM103 585l126 163h141l126 -163h-123l-74 70l-74 -70h-122zM199 262q0 -176 100 -176t100 176q0 175 -100 175t-100 -175z" />
<glyph unicode="&#xf5;" horiz-adv-x="598" d="M42 262q0 127 68.5 201.5t188.5 74.5q121 0 189 -74.5t68 -201.5q0 -128 -68 -202.5t-189 -74.5q-120 0 -188.5 74.5t-68.5 202.5zM101 625q19 54 51.5 83t70.5 29q33 0 83.5 -21t63.5 -21q28 0 45 39l82 -37q-18 -54 -50.5 -83t-70.5 -29q-33 0 -84 21t-64 21 q-26 0 -45 -40zM199 262q0 -176 100 -176t100 176q0 175 -100 175t-100 -175z" />
<glyph unicode="&#xf6;" horiz-adv-x="598" d="M42 262q0 127 68.5 201.5t188.5 74.5q121 0 189 -74.5t68 -201.5q0 -128 -68 -202.5t-189 -74.5q-120 0 -188.5 74.5t-68.5 202.5zM106 665q0 36 23.5 60t60.5 24q38 0 61.5 -24t23.5 -60t-23.5 -60t-61.5 -24q-37 0 -60.5 24t-23.5 60zM199 262q0 -176 100 -176t100 176 q0 175 -100 175t-100 -175zM322 665q0 36 24 60t61 24t60.5 -24t23.5 -60t-23.5 -60t-60.5 -24t-61 24t-24 60z" />
<glyph unicode="&#xf7;" horiz-adv-x="575" d="M50 306v121h475v-121h-475zM207 181q0 34 22.5 56.5t57.5 22.5t57.5 -22.5t22.5 -56.5t-22.5 -56.5t-57.5 -22.5t-57.5 22.5t-22.5 56.5zM207 551q0 34 22.5 56t57.5 22t57.5 -22t22.5 -56t-22.5 -56.5t-57.5 -22.5t-57.5 22.5t-22.5 56.5z" />
<glyph unicode="&#xf8;" horiz-adv-x="598" d="M28 -80l80 142q-66 74 -66 200q0 127 68.5 201.5t188.5 74.5q37 0 72 -8l41 73h156l-79 -141q67 -75 67 -200q0 -128 -68 -202.5t-189 -74.5q-37 0 -74 8l-41 -73h-156zM199 262q0 -176 100 -176t100 176q0 175 -100 175t-100 -175z" />
<glyph unicode="&#xf9;" horiz-adv-x="613" d="M65 158v365h155v-338q0 -78 75 -78q51 0 98 43v373h155v-523h-155v69q-84 -84 -180 -84q-65 0 -106.5 40t-41.5 133zM127 748h182l102 -163h-123z" />
<glyph unicode="&#xfa;" horiz-adv-x="613" d="M65 158v365h155v-338q0 -78 75 -78q51 0 98 43v373h155v-523h-155v69q-84 -84 -180 -84q-65 0 -106.5 40t-41.5 133zM202 585l102 163h182l-162 -163h-122z" />
<glyph unicode="&#xfb;" horiz-adv-x="613" d="M65 158v365h155v-338q0 -78 75 -78q51 0 98 43v373h155v-523h-155v69q-84 -84 -180 -84q-65 0 -106.5 40t-41.5 133zM110 585l126 163h141l126 -163h-123l-74 70l-74 -70h-122z" />
<glyph unicode="&#xfc;" horiz-adv-x="613" d="M65 158v365h155v-338q0 -78 75 -78q51 0 98 43v373h155v-523h-155v69q-84 -84 -180 -84q-65 0 -106.5 40t-41.5 133zM113 665q0 36 23.5 60t60.5 24q38 0 61.5 -24t23.5 -60t-23.5 -60t-61.5 -24q-37 0 -60.5 24t-23.5 60zM329 665q0 36 24 60t61 24t60.5 -24t23.5 -60 t-23.5 -60t-60.5 -24t-61 24t-24 60z" />
<glyph unicode="&#xfd;" horiz-adv-x="542" d="M12 523h166l48 -152l54 -194l57 194l49 152h143l-257 -731h-136l74 209zM167 585l102 163h182l-162 -163h-122z" />
<glyph unicode="&#xfe;" horiz-adv-x="605" d="M65 -208v952h155v-271q66 65 147 65q91 0 143.5 -76t52.5 -200q0 -120 -61.5 -198.5t-152.5 -78.5q-78 0 -129 62v-255h-155zM220 129q39 -34 82 -34q49 0 76.5 44t27.5 123q0 80 -25 123t-73 43q-47 0 -88 -36v-263z" />
<glyph unicode="&#xff;" horiz-adv-x="542" d="M12 523h166l48 -152l54 -194l57 194l49 152h143l-257 -731h-136l74 209zM88 665q0 36 23.5 60t60.5 24q38 0 61.5 -24t23.5 -60t-23.5 -60t-61.5 -24q-37 0 -60.5 24t-23.5 60zM304 665q0 36 24 60t61 24t60.5 -24t23.5 -60t-23.5 -60t-60.5 -24t-61 24t-24 60z" />
<glyph unicode="&#x100;" horiz-adv-x="670" d="M10 0l239 700h168l243 -700h-170l-49 156h-232l-47 -156h-152zM158 779v102h347v-102h-347zM245 274h160l-26 82l-55 201l-54 -201z" />
<glyph unicode="&#x101;" horiz-adv-x="574" d="M35 128q0 76 62 123.5t191 47.5q20 0 66 -4v54q0 88 -74 88q-40 0 -60.5 -21t-21.5 -70h-150q4 97 66.5 144.5t165.5 47.5q42 0 79 -7.5t72.5 -25t56.5 -53.5t21 -86v-366h-155v53q-70 -68 -161 -68q-77 0 -117.5 38t-40.5 105zM123 612v101h320v-101h-320zM188 149 q0 -59 73 -59q52 0 93 41v84q-30 3 -58 3q-50 0 -79 -17t-29 -52z" />
<glyph unicode="&#x102;" horiz-adv-x="670" d="M10 0l239 700h168l243 -700h-170l-49 156h-232l-47 -156h-152zM153 895h103q0 -51 76 -51q75 0 75 51h103q0 -77 -52.5 -117t-125.5 -40t-126 40t-53 117zM245 274h160l-26 82l-55 201l-54 -201z" />
<glyph unicode="&#x103;" horiz-adv-x="574" d="M35 128q0 76 62 123.5t191 47.5q20 0 66 -4v54q0 88 -74 88q-40 0 -60.5 -21t-21.5 -70h-150q4 97 66.5 144.5t165.5 47.5q42 0 79 -7.5t72.5 -25t56.5 -53.5t21 -86v-366h-155v53q-70 -68 -161 -68q-77 0 -117.5 38t-40.5 105zM114 748h103q0 -27 16 -48.5t50 -21.5 t49.5 21t15.5 49h103q0 -88 -50.5 -131.5t-117.5 -43.5t-118 43.5t-51 131.5zM188 149q0 -59 73 -59q52 0 93 41v84q-30 3 -58 3q-50 0 -79 -17t-29 -52z" />
<glyph unicode="&#x104;" horiz-adv-x="670" d="M10 0l239 700h168l243 -700h-1q-110 -59 -110 -122q0 -19 13 -29t29 -10q32 0 68 17v-80q-42 -24 -113 -24q-56 0 -87 29.5t-31 73.5q0 83 106 145h-44l-49 156h-232l-47 -156h-152zM245 274h160l-26 82l-55 201l-54 -201z" />
<glyph unicode="&#x105;" horiz-adv-x="574" d="M35 128q0 76 62 123.5t191 47.5q20 0 66 -4v54q0 88 -74 88q-40 0 -60.5 -21t-21.5 -70h-150q4 97 66.5 144.5t165.5 47.5q42 0 79 -7.5t72.5 -25t56.5 -53.5t21 -86v-366q-110 -59 -110 -122q0 -19 13 -29t29 -10q32 0 68 17v-80q-42 -24 -113 -24q-56 0 -87 29.5 t-31 73.5q0 83 106 145h-30v53q-70 -68 -161 -68q-77 0 -117.5 38t-40.5 105zM188 149q0 -59 73 -59q52 0 93 41v84q-30 3 -58 3q-50 0 -79 -17t-29 -52z" />
<glyph unicode="&#x106;" horiz-adv-x="675" d="M42 350q0 165 85.5 265t225.5 100q126 0 202.5 -66.5t84.5 -198.5h-166q-12 144 -121 144q-68 0 -104.5 -65t-36.5 -179q0 -244 141 -244q57 0 86 35.5t35 108.5h166q-8 -132 -84.5 -198.5t-202.5 -66.5q-155 0 -233 97t-78 268zM211 750l132 145h192l-199 -145h-125z " />
<glyph unicode="&#x107;" horiz-adv-x="558" d="M42 262q0 127 66.5 201.5t182.5 74.5q104 0 165.5 -53t69.5 -152h-151q-6 57 -25 80.5t-59 23.5q-92 0 -92 -175q0 -87 24 -131.5t68 -44.5q35 0 54.5 23t27.5 73h150q-11 -94 -71 -145.5t-161 -51.5q-121 0 -185 74t-64 203zM214 585l102 163h182l-162 -163h-122z" />
<glyph unicode="&#x108;" horiz-adv-x="675" d="M42 350q0 165 85.5 265t225.5 100q126 0 202.5 -66.5t84.5 -198.5h-166q-12 144 -121 144q-68 0 -104.5 -65t-36.5 -179q0 -244 141 -244q57 0 86 35.5t35 108.5h166q-8 -132 -84.5 -198.5t-202.5 -66.5q-155 0 -233 97t-78 268zM114 750l151 145h151l151 -145h-140 l-87 60l-86 -60h-140z" />
<glyph unicode="&#x109;" horiz-adv-x="558" d="M42 262q0 127 66.5 201.5t182.5 74.5q104 0 165.5 -53t69.5 -152h-151q-6 57 -25 80.5t-59 23.5q-92 0 -92 -175q0 -87 24 -131.5t68 -44.5q35 0 54.5 23t27.5 73h150q-11 -94 -71 -145.5t-161 -51.5q-121 0 -185 74t-64 203zM87 585l126 163h141l126 -163h-123l-74 70 l-74 -70h-122z" />
<glyph unicode="&#x10a;" horiz-adv-x="675" d="M42 350q0 165 85.5 265t225.5 100q126 0 202.5 -66.5t84.5 -198.5h-166q-12 144 -121 144q-68 0 -104.5 -65t-36.5 -179q0 -244 141 -244q57 0 86 35.5t35 108.5h166q-8 -132 -84.5 -198.5t-202.5 -66.5q-155 0 -233 97t-78 268zM251 832q0 38 25.5 61.5t64.5 23.5 t64 -23.5t25 -61.5q0 -37 -25.5 -61t-63.5 -24q-39 0 -64.5 24t-25.5 61z" />
<glyph unicode="&#x10b;" horiz-adv-x="558" d="M42 262q0 127 66.5 201.5t182.5 74.5q104 0 165.5 -53t69.5 -152h-151q-6 57 -25 80.5t-59 23.5q-92 0 -92 -175q0 -87 24 -131.5t68 -44.5q35 0 54.5 23t27.5 73h150q-11 -94 -71 -145.5t-161 -51.5q-121 0 -185 74t-64 203zM194 665q0 38 25 63.5t64 25.5t64 -25.5 t25 -63.5t-25 -63.5t-64 -25.5t-64 25.5t-25 63.5z" />
<glyph unicode="&#x10c;" horiz-adv-x="675" d="M42 350q0 165 85.5 265t225.5 100q126 0 202.5 -66.5t84.5 -198.5h-166q-12 144 -121 144q-68 0 -104.5 -65t-36.5 -179q0 -244 141 -244q57 0 86 35.5t35 108.5h166q-8 -132 -84.5 -198.5t-202.5 -66.5q-155 0 -233 97t-78 268zM114 895h140l86 -60l87 60h140l-151 -145 h-151z" />
<glyph unicode="&#x10d;" horiz-adv-x="558" d="M42 262q0 127 66.5 201.5t182.5 74.5q104 0 165.5 -53t69.5 -152h-151q-6 57 -25 80.5t-59 23.5q-92 0 -92 -175q0 -87 24 -131.5t68 -44.5q35 0 54.5 23t27.5 73h150q-11 -94 -71 -145.5t-161 -51.5q-121 0 -185 74t-64 203zM87 748h122l74 -71l74 71h123l-126 -163 h-141z" />
<glyph unicode="&#x10e;" horiz-adv-x="719" d="M75 0v700h244q159 0 258 -93.5t99 -256.5t-99 -256.5t-258 -93.5h-244zM79 895h140l86 -60l87 60h140l-151 -145h-151zM235 121h84q88 0 138 59.5t50 169.5t-50 169.5t-138 59.5h-84v-458z" />
<glyph unicode="&#x10f;" horiz-adv-x="705" d="M42 262q0 120 61.5 198t152.5 78q78 0 129 -61v267h155v-744h-155v50q-66 -65 -147 -65q-91 0 -143.5 76.5t-52.5 200.5zM199 262q0 -80 25 -123.5t73 -43.5q47 0 88 36v263q-39 34 -82 34q-49 0 -76.5 -43.5t-27.5 -122.5zM592 568v235h132l-28 -235h-104z" />
<glyph unicode="&#x110;" horiz-adv-x="719" d="M-20 288v121h95v291h244q159 0 258 -93.5t99 -256.5t-99 -256.5t-258 -93.5h-244v288h-95zM235 121h84q88 0 138 59.5t50 169.5t-50 169.5t-138 59.5h-84v-170h143v-121h-143v-167z" />
<glyph unicode="&#x111;" horiz-adv-x="605" d="M42 262q0 120 61.5 198t152.5 78q78 0 129 -61v105h-100v101h100v61h155v-61h65v-101h-65v-582h-155v50q-66 -65 -147 -65q-91 0 -143.5 76.5t-52.5 200.5zM199 262q0 -80 25 -123.5t73 -43.5q47 0 88 36v263q-39 34 -82 34q-49 0 -76.5 -43.5t-27.5 -122.5z" />
<glyph unicode="&#x112;" horiz-adv-x="571" d="M75 0v700h439v-121h-279v-150h259v-121h-259v-187h279v-121h-439zM120 779v102h347v-102h-347z" />
<glyph unicode="&#x113;" horiz-adv-x="567" d="M42 262q0 125 67 200.5t177 75.5q118 0 182.5 -76t54.5 -231h-331q4 -79 27.5 -112t67.5 -33q69 0 80 73h151q-10 -82 -72.5 -128t-158.5 -46q-122 0 -183.5 73t-61.5 204zM120 612v101h320v-101h-320zM194 319h178q-4 121 -86 121q-79 0 -92 -121z" />
<glyph unicode="&#x114;" horiz-adv-x="571" d="M75 0v700h439v-121h-279v-150h259v-121h-259v-187h279v-121h-439zM115 895h103q0 -51 76 -51q75 0 75 51h103q0 -77 -52.5 -117t-125.5 -40t-126 40t-53 117z" />
<glyph unicode="&#x115;" horiz-adv-x="567" d="M42 262q0 125 67 200.5t177 75.5q118 0 182.5 -76t54.5 -231h-331q4 -79 27.5 -112t67.5 -33q69 0 80 73h151q-10 -82 -72.5 -128t-158.5 -46q-122 0 -183.5 73t-61.5 204zM113 748h103q0 -27 16 -48.5t50 -21.5t49.5 21t15.5 49h103q0 -88 -50.5 -131.5t-117.5 -43.5 t-118 43.5t-51 131.5zM194 319h178q-4 121 -86 121q-79 0 -92 -121z" />
<glyph unicode="&#x116;" horiz-adv-x="571" d="M75 0v700h439v-121h-279v-150h259v-121h-259v-187h279v-121h-439zM204 832q0 38 25.5 61.5t64.5 23.5t64 -23.5t25 -61.5q0 -37 -25.5 -61t-63.5 -24q-39 0 -64.5 24t-25.5 61z" />
<glyph unicode="&#x117;" horiz-adv-x="567" d="M42 262q0 125 67 200.5t177 75.5q118 0 182.5 -76t54.5 -231h-331q4 -79 27.5 -112t67.5 -33q69 0 80 73h151q-10 -82 -72.5 -128t-158.5 -46q-122 0 -183.5 73t-61.5 204zM190 665q0 38 25 63.5t64 25.5t64 -25.5t25 -63.5t-25 -63.5t-64 -25.5t-64 25.5t-25 63.5z M194 319h178q-4 121 -86 121q-79 0 -92 -121z" />
<glyph unicode="&#x118;" horiz-adv-x="571" d="M75 0v700h439v-121h-279v-150h259v-121h-259v-187h279v-121h-1q-110 -59 -110 -122q0 -19 13 -29t29 -10q32 0 68 17v-80q-42 -24 -113 -24q-56 0 -87 29.5t-31 73.5q0 83 106 145h-313z" />
<glyph unicode="&#x119;" horiz-adv-x="567" d="M42 262q0 125 67 200.5t177 75.5q118 0 182.5 -76t54.5 -231h-331q4 -79 27.5 -112t67.5 -33q69 0 80 73h151q-4 -40 -25 -75q-49 -92 -67 -135t-18 -71q0 -19 13 -29t28 -10q33 0 69 17v-80q-42 -24 -114 -24q-56 0 -87 29.5t-31 73.5q0 57 72 137q-38 -7 -71 -7 q-122 0 -183.5 73t-61.5 204zM194 319h178q-4 121 -86 121q-79 0 -92 -121z" />
<glyph unicode="&#x11a;" horiz-adv-x="571" d="M68 895h140l86 -60l87 60h140l-151 -145h-151zM75 0v700h439v-121h-279v-150h259v-121h-259v-187h279v-121h-439z" />
<glyph unicode="&#x11b;" horiz-adv-x="567" d="M42 262q0 125 67 200.5t177 75.5q118 0 182.5 -76t54.5 -231h-331q4 -79 27.5 -112t67.5 -33q69 0 80 73h151q-10 -82 -72.5 -128t-158.5 -46q-122 0 -183.5 73t-61.5 204zM86 748h122l74 -71l74 71h123l-126 -163h-141zM194 319h178q-4 121 -86 121q-79 0 -92 -121z" />
<glyph unicode="&#x11c;" horiz-adv-x="695" d="M42 350q0 166 86 265.5t230 99.5q119 0 192.5 -61t84.5 -179h-166q-7 60 -33.5 89.5t-77.5 29.5q-71 0 -108.5 -65t-37.5 -179q0 -118 41 -182t116 -64q27 0 60 12t53 29v99h-128v113h281v-357h-153v62q-27 -34 -77.5 -55.5t-98.5 -21.5q-125 0 -194.5 96.5t-69.5 268.5z M120 750l151 145h151l151 -145h-140l-87 60l-86 -60h-140z" />
<glyph unicode="&#x11d;" horiz-adv-x="604" d="M42 268q0 120 61 195t153 75q78 0 129 -61v46h155v-526q0 -56 -22 -100t-58.5 -69.5t-78.5 -38t-87 -12.5q-230 0 -238 184h150q2 -48 25 -65.5t63 -17.5q91 0 91 101v82q-68 -65 -147 -65q-92 0 -144 74.5t-52 197.5zM115 585l126 163h141l126 -163h-123l-74 70l-74 -70 h-122zM199 268q0 -161 98 -161q48 0 88 35v252q-39 34 -82 34q-49 0 -76.5 -41t-27.5 -119z" />
<glyph unicode="&#x11e;" horiz-adv-x="695" d="M42 350q0 166 86 265.5t230 99.5q119 0 192.5 -61t84.5 -179h-166q-7 60 -33.5 89.5t-77.5 29.5q-71 0 -108.5 -65t-37.5 -179q0 -118 41 -182t116 -64q27 0 60 12t53 29v99h-128v113h281v-357h-153v62q-27 -34 -77.5 -55.5t-98.5 -21.5q-125 0 -194.5 96.5t-69.5 268.5z M167 895h103q0 -51 76 -51q75 0 75 51h103q0 -77 -52.5 -117t-125.5 -40t-126 40t-53 117z" />
<glyph unicode="&#x11f;" horiz-adv-x="604" d="M42 268q0 120 61 195t153 75q78 0 129 -61v46h155v-526q0 -56 -22 -100t-58.5 -69.5t-78.5 -38t-87 -12.5q-230 0 -238 184h150q2 -48 25 -65.5t63 -17.5q91 0 91 101v82q-68 -65 -147 -65q-92 0 -144 74.5t-52 197.5zM142 748h103q0 -27 16 -48.5t50 -21.5t49.5 21 t15.5 49h103q0 -88 -50.5 -131.5t-117.5 -43.5t-118 43.5t-51 131.5zM199 268q0 -161 98 -161q48 0 88 35v252q-39 34 -82 34q-49 0 -76.5 -41t-27.5 -119z" />
<glyph unicode="&#x120;" horiz-adv-x="695" d="M42 350q0 166 86 265.5t230 99.5q119 0 192.5 -61t84.5 -179h-166q-7 60 -33.5 89.5t-77.5 29.5q-71 0 -108.5 -65t-37.5 -179q0 -118 41 -182t116 -64q27 0 60 12t53 29v99h-128v113h281v-357h-153v62q-27 -34 -77.5 -55.5t-98.5 -21.5q-125 0 -194.5 96.5t-69.5 268.5z M249 832q0 38 25.5 61.5t64.5 23.5t64 -23.5t25 -61.5q0 -37 -25.5 -61t-63.5 -24q-39 0 -64.5 24t-25.5 61z" />
<glyph unicode="&#x121;" horiz-adv-x="604" d="M42 268q0 120 61 195t153 75q78 0 129 -61v46h155v-526q0 -56 -22 -100t-58.5 -69.5t-78.5 -38t-87 -12.5q-230 0 -238 184h150q2 -48 25 -65.5t63 -17.5q91 0 91 101v82q-68 -65 -147 -65q-92 0 -144 74.5t-52 197.5zM199 268q0 -161 98 -161q48 0 88 35v252 q-39 34 -82 34q-49 0 -76.5 -41t-27.5 -119zM207 665q0 38 25 63.5t64 25.5t64 -25.5t25 -63.5t-25 -63.5t-64 -25.5t-64 25.5t-25 63.5z" />
<glyph unicode="&#x122;" horiz-adv-x="695" d="M42 350q0 166 86 265.5t230 99.5q119 0 192.5 -61t84.5 -179h-166q-7 60 -33.5 89.5t-77.5 29.5q-71 0 -108.5 -65t-37.5 -179q0 -118 41 -182t116 -64q27 0 60 12t53 29v99h-128v113h281v-357h-153v62q-27 -34 -77.5 -55.5t-98.5 -21.5q-125 0 -194.5 96.5t-69.5 268.5z M270 -248l20 195h137l-54 -195h-103z" />
<glyph unicode="&#x123;" horiz-adv-x="604" d="M42 268q0 120 61 195t153 75q78 0 129 -61v46h155v-526q0 -56 -22 -100t-58.5 -69.5t-78.5 -38t-87 -12.5q-230 0 -238 184h150q2 -48 25 -65.5t63 -17.5q91 0 91 101v82q-68 -65 -147 -65q-92 0 -144 74.5t-52 197.5zM199 268q0 -161 98 -161q48 0 88 35v252 q-39 34 -82 34q-49 0 -76.5 -41t-27.5 -119zM223 581l54 195h103l-20 -195h-137z" />
<glyph unicode="&#x124;" horiz-adv-x="745" d="M75 0v700h160v-271h275v271h160v-700h-160v308h-275v-308h-160zM146 750l151 145h151l151 -145h-140l-87 60l-86 -60h-140z" />
<glyph unicode="&#x125;" horiz-adv-x="618" d="M-83 780l151 145h151l151 -145h-140l-87 60l-86 -60h-140zM65 0v744h155v-290q81 84 182 84q66 0 108.5 -39.5t42.5 -132.5v-366h-155v338q0 78 -77 78q-54 0 -101 -43v-373h-155z" />
<glyph unicode="&#x126;" horiz-adv-x="745" d="M2 483v121h73v96h160v-96h275v96h160v-96h73v-121h-73v-483h-160v270h-275v-270h-160v483h-73zM235 391h275v92h-275v-92z" />
<glyph unicode="&#x127;" horiz-adv-x="618" d="M0 582v101h65v61h155v-61h100v-101h-100v-128q81 84 182 84q66 0 108.5 -39.5t42.5 -132.5v-366h-155v338q0 78 -77 78q-54 0 -101 -43v-373h-155v582h-65z" />
<glyph unicode="&#x128;" horiz-adv-x="310" d="M-52 792q19 54 53 83t73 29q33 0 89 -20.5t69 -20.5q33 0 50 39l82 -37q-18 -54 -52 -83.5t-73 -29.5q-33 0 -90 21t-70 21q-31 0 -49 -39zM75 0v700h160v-700h-160z" />
<glyph unicode="&#x129;" horiz-adv-x="285" d="M-55 625q19 54 51.5 83t70.5 29q33 0 83.5 -21t63.5 -21q28 0 45 39l82 -37q-18 -54 -50.5 -83t-70.5 -29q-33 0 -84 21t-64 21q-26 0 -45 -40zM65 0v523h155v-523h-155z" />
<glyph unicode="&#x12a;" horiz-adv-x="310" d="M13 779v102h283v-102h-283zM75 0v700h160v-700h-160z" />
<glyph unicode="&#x12b;" horiz-adv-x="285" d="M15 612v101h255v-101h-255zM65 0v523h155v-523h-155z" />
<glyph unicode="&#x12c;" horiz-adv-x="310" d="M-24 895h103q0 -51 76 -51q75 0 75 51h103q0 -77 -52.5 -117t-125.5 -40t-126 40t-53 117zM75 0v700h160v-700h-160z" />
<glyph unicode="&#x12d;" horiz-adv-x="285" d="M-26 748h103q0 -27 16 -48.5t50 -21.5t49.5 21t15.5 49h103q0 -88 -50.5 -131.5t-117.5 -43.5t-118 43.5t-51 131.5zM65 0v523h155v-523h-155z" />
<glyph unicode="&#x12e;" horiz-adv-x="310" d="M4 -145q0 83 106 145h-35v700h160v-700q-110 -59 -110 -122q0 -19 13 -29t29 -10q32 0 68 17v-80q-42 -24 -113 -24q-56 0 -87 29.5t-31 73.5z" />
<glyph unicode="&#x12f;" horiz-adv-x="285" d="M-11 -145q0 83 106 145h-30v523h155v-523q-110 -59 -110 -122q0 -19 13 -29t29 -10q32 0 68 17v-80q-42 -24 -113 -24q-56 0 -87 29.5t-31 73.5zM53 665q0 38 25 63.5t64 25.5t64 -25.5t25 -63.5t-25 -63.5t-64 -25.5t-64 25.5t-25 63.5z" />
<glyph unicode="&#x130;" horiz-adv-x="310" d="M65 832q0 38 25.5 61.5t64.5 23.5t64 -23.5t25 -61.5q0 -37 -25.5 -61t-63.5 -24q-39 0 -64.5 24t-25.5 61zM75 0v700h160v-700h-160z" />
<glyph unicode="&#x131;" horiz-adv-x="285" d="M65 0v523h155v-523h-155z" />
<glyph unicode="&#x132;" horiz-adv-x="910" d="M75 0v700h160v-700h-160zM340 242h160q2 -77 25.5 -109t68.5 -32q91 0 91 107v492h160v-472q0 -123 -72 -183t-179 -60q-55 0 -98.5 12.5t-79 40.5t-55.5 79.5t-21 124.5z" />
<glyph unicode="&#x133;" horiz-adv-x="570" d="M53 665q0 38 25 63.5t64 25.5t64 -25.5t25 -63.5t-25 -63.5t-64 -25.5t-64 25.5t-25 63.5zM65 0v523h155v-523h-155zM338 665q0 38 25 63.5t64 25.5t64 -25.5t25 -63.5t-25 -63.5t-64 -25.5t-64 25.5t-25 63.5zM350 -208v731h155v-731h-155z" />
<glyph unicode="&#x134;" d="M30 242h160q2 -77 25.5 -109t68.5 -32q91 0 91 107v492h160v-472q0 -123 -72 -183t-179 -60q-55 0 -98.5 12.5t-79 40.5t-55.5 79.5t-21 124.5zM228 750l151 145h151l151 -145h-140l-87 60l-86 -60h-140z" />
<glyph unicode="&#x135;" horiz-adv-x="285" d="M-53 585l126 163h141l126 -163h-123l-74 70l-74 -70h-122zM65 -208v731h155v-731h-155z" />
<glyph unicode="&#x136;" horiz-adv-x="658" d="M75 0v700h160v-313l215 313h153l-221 -318l261 -382h-186l-222 342v-342h-160zM227 -248l20 195h137l-54 -195h-103z" />
<glyph unicode="&#x137;" horiz-adv-x="570" d="M65 0v744h155v-449l167 228h152l-179 -228l195 -295h-178l-157 251v-251h-155zM185 -248l20 195h137l-54 -195h-103z" />
<glyph unicode="&#x138;" horiz-adv-x="570" d="M65 0v523h155v-228l167 228h152l-179 -228l195 -295h-178l-157 251v-251h-155z" />
<glyph unicode="&#x139;" horiz-adv-x="524" d="M41 750l132 145h192l-199 -145h-125zM75 0v700h160v-579h251v-121h-411z" />
<glyph unicode="&#x13a;" horiz-adv-x="285" d="M33 780l132 145h192l-199 -145h-125zM65 0v744h155v-744h-155z" />
<glyph unicode="&#x13b;" horiz-adv-x="524" d="M75 0v700h160v-579h251v-121h-411zM189 -248l20 195h137l-54 -195h-103z" />
<glyph unicode="&#x13c;" horiz-adv-x="285" d="M55 -248l20 195h137l-54 -195h-103zM65 0v744h155v-744h-155z" />
<glyph unicode="&#x13d;" horiz-adv-x="524" d="M75 0v700h160v-579h251v-121h-411zM287 568v235h132l-28 -235h-104z" />
<glyph unicode="&#x13e;" horiz-adv-x="385" d="M65 0v744h155v-744h-155zM272 568v235h132l-28 -235h-104z" />
<glyph unicode="&#x13f;" horiz-adv-x="524" d="M75 0v700h160v-579h251v-121h-411zM287 365q0 39 25.5 64.5t64.5 25.5t64.5 -25.5t25.5 -64.5t-25 -64.5t-65 -25.5t-65 25.5t-25 64.5z" />
<glyph unicode="&#x140;" horiz-adv-x="427" d="M65 0v744h155v-744h-155zM267 365q0 39 25.5 64.5t64.5 25.5t64.5 -25.5t25.5 -64.5t-25 -64.5t-65 -25.5t-65 25.5t-25 64.5z" />
<glyph unicode="&#x141;" horiz-adv-x="524" d="M-8 187v131l83 48v334h160v-241l134 78v-131l-134 -78v-207h251v-121h-411v235z" />
<glyph unicode="&#x142;" horiz-adv-x="330" d="M7 231v111l80 47v355h155v-265l80 47v-111l-80 -47v-368h-155v278z" />
<glyph unicode="&#x143;" horiz-adv-x="728" d="M75 0v700h144l290 -458l-3 190v268h147v-700h-145l-290 457l4 -190v-267h-147zM239 750l132 145h192l-199 -145h-125z" />
<glyph unicode="&#x144;" horiz-adv-x="618" d="M65 0v523h155v-69q81 84 182 84q66 0 108.5 -39.5t42.5 -132.5v-366h-155v338q0 78 -77 78q-54 0 -101 -43v-373h-155zM177 585l102 163h182l-162 -163h-122z" />
<glyph unicode="&#x145;" horiz-adv-x="728" d="M75 0v700h144l290 -458l-3 190v268h147v-700h-145l-290 457l4 -190v-267h-147zM282 -248l20 195h137l-54 -195h-103z" />
<glyph unicode="&#x146;" horiz-adv-x="618" d="M65 0v523h155v-69q81 84 182 84q66 0 108.5 -39.5t42.5 -132.5v-366h-155v338q0 78 -77 78q-54 0 -101 -43v-373h-155zM220 -248l20 195h137l-54 -195h-103z" />
<glyph unicode="&#x147;" horiz-adv-x="728" d="M75 0v700h144l290 -458l-3 190v268h147v-700h-145l-290 457l4 -190v-267h-147zM137 895h140l86 -60l87 60h140l-151 -145h-151z" />
<glyph unicode="&#x148;" horiz-adv-x="618" d="M65 0v523h155v-69q81 84 182 84q66 0 108.5 -39.5t42.5 -132.5v-366h-155v338q0 78 -77 78q-54 0 -101 -43v-373h-155zM102 748h122l74 -71l74 71h123l-126 -163h-141z" />
<glyph unicode="&#x14a;" horiz-adv-x="728" d="M75 0v700h144l290 -458l-3 190v268h147v-700q0 -62 -19 -107t-52.5 -69.5t-73 -35.5t-86.5 -11q-53 0 -91 20v110q47 -14 91 -14q43 0 66 22.5t23 79.5l-293 462l4 -190v-267h-147z" />
<glyph unicode="&#x14b;" horiz-adv-x="618" d="M65 0v523h155v-69q81 84 182 84q66 0 108.5 -39.5t42.5 -132.5v-574h-155v546q0 78 -77 78q-54 0 -101 -43v-373h-155z" />
<glyph unicode="&#x14c;" horiz-adv-x="743" d="M42 350q0 166 89 265.5t240 99.5q152 0 240.5 -99t88.5 -266t-88.5 -266t-240.5 -99q-151 0 -240 99.5t-89 265.5zM197 779v102h347v-102h-347zM212 350q0 -115 39.5 -179.5t119.5 -64.5t120 64.5t40 179.5t-40 179.5t-120 64.5t-119.5 -64.5t-39.5 -179.5z" />
<glyph unicode="&#x14d;" horiz-adv-x="598" d="M42 262q0 127 68.5 201.5t188.5 74.5q121 0 189 -74.5t68 -201.5q0 -128 -68 -202.5t-189 -74.5q-120 0 -188.5 74.5t-68.5 202.5zM139 612v101h320v-101h-320zM199 262q0 -176 100 -176t100 176q0 175 -100 175t-100 -175z" />
<glyph unicode="&#x14e;" horiz-adv-x="743" d="M42 350q0 166 89 265.5t240 99.5q152 0 240.5 -99t88.5 -266t-88.5 -266t-240.5 -99q-151 0 -240 99.5t-89 265.5zM192 895h103q0 -51 76 -51q75 0 75 51h103q0 -77 -52.5 -117t-125.5 -40t-126 40t-53 117zM212 350q0 -115 39.5 -179.5t119.5 -64.5t120 64.5t40 179.5 t-40 179.5t-120 64.5t-119.5 -64.5t-39.5 -179.5z" />
<glyph unicode="&#x14f;" horiz-adv-x="598" d="M42 262q0 127 68.5 201.5t188.5 74.5q121 0 189 -74.5t68 -201.5q0 -128 -68 -202.5t-189 -74.5q-120 0 -188.5 74.5t-68.5 202.5zM130 748h103q0 -27 16 -48.5t50 -21.5t49.5 21t15.5 49h103q0 -88 -50.5 -131.5t-117.5 -43.5t-118 43.5t-51 131.5zM199 262 q0 -176 100 -176t100 176q0 175 -100 175t-100 -175z" />
<glyph unicode="&#x150;" horiz-adv-x="743" d="M42 350q0 166 89 265.5t240 99.5q152 0 240.5 -99t88.5 -266t-88.5 -266t-240.5 -99q-151 0 -240 99.5t-89 265.5zM161 750l104 145h176l-164 -145h-116zM212 350q0 -115 39.5 -179.5t119.5 -64.5t120 64.5t40 179.5t-40 179.5t-120 64.5t-119.5 -64.5t-39.5 -179.5z M375 750l105 145h176l-164 -145h-117z" />
<glyph unicode="&#x151;" horiz-adv-x="598" d="M42 262q0 127 68.5 201.5t188.5 74.5q121 0 189 -74.5t68 -201.5q0 -128 -68 -202.5t-189 -74.5q-120 0 -188.5 74.5t-68.5 202.5zM110 585l82 163h176l-144 -163h-114zM199 262q0 -176 100 -176t100 176q0 175 -100 175t-100 -175zM321 585l82 163h175l-143 -163h-114z " />
<glyph unicode="&#x152;" horiz-adv-x="992" d="M65 350q0 163 99 256.5t258 93.5h513v-121h-279v-150h259v-121h-259v-187h279v-121h-513q-159 0 -258 93.5t-99 256.5zM234 350q0 -110 50 -169.5t138 -59.5h74v458h-74q-88 0 -138 -59.5t-50 -169.5z" />
<glyph unicode="&#x153;" horiz-adv-x="924" d="M42 262q0 127 68.5 201.5t188.5 74.5q116 0 176 -79q62 79 168 79q118 0 182.5 -76t54.5 -231h-331q4 -79 27.5 -112t67.5 -33q69 0 80 73h151q-10 -82 -72.5 -128t-158.5 -46q-117 0 -173 75q-58 -75 -172 -75q-120 0 -188.5 74.5t-68.5 202.5zM199 262q0 -176 100 -176 t100 176q0 175 -100 175t-100 -175zM551 319h178q-4 121 -86 121q-79 0 -92 -121z" />
<glyph unicode="&#x154;" horiz-adv-x="635" d="M75 0v700h241q71 0 129.5 -21.5t98.5 -74t40 -129.5q0 -76 -38 -127t-101 -75l175 -273h-181l-144 250h-60v-250h-160zM156 750l132 145h192l-199 -145h-125zM235 363h81q46 0 76.5 27.5t30.5 84.5q0 55 -30.5 81.5t-76.5 26.5h-81v-220z" />
<glyph unicode="&#x155;" horiz-adv-x="454" d="M65 0v523h155v-97q26 53 65.5 82.5t77.5 29.5q35 0 63 -20v-135q-38 16 -75 16q-40 0 -76.5 -18.5t-54.5 -46.5v-334h-155zM103 585l102 163h182l-162 -163h-122z" />
<glyph unicode="&#x156;" horiz-adv-x="635" d="M75 0v700h241q71 0 129.5 -21.5t98.5 -74t40 -129.5q0 -76 -38 -127t-101 -75l175 -273h-181l-144 250h-60v-250h-160zM234 -248l20 195h137l-54 -195h-103zM235 363h81q46 0 76.5 27.5t30.5 84.5q0 55 -30.5 81.5t-76.5 26.5h-81v-220z" />
<glyph unicode="&#x157;" horiz-adv-x="454" d="M57 -248l20 195h137l-54 -195h-103zM65 0v523h155v-97q26 53 65.5 82.5t77.5 29.5q35 0 63 -20v-135q-38 16 -75 16q-40 0 -76.5 -18.5t-54.5 -46.5v-334h-155z" />
<glyph unicode="&#x158;" horiz-adv-x="635" d="M69 895h140l86 -60l87 60h140l-151 -145h-151zM75 0v700h241q71 0 129.5 -21.5t98.5 -74t40 -129.5q0 -76 -38 -127t-101 -75l175 -273h-181l-144 250h-60v-250h-160zM235 363h81q46 0 76.5 27.5t30.5 84.5q0 55 -30.5 81.5t-76.5 26.5h-81v-220z" />
<glyph unicode="&#x159;" horiz-adv-x="454" d="M37 748h122l74 -71l74 71h123l-126 -163h-141zM65 0v523h155v-97q26 53 65.5 82.5t77.5 29.5q35 0 63 -20v-135q-38 16 -75 16q-40 0 -76.5 -18.5t-54.5 -46.5v-334h-155z" />
<glyph unicode="&#x15a;" horiz-adv-x="634" d="M42 215h165q8 -113 120 -113q48 0 79 22.5t31 64.5q0 14 -4 26.5t-9 20.5t-17 16t-19.5 12t-26 9t-27 7t-31 6.5t-30.5 6.5q-39 8 -64.5 15.5t-59 23.5t-53 36.5t-33.5 55t-14 78.5q0 97 71.5 155t184.5 58q258 0 276 -221h-164q-4 54 -32 79t-80 25q-46 0 -74.5 -20.5 t-28.5 -60.5q0 -13 2.5 -24t9 -19.5t11.5 -15t17.5 -12t19.5 -9t24 -8t24.5 -6l27.5 -5.5t27 -6q32 -7 46.5 -10.5t43.5 -12.5t44 -17.5t35.5 -24.5t31 -34t18 -44.5t7.5 -58.5q0 -98 -78 -161.5t-186 -63.5q-275 0 -285 230zM172 750l132 145h192l-199 -145h-125z" />
<glyph unicode="&#x15b;" horiz-adv-x="519" d="M35 158h148q2 -77 86 -77q79 0 79 59q0 43 -105 61q-9 2 -14 3q-34 6 -56 11.5t-50.5 18t-45 29t-28.5 44t-12 63.5q0 79 60 123.5t151 44.5q112 0 165.5 -39.5t57.5 -120.5h-147q-6 65 -77 65q-32 0 -52.5 -13t-20.5 -41q0 -30 21.5 -40.5t77.5 -21.5q10 -2 16 -3 q28 -5 40.5 -7.5t38 -9.5t37.5 -13.5t30.5 -19t27 -27t15 -36.5t6.5 -48q0 -80 -62 -129t-155 -49q-224 0 -232 173zM127 585l102 163h182l-162 -163h-122z" />
<glyph unicode="&#x15c;" horiz-adv-x="634" d="M42 215h165q8 -113 120 -113q48 0 79 22.5t31 64.5q0 14 -4 26.5t-9 20.5t-17 16t-19.5 12t-26 9t-27 7t-31 6.5t-30.5 6.5q-39 8 -64.5 15.5t-59 23.5t-53 36.5t-33.5 55t-14 78.5q0 97 71.5 155t184.5 58q258 0 276 -221h-164q-4 54 -32 79t-80 25q-46 0 -74.5 -20.5 t-28.5 -60.5q0 -13 2.5 -24t9 -19.5t11.5 -15t17.5 -12t19.5 -9t24 -8t24.5 -6l27.5 -5.5t27 -6q32 -7 46.5 -10.5t43.5 -12.5t44 -17.5t35.5 -24.5t31 -34t18 -44.5t7.5 -58.5q0 -98 -78 -161.5t-186 -63.5q-275 0 -285 230zM90 750l151 145h151l151 -145h-140l-87 60 l-86 -60h-140z" />
<glyph unicode="&#x15d;" horiz-adv-x="519" d="M35 158h148q2 -77 86 -77q79 0 79 59q0 43 -105 61q-9 2 -14 3q-34 6 -56 11.5t-50.5 18t-45 29t-28.5 44t-12 63.5q0 79 60 123.5t151 44.5q112 0 165.5 -39.5t57.5 -120.5h-147q-6 65 -77 65q-32 0 -52.5 -13t-20.5 -41q0 -30 21.5 -40.5t77.5 -21.5q10 -2 16 -3 q28 -5 40.5 -7.5t38 -9.5t37.5 -13.5t30.5 -19t27 -27t15 -36.5t6.5 -48q0 -80 -62 -129t-155 -49q-224 0 -232 173zM55 585l126 163h141l126 -163h-123l-74 70l-74 -70h-122z" />
<glyph unicode="&#x15e;" horiz-adv-x="634" d="M42 215h165q8 -113 120 -113q48 0 79 22.5t31 64.5q0 14 -4 26.5t-9 20.5t-17 16t-19.5 12t-26 9t-27 7t-31 6.5t-30.5 6.5q-39 8 -64.5 15.5t-59 23.5t-53 36.5t-33.5 55t-14 78.5q0 97 71.5 155t184.5 58q258 0 276 -221h-164q-4 54 -32 79t-80 25q-46 0 -74.5 -20.5 t-28.5 -60.5q0 -13 2.5 -24t9 -19.5t11.5 -15t17.5 -12t19.5 -9t24 -8t24.5 -6l27.5 -5.5t27 -6q32 -7 46.5 -10.5t43.5 -12.5t44 -17.5t35.5 -24.5t31 -34t18 -44.5t7.5 -58.5q0 -91 -69 -153.5t-168 -70.5l-36 -49q45 2 78.5 -19t33.5 -64q0 -50 -40 -76t-100 -26 q-41 0 -72 15v63q29 -13 63 -13q43 0 43 31q0 29 -43 29q-18 0 -35 -5l-25 44l54 71q-224 22 -233 228z" />
<glyph unicode="&#x15f;" horiz-adv-x="519" d="M35 158h148q2 -77 86 -77q79 0 79 59q0 43 -105 61q-9 2 -14 3q-34 6 -56 11.5t-50.5 18t-45 29t-28.5 44t-12 63.5q0 79 60 123.5t151 44.5q112 0 165.5 -39.5t57.5 -120.5h-147q-6 65 -77 65q-32 0 -52.5 -13t-20.5 -41q0 -30 21.5 -40.5t77.5 -21.5q10 -2 16 -3 q28 -5 40.5 -7.5t38 -9.5t37.5 -13.5t30.5 -19t27 -27t15 -36.5t6.5 -48q0 -75 -55 -123.5t-140 -53.5l-36 -49q45 2 78.5 -19t33.5 -64q0 -50 -40 -76t-100 -26q-41 0 -72 15v63q29 -13 63 -13q43 0 43 31q0 29 -43 29q-18 0 -35 -5l-25 44l54 72q-169 21 -175 170z" />
<glyph unicode="&#x160;" horiz-adv-x="634" d="M42 215h165q8 -113 120 -113q48 0 79 22.5t31 64.5q0 14 -4 26.5t-9 20.5t-17 16t-19.5 12t-26 9t-27 7t-31 6.5t-30.5 6.5q-39 8 -64.5 15.5t-59 23.5t-53 36.5t-33.5 55t-14 78.5q0 97 71.5 155t184.5 58q258 0 276 -221h-164q-4 54 -32 79t-80 25q-46 0 -74.5 -20.5 t-28.5 -60.5q0 -13 2.5 -24t9 -19.5t11.5 -15t17.5 -12t19.5 -9t24 -8t24.5 -6l27.5 -5.5t27 -6q32 -7 46.5 -10.5t43.5 -12.5t44 -17.5t35.5 -24.5t31 -34t18 -44.5t7.5 -58.5q0 -98 -78 -161.5t-186 -63.5q-275 0 -285 230zM80 895h140l86 -60l87 60h140l-151 -145h-151z " />
<glyph unicode="&#x161;" horiz-adv-x="519" d="M35 158h148q2 -77 86 -77q79 0 79 59q0 43 -105 61q-9 2 -14 3q-34 6 -56 11.5t-50.5 18t-45 29t-28.5 44t-12 63.5q0 79 60 123.5t151 44.5q112 0 165.5 -39.5t57.5 -120.5h-147q-6 65 -77 65q-32 0 -52.5 -13t-20.5 -41q0 -30 21.5 -40.5t77.5 -21.5q10 -2 16 -3 q28 -5 40.5 -7.5t38 -9.5t37.5 -13.5t30.5 -19t27 -27t15 -36.5t6.5 -48q0 -80 -62 -129t-155 -49q-224 0 -232 173zM53 748h122l74 -71l74 71h123l-126 -163h-141z" />
<glyph unicode="&#x162;" horiz-adv-x="568" d="M30 579v121h508v-121h-174v-579h-38l-46 -63q45 2 78.5 -19t33.5 -64q0 -50 -40 -76t-100 -26q-41 0 -72 15v63q29 -13 63 -13q43 0 43 31q0 29 -43 29q-18 0 -35 -5l-25 44l63 84h-42v579h-174z" />
<glyph unicode="&#x163;" horiz-adv-x="425" d="M20 419v104h82v137h155v-137h128v-104h-128v-245q0 -86 63 -86q21 0 67 12v-93q-59 -22 -120 -22h-5l-35 -48q45 2 78.5 -19t33.5 -64q0 -50 -40 -76t-100 -26q-41 0 -72 15v63q29 -13 63 -13q43 0 43 31q0 29 -43 29q-18 0 -35 -5l-25 44l61 81q-89 35 -89 154v268h-82z " />
<glyph unicode="&#x164;" horiz-adv-x="568" d="M30 579v121h508v-121h-174v-579h-160v579h-174zM57 895h140l86 -60l87 60h140l-151 -145h-151z" />
<glyph unicode="&#x165;" horiz-adv-x="425" d="M20 419v104h82v137h155v-137h128v-104h-128v-245q0 -86 63 -86q21 0 67 12v-93q-59 -22 -120 -22q-76 0 -120.5 39.5t-44.5 126.5v268h-82zM307 568v235h132l-28 -235h-104z" />
<glyph unicode="&#x166;" horiz-adv-x="568" d="M30 579v121h508v-121h-174v-170h118v-121h-118v-288h-160v288h-110v121h110v170h-174z" />
<glyph unicode="&#x167;" horiz-adv-x="425" d="M20 237v101h82v81h-82v104h82v137h155v-137h128v-104h-128v-81h83v-101h-83v-63q0 -86 63 -86q21 0 67 12v-93q-59 -22 -120 -22q-76 0 -120.5 39.5t-44.5 126.5v86h-82z" />
<glyph unicode="&#x168;" horiz-adv-x="707" d="M65 234v466h160v-446q0 -148 133 -148q67 0 100.5 33.5t33.5 94.5v466h147v-446q0 -134 -76 -201.5t-205 -67.5q-132 0 -212.5 62t-80.5 187zM144 792q19 54 53 83t73 29q33 0 89 -20.5t69 -20.5q33 0 50 39l82 -37q-18 -54 -52 -83.5t-73 -29.5q-33 0 -90 21t-70 21 q-31 0 -49 -39z" />
<glyph unicode="&#x169;" horiz-adv-x="613" d="M65 158v365h155v-338q0 -78 75 -78q51 0 98 43v373h155v-523h-155v69q-84 -84 -180 -84q-65 0 -106.5 40t-41.5 133zM108 625q19 54 51.5 83t70.5 29q33 0 83.5 -21t63.5 -21q28 0 45 39l82 -37q-18 -54 -50.5 -83t-70.5 -29q-33 0 -84 21t-64 21q-26 0 -45 -40z" />
<glyph unicode="&#x16a;" horiz-adv-x="707" d="M65 234v466h160v-446q0 -148 133 -148q67 0 100.5 33.5t33.5 94.5v466h147v-446q0 -134 -76 -201.5t-205 -67.5q-132 0 -212.5 62t-80.5 187zM178 779v102h347v-102h-347z" />
<glyph unicode="&#x16b;" horiz-adv-x="613" d="M65 158v365h155v-338q0 -78 75 -78q51 0 98 43v373h155v-523h-155v69q-84 -84 -180 -84q-65 0 -106.5 40t-41.5 133zM146 612v101h320v-101h-320z" />
<glyph unicode="&#x16c;" horiz-adv-x="707" d="M65 234v466h160v-446q0 -148 133 -148q67 0 100.5 33.5t33.5 94.5v466h147v-446q0 -134 -76 -201.5t-205 -67.5q-132 0 -212.5 62t-80.5 187zM173 895h103q0 -51 76 -51q75 0 75 51h103q0 -77 -52.5 -117t-125.5 -40t-126 40t-53 117z" />
<glyph unicode="&#x16d;" horiz-adv-x="613" d="M65 158v365h155v-338q0 -78 75 -78q51 0 98 43v373h155v-523h-155v69q-84 -84 -180 -84q-65 0 -106.5 40t-41.5 133zM137 748h103q0 -27 16 -48.5t50 -21.5t49.5 21t15.5 49h103q0 -88 -50.5 -131.5t-117.5 -43.5t-118 43.5t-51 131.5z" />
<glyph unicode="&#x16e;" horiz-adv-x="707" d="M65 234v466h160v-446q0 -148 133 -148q67 0 100.5 33.5t33.5 94.5v466h147v-446q0 -134 -76 -201.5t-205 -67.5q-132 0 -212.5 62t-80.5 187zM221 823q0 46 37.5 75.5t93.5 29.5t93.5 -29t37.5 -76t-37.5 -76t-93.5 -29t-93.5 29.5t-37.5 75.5zM321 835q-13 -28 19 -42 q30 -13 44 18q5 13 -0.5 24.5t-19.5 17.5t-26 0.5t-17 -18.5z" />
<glyph unicode="&#x16f;" horiz-adv-x="613" d="M65 158v365h155v-338q0 -78 75 -78q51 0 98 43v373h155v-523h-155v69q-84 -84 -180 -84q-65 0 -106.5 40t-41.5 133zM174 664q0 46 37.5 73.5t93.5 27.5q57 0 94 -27.5t37 -73.5t-37 -73.5t-94 -27.5q-56 0 -93.5 27.5t-37.5 73.5zM274 676q-13 -24 19 -38q30 -13 44 14 q12 25 -20 38q-30 13 -43 -14z" />
<glyph unicode="&#x170;" horiz-adv-x="707" d="M65 234v466h160v-446q0 -148 133 -148q67 0 100.5 33.5t33.5 94.5v466h147v-446q0 -134 -76 -201.5t-205 -67.5q-132 0 -212.5 62t-80.5 187zM142 750l104 145h176l-164 -145h-116zM356 750l105 145h176l-164 -145h-117z" />
<glyph unicode="&#x171;" horiz-adv-x="613" d="M65 158v365h155v-338q0 -78 75 -78q51 0 98 43v373h155v-523h-155v69q-84 -84 -180 -84q-65 0 -106.5 40t-41.5 133zM109 585l82 163h176l-144 -163h-114zM320 585l82 163h175l-143 -163h-114z" />
<glyph unicode="&#x172;" horiz-adv-x="707" d="M65 234v466h160v-446q0 -148 133 -148q67 0 100.5 33.5t33.5 94.5v466h147v-446q0 -107 -49.5 -172t-137.5 -86q-102 -58 -102 -118q0 -19 13 -29t29 -10q32 0 68 17v-80q-42 -24 -113 -24q-56 0 -87 29.5t-31 73.5q0 74 85 132q-114 9 -181.5 71t-67.5 176z" />
<glyph unicode="&#x173;" horiz-adv-x="613" d="M65 158v365h155v-338q0 -78 75 -78q51 0 98 43v373h155v-523h-1q-110 -59 -110 -122q0 -19 13 -29t29 -10q32 0 68 17v-80q-42 -24 -113 -24q-56 0 -87 29.5t-31 73.5q0 83 106 145h-29v69q-84 -84 -180 -84q-65 0 -106.5 40t-41.5 133z" />
<glyph unicode="&#x174;" horiz-adv-x="957" d="M10 700h168l73 -321l40 -201l42 201l77 321h158l77 -321l42 -202l40 202l70 321h150l-184 -700h-168l-72 288l-42 202l-44 -202l-71 -288h-168zM252 750l151 145h151l151 -145h-140l-87 60l-86 -60h-140z" />
<glyph unicode="&#x175;" horiz-adv-x="831" d="M12 523h159l42 -173l44 -194l51 194l48 173h135l50 -173l50 -194l45 194l43 173h140l-160 -524h-150l-43 158l-48 193l-51 -193l-44 -157h-150zM219 585l126 163h141l126 -163h-123l-74 70l-74 -70h-122z" />
<glyph unicode="&#x176;" horiz-adv-x="613" d="M15 700h169l139 -322l135 322h140l-210 -445v-255h-160v255zM80 750l151 145h151l151 -145h-140l-87 60l-86 -60h-140z" />
<glyph unicode="&#x177;" horiz-adv-x="542" d="M12 523h166l48 -152l54 -194l57 194l49 152h143l-257 -731h-136l74 209zM84 585l126 163h141l126 -163h-123l-74 70l-74 -70h-122z" />
<glyph unicode="&#x178;" horiz-adv-x="613" d="M15 700h169l139 -322l135 322h140l-210 -445v-255h-160v255zM108 833q0 36 24 58.5t61 22.5q38 0 61.5 -22.5t23.5 -58.5t-23.5 -58.5t-61.5 -22.5q-37 0 -61 22.5t-24 58.5zM333 833q0 36 24 58.5t62 22.5q36 0 60.5 -22.5t24.5 -58.5t-24.5 -58.5t-60.5 -22.5 q-38 0 -62 22.5t-24 58.5z" />
<glyph unicode="&#x179;" horiz-adv-x="554" d="M40 0v121l292 458h-290v121h472v-121l-291 -458h291v-121h-474zM155 750l132 145h192l-199 -145h-125z" />
<glyph unicode="&#x17a;" horiz-adv-x="462" d="M32 0v104l232 315h-222v104h388v-104l-232 -315h232v-104h-398zM127 585l102 163h182l-162 -163h-122z" />
<glyph unicode="&#x17b;" horiz-adv-x="554" d="M40 0v121l292 458h-290v121h472v-121l-291 -458h291v-121h-474zM187 832q0 38 25.5 61.5t64.5 23.5t64 -23.5t25 -61.5q0 -37 -25.5 -61t-63.5 -24q-39 0 -64.5 24t-25.5 61z" />
<glyph unicode="&#x17c;" horiz-adv-x="462" d="M32 0v104l232 315h-222v104h388v-104l-232 -315h232v-104h-398zM142 665q0 38 25 63.5t64 25.5t64 -25.5t25 -63.5t-25 -63.5t-64 -25.5t-64 25.5t-25 63.5z" />
<glyph unicode="&#x17d;" horiz-adv-x="554" d="M40 0v121l292 458h-290v121h472v-121l-291 -458h291v-121h-474zM51 895h140l86 -60l87 60h140l-151 -145h-151z" />
<glyph unicode="&#x17e;" horiz-adv-x="462" d="M32 0v104l232 315h-222v104h388v-104l-232 -315h232v-104h-398zM43 748h122l74 -71l74 71h123l-126 -163h-141z" />
<glyph unicode="&#x17f;" horiz-adv-x="322" d="M72 0v578q0 90 50.5 135.5t136.5 45.5q64 0 103 -18v-101q-34 8 -65 8q-70 0 -70 -69v-579h-155z" />
<glyph unicode="&#x192;" horiz-adv-x="652" d="M-55 -24h164q9 -82 69 -82q29 0 48.5 21t19.5 63v201h-153v121h153v199q0 100 63.5 158t164.5 58q219 0 233 -199h-164q-9 82 -69 82q-29 0 -48.5 -21t-19.5 -63v-214h153v-121h-153v-186q0 -100 -63.5 -158t-164.5 -58q-219 0 -233 199z" />
<glyph unicode="&#x1fc;" horiz-adv-x="984" d="M2 0l471 700h454v-121h-279v-150h259v-121h-259v-187h279v-121h-439v156h-212l-96 -156h-178zM349 274h139v230l-95 -158zM492 750l132 145h192l-199 -145h-125z" />
<glyph unicode="&#x1fd;" horiz-adv-x="886" d="M42 128q0 76 62 123.5t191 47.5q20 0 66 -4v54q0 88 -74 88q-40 0 -60.5 -21t-21.5 -70h-150q4 97 66.5 144.5t165.5 47.5q107 0 161 -60q65 60 157 60q118 0 182.5 -76t54.5 -231h-331q3 -78 27 -111.5t68 -33.5q69 0 80 73h151q-10 -82 -72.5 -128t-158.5 -46 q-130 0 -193 88q-99 -88 -213 -88q-77 0 -117.5 38t-40.5 105zM195 149q0 -31 20.5 -45t50.5 -14q57 0 112 53q-9 26 -14 71q-42 4 -61 4q-50 0 -79 -17t-29 -52zM306 585l102 163h182l-162 -163h-122zM513 319h178q-4 121 -86 121q-78 0 -92 -121z" />
<glyph unicode="&#x218;" horiz-adv-x="634" d="M42 215h165q8 -113 120 -113q48 0 79 22.5t31 64.5q0 14 -4 26.5t-9 20.5t-17 16t-19.5 12t-26 9t-27 7t-31 6.5t-30.5 6.5q-39 8 -64.5 15.5t-59 23.5t-53 36.5t-33.5 55t-14 78.5q0 97 71.5 155t184.5 58q258 0 276 -221h-164q-4 54 -32 79t-80 25q-46 0 -74.5 -20.5 t-28.5 -60.5q0 -13 2.5 -24t9 -19.5t11.5 -15t17.5 -12t19.5 -9t24 -8t24.5 -6l27.5 -5.5t27 -6q32 -7 46.5 -10.5t43.5 -12.5t44 -17.5t35.5 -24.5t31 -34t18 -44.5t7.5 -58.5q0 -98 -78 -161.5t-186 -63.5q-275 0 -285 230zM235 -248l20 195h137l-54 -195h-103z" />
<glyph unicode="&#x219;" horiz-adv-x="519" d="M35 158h148q2 -77 86 -77q79 0 79 59q0 43 -105 61q-9 2 -14 3q-34 6 -56 11.5t-50.5 18t-45 29t-28.5 44t-12 63.5q0 79 60 123.5t151 44.5q112 0 165.5 -39.5t57.5 -120.5h-147q-6 65 -77 65q-32 0 -52.5 -13t-20.5 -41q0 -30 21.5 -40.5t77.5 -21.5q10 -2 16 -3 q28 -5 40.5 -7.5t38 -9.5t37.5 -13.5t30.5 -19t27 -27t15 -36.5t6.5 -48q0 -80 -62 -129t-155 -49q-224 0 -232 173zM181 -248l20 195h137l-54 -195h-103z" />
<glyph unicode="&#x21a;" horiz-adv-x="568" d="M30 579v121h508v-121h-174v-579h-160v579h-174zM195 -248l20 195h137l-54 -195h-103z" />
<glyph unicode="&#x21b;" horiz-adv-x="425" d="M20 419v104h82v137h155v-137h128v-104h-128v-245q0 -86 63 -86q21 0 67 12v-93q-59 -22 -120 -22q-76 0 -120.5 39.5t-44.5 126.5v268h-82zM140 -248l20 195h137l-54 -195h-103z" />
<glyph unicode="&#x2c6;" horiz-adv-x="493" d="M50 585l126 163h141l126 -163h-123l-74 70l-74 -70h-122z" />
<glyph unicode="&#x2c7;" horiz-adv-x="493" d="M50 748h122l74 -71l74 71h123l-126 -163h-141z" />
<glyph unicode="&#x2d8;" horiz-adv-x="437" d="M50 748h103q0 -27 16 -48.5t50 -21.5t49.5 21t15.5 49h103q0 -88 -50.5 -131.5t-117.5 -43.5t-118 43.5t-51 131.5z" />
<glyph unicode="&#x2d9;" horiz-adv-x="278" d="M50 665q0 38 25 63.5t64 25.5t64 -25.5t25 -63.5t-25 -63.5t-64 -25.5t-64 25.5t-25 63.5z" />
<glyph unicode="&#x2da;" horiz-adv-x="362" d="M50 664q0 46 37.5 73.5t93.5 27.5q57 0 94 -27.5t37 -73.5t-37 -73.5t-94 -27.5q-56 0 -93.5 27.5t-37.5 73.5zM150 676q-13 -24 19 -38q30 -13 44 14q12 25 -20 38q-30 13 -43 -14z" />
<glyph unicode="&#x2db;" horiz-adv-x="331" d="M50 -145q0 83 106 145h125q-110 -59 -110 -122q0 -19 13 -29t29 -10q32 0 68 17v-80q-42 -24 -113 -24q-56 0 -87 29.5t-31 73.5z" />
<glyph unicode="&#x2dc;" horiz-adv-x="496" d="M50 625q19 54 51.5 83t70.5 29q33 0 83.5 -21t63.5 -21q28 0 45 39l82 -37q-18 -54 -50.5 -83t-70.5 -29q-33 0 -84 21t-64 21q-26 0 -45 -40z" />
<glyph unicode="&#x2dd;" horiz-adv-x="565" d="M50 585l82 163h176l-144 -163h-114zM261 585l82 163h175l-143 -163h-114z" />
<glyph unicode="&#x326;" horiz-adv-x="0" d="M-207 -248l20 195h137l-54 -195h-103z" />
<glyph unicode="&#x3c0;" horiz-adv-x="618" d="M65 0v523h488v-523h-155v419h-178v-419h-155z" />
<glyph unicode="&#xe3f;" horiz-adv-x="653" d="M75 0v700h158v120h147v-123q203 -21 203 -176q0 -50 -27.5 -91.5t-76.5 -57.5q131 -35 131 -163q0 -96 -64.5 -147.5t-165.5 -60.5v-121h-147v120h-158zM235 117h108q48 0 77 22t29 70q0 89 -106 89h-108v-181zM235 411h83q104 0 104 90q0 82 -104 82h-83v-172z" />
<glyph unicode="&#x1e80;" horiz-adv-x="957" d="M10 700h168l73 -321l40 -201l42 201l77 321h158l77 -321l42 -202l40 202l70 321h150l-184 -700h-168l-72 288l-42 202l-44 -202l-71 -288h-168zM281 895h192l132 -145h-125z" />
<glyph unicode="&#x1e81;" horiz-adv-x="831" d="M12 523h159l42 -173l44 -194l51 194l48 173h135l50 -173l50 -194l45 194l43 173h140l-160 -524h-150l-43 158l-48 193l-51 -193l-44 -157h-150zM219 748h182l102 -163h-123z" />
<glyph unicode="&#x1e82;" horiz-adv-x="957" d="M10 700h168l73 -321l40 -201l42 201l77 321h158l77 -321l42 -202l40 202l70 321h150l-184 -700h-168l-72 288l-42 202l-44 -202l-71 -288h-168zM351 750l132 145h192l-199 -145h-125z" />
<glyph unicode="&#x1e83;" horiz-adv-x="831" d="M12 523h159l42 -173l44 -194l51 194l48 173h135l50 -173l50 -194l45 194l43 173h140l-160 -524h-150l-43 158l-48 193l-51 -193l-44 -157h-150zM331 585l102 163h182l-162 -163h-122z" />
<glyph unicode="&#x1e84;" horiz-adv-x="957" d="M10 700h168l73 -321l40 -201l42 201l77 321h158l77 -321l42 -202l40 202l70 321h150l-184 -700h-168l-72 288l-42 202l-44 -202l-71 -288h-168zM280 833q0 36 24 58.5t61 22.5q38 0 61.5 -22.5t23.5 -58.5t-23.5 -58.5t-61.5 -22.5q-37 0 -61 22.5t-24 58.5zM505 833 q0 36 24 58.5t62 22.5q36 0 60.5 -22.5t24.5 -58.5t-24.5 -58.5t-60.5 -22.5q-38 0 -62 22.5t-24 58.5z" />
<glyph unicode="&#x1e85;" horiz-adv-x="831" d="M12 523h159l42 -173l44 -194l51 194l48 173h135l50 -173l50 -194l45 194l43 173h140l-160 -524h-150l-43 158l-48 193l-51 -193l-44 -157h-150zM223 665q0 36 23.5 60t60.5 24q38 0 61.5 -24t23.5 -60t-23.5 -60t-61.5 -24q-37 0 -60.5 24t-23.5 60zM439 665q0 36 24 60 t61 24t60.5 -24t23.5 -60t-23.5 -60t-60.5 -24t-61 24t-24 60z" />
<glyph unicode="&#x1e9e;" horiz-adv-x="706" d="M75 0v394q0 317 294 317h254v-121l-127 -192q51 -15 86.5 -42t52.5 -59.5t24 -60.5t7 -55q0 -97 -59.5 -146.5t-147.5 -49.5q-187 0 -193 173h149q3 -35 13 -51t32 -16q45 0 45 75q0 56 -34 91.5t-101 35.5h-30v121l117 176h-88q-67 0 -100.5 -43t-33.5 -143v-404h-160z " />
<glyph unicode="&#x1ef2;" horiz-adv-x="613" d="M15 700h169l139 -322l135 322h140l-210 -445v-255h-160v255zM102 895h192l132 -145h-125z" />
<glyph unicode="&#x1ef3;" horiz-adv-x="542" d="M12 523h166l48 -152l54 -194l57 194l49 152h143l-257 -731h-136l74 209zM84 748h182l102 -163h-123z" />
<glyph unicode="&#x2000;" horiz-adv-x="467" />
<glyph unicode="&#x2001;" horiz-adv-x="935" />
<glyph unicode="&#x2002;" horiz-adv-x="467" />
<glyph unicode="&#x2003;" horiz-adv-x="935" />
<glyph unicode="&#x2004;" horiz-adv-x="311" />
<glyph unicode="&#x2005;" horiz-adv-x="233" />
<glyph unicode="&#x2006;" horiz-adv-x="155" />
<glyph unicode="&#x2007;" horiz-adv-x="155" />
<glyph unicode="&#x2008;" horiz-adv-x="116" />
<glyph unicode="&#x2009;" horiz-adv-x="187" />
<glyph unicode="&#x200a;" horiz-adv-x="51" />
<glyph unicode="&#x2010;" horiz-adv-x="347" d="M50 216v121h247v-121h-247z" />
<glyph unicode="&#x2011;" horiz-adv-x="347" d="M50 216v121h247v-121h-247z" />
<glyph unicode="&#x2012;" horiz-adv-x="347" d="M50 216v121h247v-121h-247z" />
<glyph unicode="&#x2013;" horiz-adv-x="500" d="M40 216v121h420v-121h-420z" />
<glyph unicode="&#x2014;" horiz-adv-x="1000" d="M40 216v121h920v-121h-920z" />
<glyph unicode="&#x2018;" horiz-adv-x="266" d="M17 587l109 273h122l-77 -273h-154z" />
<glyph unicode="&#x2019;" horiz-adv-x="266" d="M17 587l78 273h153l-109 -273h-122z" />
<glyph unicode="&#x201a;" horiz-adv-x="266" d="M17 -160l78 272h153l-109 -272h-122z" />
<glyph unicode="&#x201c;" horiz-adv-x="468" d="M17 587l109 273h122l-77 -273h-154zM220 587l109 273h122l-78 -273h-153z" />
<glyph unicode="&#x201d;" horiz-adv-x="468" d="M17 587l78 273h153l-109 -273h-122zM220 587l77 273h154l-109 -273h-122z" />
<glyph unicode="&#x201e;" horiz-adv-x="468" d="M17 -160l78 272h153l-109 -272h-122zM220 -160l77 272h154l-109 -272h-122z" />
<glyph unicode="&#x2020;" horiz-adv-x="553" d="M65 409v121h131v170h161v-170h131v-121h-131v-409h-161v409h-131z" />
<glyph unicode="&#x2021;" horiz-adv-x="553" d="M65 170v121h131v118h-131v121h131v170h161v-170h131v-121h-131v-118h131v-121h-131v-170h-161v170h-131z" />
<glyph unicode="&#x2022;" horiz-adv-x="394" d="M50 350q0 62 43 104.5t104 42.5t104 -42.5t43 -104.5q0 -63 -43 -105t-104 -42t-104 42t-43 105z" />
<glyph unicode="&#x2026;" horiz-adv-x="803" d="M30 75q0 40 25 64.5t65 24.5t64.5 -24.5t24.5 -64.5t-24.5 -65t-64.5 -25t-65 25t-25 65zM312 75q0 40 25 64.5t65 24.5t64.5 -24.5t24.5 -64.5t-24.5 -65t-64.5 -25t-65 25t-25 65zM593 75q0 40 25 64.5t65 24.5t65 -24.5t25 -64.5t-25 -65t-65 -25t-65 25t-25 65z" />
<glyph unicode="&#x202f;" horiz-adv-x="187" />
<glyph unicode="&#x2030;" horiz-adv-x="1482" d="M49 490q0 99 54 159t143 60t143 -59.5t54 -159.5t-54 -159.5t-143 -59.5t-143 60t-54 159zM180 490q0 -127 66 -127q67 0 67 127t-67 127q-66 0 -66 -127zM218 0l465 700h151l-465 -700h-151zM610 210q0 99 54 159t143 60t143 -59.5t54 -159.5t-54 -159.5t-143 -59.5 t-143 60t-54 159zM741 210q0 -127 66 -127q67 0 67 127t-67 127q-66 0 -66 -127zM1038 210q0 99 54 159t143 60t143 -59.5t54 -159.5t-54 -159.5t-143 -59.5t-143 60t-54 159zM1169 210q0 -127 66 -127q67 0 67 127t-67 127q-66 0 -66 -127z" />
<glyph unicode="&#x2039;" horiz-adv-x="340" d="M50 209v137l240 185v-161l-118 -88l118 -88v-170z" />
<glyph unicode="&#x203a;" horiz-adv-x="340" d="M50 24v162l117 88l-117 88v169l240 -185v-137z" />
<glyph unicode="&#x2044;" horiz-adv-x="400" d="M-108 0l465 700h151l-465 -700h-151z" />
<glyph unicode="&#x205f;" horiz-adv-x="233" />
<glyph unicode="&#x20a1;" horiz-adv-x="675" d="M8 -120l75 261q-41 83 -41 209q0 129 53 219.5t146 125.5l36 125h149l-31 -107q30 -3 59 -11l34 118h148l-57 -197q55 -66 61 -173h-166q-12 144 -121 144q-68 0 -104.5 -65t-36.5 -179q0 -244 141 -244q57 0 86 35.5t35 108.5h166q-7 -120 -71 -185.5t-171 -77.5 l-31 -107h-148l34 118q-24 6 -56 21l-40 -139h-149z" />
<glyph unicode="&#x20a5;" horiz-adv-x="939" d="M65 0v523h155v-65q82 84 179 84q86 0 123 -61l80 155h149l-49 -95q8 1 24 1q65 0 106.5 -40t41.5 -133v-369h-155v342q0 78 -74 78h-6l-92 -179v-241h-124l-57 -110h-149l175 339v113q0 78 -74 78q-51 0 -98 -43v-377h-155z" />
<glyph unicode="&#x20a6;" horiz-adv-x="760" d="M17 185v121h93v86h-93v121h93v187h144l253 -450l-4 190v260h147v-187h93v-121h-93v-86h93v-121h-93v-185h-144l-253 449l4 -190v-259h-147v185h-93z" />
<glyph unicode="&#x20a8;" horiz-adv-x="603" d="M25 405v121h298q-23 53 -96 53h-202v121h82h466v-121h-128q23 -23 37 -53h91v-121h-84q-15 -76 -68 -118.5t-129 -54.5l248 -232h-190l-230 227v113h107q77 0 98 65h-300z" />
<glyph unicode="&#x20a9;" horiz-adv-x="977" d="M17 185v121h123l-22 86h-101v121h71l-48 187h168l64 -321l38 -201l39 201l71 321h158l70 -321l39 -202l38 202l62 321h150l-46 -187h69v-121h-100l-21 -86h121v-121h-151l-46 -185h-168l-65 288l-38 202l-40 -202l-66 -288h-168l-47 185h-154z" />
<glyph unicode="&#x20aa;" horiz-adv-x="842" d="M97 0v700h251q132 0 189 -62t57 -197q0 -87 -26 -235h-125q18 149 18 210q0 84 -27.5 123.5t-95.5 39.5h-109v-579h-132zM276 0v494h132v-373h98q70 0 101 58.5t31 174.5q0 120 -35 346h125q39 -199 39 -351q0 -173 -59 -261t-192 -88h-240z" />
<glyph unicode="&#x20ab;" horiz-adv-x="589" d="M42 0v101h527v-101h-527zM42 352q0 97 54.5 154t134.5 57q84 0 129 -57v81h-101v101h101v56h149v-56h60v-101h-60v-433h-149v47q-58 -61 -142 -61q-80 0 -128 56.5t-48 155.5zM188 352q0 -52 24 -81.5t64 -29.5q45 0 84 34v155q-38 31 -79 31q-40 0 -66.5 -29.5 t-26.5 -79.5z" />
<glyph unicode="&#x20ac;" horiz-adv-x="697" d="M27 179v121h69q-2 32 -2 50q0 24 1 35h-68v121h89q31 99 100.5 154t166.5 55q119 0 195.5 -67t83.5 -198h-166q-12 144 -113 144q-74 0 -102 -88h139v-121h-156q-1 -11 -1 -35q0 -34 1 -50h156v-121h-136q26 -73 99 -73q101 0 113 144h166q-7 -131 -83.5 -198t-195.5 -67 q-207 0 -266 194h-90z" />
<glyph unicode="&#x20ad;" horiz-adv-x="659" d="M15 308v121h90v271h160v-271h6l189 271h153l-197 -271h196v-121h-181l213 -308h-186l-193 304v-304h-160v308h-90z" />
<glyph unicode="&#x20ae;" horiz-adv-x="568" d="M30 579v121h508v-121h-174v-84l115 43v-126l-115 -43v-59l115 43v-126l-115 -43v-184h-160v124l-115 -43v126l115 43v59l-115 -43v126l115 43v144h-174z" />
<glyph unicode="&#x20b1;" horiz-adv-x="687" d="M15 399v121h90v180h219q94 0 167.5 -46t94.5 -134h83v-121h-84q-21 -87 -94.5 -132t-166.5 -45h-59v-222h-160v399h-90zM265 340h59q66 0 93 59h-152v-59zM265 520h154q-13 31 -38.5 47t-56.5 16h-59v-63z" />
<glyph unicode="&#x20b4;" horiz-adv-x="649" d="M42 288v121h316q66 41 66 101q0 42 -24 65t-70 23q-102 0 -111 -99h-164q18 216 275 216q115 0 181 -47.5t66 -132.5q0 -76 -58 -126h87v-121h-329q-62 -39 -62 -99q0 -42 24 -64.5t70 -22.5q104 0 113 99h164q-18 -216 -277 -216q-115 0 -181.5 47.5t-66.5 131.5 q0 76 55 124h-74z" />
<glyph unicode="&#x20b5;" horiz-adv-x="675" d="M42 350q0 140 62.5 234.5t169.5 121.5v114h147v-110q97 -17 154.5 -82.5t64.5 -177.5h-166q-12 144 -121 144q-68 0 -104.5 -65t-36.5 -179q0 -244 141 -244q57 0 86 35.5t35 108.5h166q-7 -112 -64.5 -177.5t-154.5 -82.5v-110h-147v113q-116 23 -174 116.5t-58 240.5z " />
<glyph unicode="&#x2113;" horiz-adv-x="497" d="M35 156v93q39 17 82 39v141q0 140 50.5 213t143.5 73q68 0 109.5 -38t41.5 -123q0 -149 -197 -281v-99q0 -43 19.5 -64.5t50.5 -21.5q21 0 67 12v-93q-59 -22 -120 -22q-76 0 -120.5 39.5t-44.5 126.5v39q-31 -14 -82 -34zM265 393q69 74 69 159q0 62 -29 62 q-23 0 -31.5 -42.5t-8.5 -142.5v-36z" />
<glyph unicode="&#x2117;" horiz-adv-x="830" d="M50 350q0 152 105 258.5t260 106.5t260 -106.5t105 -258.5t-105 -258.5t-260 -106.5t-260 106.5t-105 258.5zM137 350q0 -119 80 -201.5t198 -82.5q117 0 197.5 82.5t80.5 201.5q0 118 -80.5 201t-197.5 83q-118 0 -198 -82.5t-80 -201.5zM289 143v413h144 q65 0 114 -36.5t49 -104.5t-49 -104.5t-114 -36.5h-38v-131h-106zM395 350h38q26 0 42 16t16 49q0 64 -58 64h-38v-129z" />
<glyph unicode="&#x2120;" horiz-adv-x="696" d="M50 493h83q5 -37 46 -37q40 0 40 30q0 5 -1.5 9t-5.5 6.5t-7.5 4.5t-10.5 4t-11.5 3t-14 2.5t-14.5 2.5q-22 4 -36.5 8.5t-31.5 14.5t-25.5 28t-8.5 44q0 43 33.5 69t83.5 26q118 0 125 -95h-83q-4 32 -42 32t-38 -25q0 -5 1.5 -9t5.5 -6.5t7.5 -4.5t10.5 -4t11.5 -3 t14 -2.5t14.5 -2.5q22 -4 36.5 -8.5t31.5 -14.5t25.5 -28t8.5 -44q0 -44 -34 -72t-85 -28q-120 0 -129 100zM337 401v299h88l69 -176l66 176h86v-299h-76v76l1 91l-49 -133h-60l-52 132l3 -93v-73h-76z" />
<glyph unicode="&#x2122;" horiz-adv-x="681" d="M50 637v63h230v-63h-75v-236h-82v236h-73zM322 401v299h88l69 -176l66 176h86v-299h-76v76l1 91l-49 -133h-60l-52 132l3 -93v-73h-76z" />
<glyph unicode="&#x2126;" horiz-adv-x="743" d="M40 0v121h162q-69 44 -114.5 120.5t-45.5 160.5q0 131 91 222t238 91q148 0 238.5 -91t90.5 -222q0 -84 -45 -161t-115 -120h163v-121h-274v121q44 31 73 97t29 144q0 107 -40.5 169.5t-119.5 62.5t-119 -62.5t-40 -169.5q0 -78 29 -144t73 -97v-121h-274z" />
<glyph unicode="&#x212e;" horiz-adv-x="774" d="M50 321q0 144 98 241t239 97t239 -97t98 -241h-523v-239q79 -65 186 -65q75 0 138 34t104 93h47q-45 -74 -121.5 -117t-167.5 -43q-141 0 -239 96.5t-98 240.5zM201 354h373l-1 206q-80 66 -186 66t-186 -66v-206z" />
<glyph unicode="&#x2153;" horiz-adv-x="972" d="M49 540v106l106 54h127v-420h-127v314zM150 0l465 700h151l-465 -700h-151zM563 118h126q5 -41 55 -41q26 0 39.5 12.5t13.5 31.5q0 47 -76 47h-48v89h48q66 0 66 47q0 38 -43 38q-44 0 -49 -40h-126q5 60 52 93.5t123 33.5q74 0 120.5 -31.5t46.5 -88.5q0 -29 -19 -54.5 t-55 -36.5q84 -18 84 -98q0 -58 -51 -93.5t-126 -35.5q-83 0 -130 32.5t-51 94.5z" />
<glyph unicode="&#x2154;" horiz-adv-x="1064" d="M49 569q4 68 51.5 104t123.5 36q78 0 122.5 -34.5t44.5 -96.5q0 -51 -32 -88t-132 -116h168v-94h-333v94q22 17 52.5 40.5t46 36t36.5 30t31 28t20.5 23.5t14.5 24t4 22q0 44 -43 44q-45 0 -49 -53h-126zM242 0l465 700h151l-465 -700h-151zM656 118h126q5 -41 55 -41 q26 0 39.5 12.5t13.5 31.5q0 47 -76 47h-48v89h48q66 0 66 47q0 38 -43 38q-44 0 -49 -40h-126q5 60 52 93.5t123 33.5q74 0 120.5 -31.5t46.5 -88.5q0 -29 -19 -54.5t-55 -36.5q84 -18 84 -98q0 -58 -51 -93.5t-126 -35.5q-83 0 -130 32.5t-51 94.5z" />
<glyph unicode="&#x215b;" horiz-adv-x="987" d="M49 540v106l106 54h127v-420h-127v314zM150 0l465 700h151l-465 -700h-151zM564 113q0 36 21 64.5t64 39.5q-34 12 -54 37t-20 55q0 57 48.5 88.5t127.5 31.5q78 0 126.5 -31t48.5 -89q0 -30 -20 -55t-54 -37q43 -11 64 -39.5t21 -64.5q0 -60 -50 -91t-136 -31t-136.5 31 t-50.5 91zM690 124q0 -47 61 -47t61 47q0 46 -61 46t-61 -46zM700 298q0 -44 51 -44t51 44t-51 44t-51 -44z" />
<glyph unicode="&#x215c;" horiz-adv-x="1047" d="M49 398h126q5 -41 55 -41q26 0 39.5 12.5t13.5 31.5q0 47 -76 47h-48v89h48q66 0 66 47q0 38 -43 38q-44 0 -49 -40h-126q5 60 52 93.5t123 33.5q74 0 120.5 -31.5t46.5 -88.5q0 -29 -19 -54.5t-55 -36.5q84 -18 84 -98q0 -58 -51 -93.5t-126 -35.5q-83 0 -130 32.5 t-51 94.5zM209 0l465 700h151l-465 -700h-151zM623 113q0 36 21 64.5t64 39.5q-34 12 -54 37t-20 55q0 57 48.5 88.5t127.5 31.5q78 0 126.5 -31t48.5 -89q0 -30 -20 -55t-54 -37q43 -11 64 -39.5t21 -64.5q0 -60 -50 -91t-136 -31t-136.5 31t-50.5 91zM749 124 q0 -47 61 -47t61 47q0 46 -61 46t-61 -46zM759 298q0 -44 51 -44t51 44t-51 44t-51 -44z" />
<glyph unicode="&#x215d;" horiz-adv-x="1027" d="M49 395h126q5 -38 47 -38q47 0 47 62t-50 62q-32 0 -56 -24h-102v243h303v-95h-201v-74q37 33 93 33q63 0 100 -37.5t37 -107.5q0 -68 -50 -108t-121 -40q-78 0 -123.5 31.5t-49.5 92.5zM190 0l465 700h151l-465 -700h-151zM604 113q0 36 21 64.5t64 39.5q-34 12 -54 37 t-20 55q0 57 48.5 88.5t127.5 31.5q78 0 126.5 -31t48.5 -89q0 -30 -20 -55t-54 -37q43 -11 64 -39.5t21 -64.5q0 -60 -50 -91t-136 -31t-136.5 31t-50.5 91zM730 124q0 -47 61 -47t61 47q0 46 -61 46t-61 -46zM740 298q0 -44 51 -44t51 44t-51 44t-51 -44z" />
<glyph unicode="&#x215e;" horiz-adv-x="930" d="M49 605v95h302v-95l-148 -325h-121l151 325h-184zM93 0l465 700h151l-465 -700h-151zM507 113q0 36 21 64.5t64 39.5q-34 12 -54 37t-20 55q0 57 48.5 88.5t127.5 31.5q78 0 126.5 -31t48.5 -89q0 -30 -20 -55t-54 -37q43 -11 64 -39.5t21 -64.5q0 -60 -50 -91t-136 -31 t-136.5 31t-50.5 91zM633 124q0 -47 61 -47t61 47q0 46 -61 46t-61 -46zM643 298q0 -44 51 -44t51 44t-51 44t-51 -44z" />
<glyph unicode="&#x2190;" horiz-adv-x="775" d="M40 256l313 313l86 -85l-167 -168h463v-120h-463l167 -167l-86 -85z" />
<glyph unicode="&#x2191;" horiz-adv-x="705" d="M40 290l313 314l312 -314l-85 -85l-167 167v-463h-120v463l-168 -167z" />
<glyph unicode="&#x2192;" horiz-adv-x="775" d="M40 196v120h463l-167 168l85 85l314 -313l-314 -312l-85 85l167 167h-463z" />
<glyph unicode="&#x2193;" horiz-adv-x="705" d="M40 222l85 86l168 -167v463h120v-463l167 167l85 -86l-312 -313z" />
<glyph unicode="&#x2196;" horiz-adv-x="654" d="M80 81v442h442v-121h-236l328 -327l-86 -85l-327 327v-236h-121z" />
<glyph unicode="&#x2197;" horiz-adv-x="654" d="M40 75l327 327h-236v121h443v-442h-121v236l-328 -327z" />
<glyph unicode="&#x2198;" horiz-adv-x="654" d="M40 438l85 85l328 -327v237h121v-443h-443v121h236z" />
<glyph unicode="&#x2199;" horiz-adv-x="654" d="M80 -10v443h121v-237l327 327l86 -85l-328 -327h236v-121h-442z" />
<glyph unicode="&#x2202;" horiz-adv-x="650" d="M42 186q0 121 67 194t180 73q43 0 85.5 -21.5t65.5 -54.5q8 56 8 107q0 76 -24.5 118t-64.5 42q-61 0 -84 -73h-163q25 92 95.5 140t171.5 48q102 0 165 -79t63 -215q0 -218 -94.5 -349t-254.5 -131q-96 0 -156 55t-60 146zM205 196q0 -41 19 -68.5t55 -27.5 q42 0 80.5 53.5t62.5 138.5q-16 18 -44.5 29.5t-55.5 11.5q-61 0 -89 -41.5t-28 -95.5z" />
<glyph unicode="&#x2205;" horiz-adv-x="662" d="M50 366q0 121 81 201.5t200 80.5q52 0 100 -17l47 74l99 -62l-47 -74q82 -80 82 -203q0 -121 -81 -201.5t-200 -80.5q-51 0 -99 17l-47 -75l-99 63l47 74q-83 81 -83 203zM171 366q0 -56 30 -97l162 255q-15 3 -32 3q-68 0 -114 -45t-46 -116zM300 208q15 -3 31 -3 q67 0 113.5 45t46.5 116q0 54 -29 96z" />
<glyph unicode="&#x2206;" horiz-adv-x="628" d="M30 0v121l198 579h168l202 -579v-121h-568zM176 121h258l-76 235l-55 201l-54 -201z" />
<glyph unicode="&#x220f;" horiz-adv-x="745" d="M75 0v700h595v-700h-160v579h-275v-579h-160z" />
<glyph unicode="&#x2211;" horiz-adv-x="576" d="M75 0v121l183 233l-183 225v121h444v-121h-266l130 -160v-121l-140 -177h276v-121h-444z" />
<glyph unicode="&#x2212;" horiz-adv-x="575" d="M50 306v121h475v-121h-475z" />
<glyph unicode="&#x221a;" horiz-adv-x="668" d="M25 419v104h223l54 -178l54 -193l52 193l104 355h143l-232 -700h-155l-149 419h-94z" />
<glyph unicode="&#x221e;" horiz-adv-x="890" d="M50 353q0 87 55.5 146t138.5 59q57 0 104.5 -30t96.5 -82q49 52 96.5 82t104.5 30q83 0 138.5 -59t55.5 -146t-55.5 -146t-138.5 -59q-57 0 -104.5 30t-96.5 82q-49 -52 -96.5 -82t-104.5 -30q-83 0 -138.5 59t-55.5 146zM187 353q0 -32 19 -54t51 -22q26 0 51.5 19 t58.5 56q-66 77 -110 77q-32 0 -51 -22t-19 -54zM523 352q33 -37 58.5 -56t51.5 -19q32 0 51 22t19 54t-19 54t-51 22q-44 0 -110 -77z" />
<glyph unicode="&#x222b;" horiz-adv-x="446" d="M60 -106q83 0 83 84v521q0 101 65.5 158.5t177.5 57.5v-117q-83 0 -83 -84v-521q0 -101 -65.5 -158.5t-177.5 -57.5v117z" />
<glyph unicode="&#x2248;" horiz-adv-x="630" d="M45 218q19 51 50 83.5t59 42.5t58 10q53 0 115 -34t86 -34q39 0 71 62l101 -49q-19 -51 -50 -83.5t-59 -42.5t-58 -10q-53 0 -115 34.5t-86 34.5q-39 0 -71 -63zM45 433q19 51 50 83.5t59 42.5t58 10q53 0 115 -34t86 -34q39 0 71 62l101 -49q-19 -51 -50 -83.5 t-59 -42.5t-58 -10q-53 0 -115 34.5t-86 34.5q-39 0 -71 -63z" />
<glyph unicode="&#x2260;" horiz-adv-x="575" d="M50 198v121h156l35 94h-191v121h237l54 142h127l-54 -142h111v-121h-157l-35 -94h192v-121h-238l-54 -142h-127l54 142h-110z" />
<glyph unicode="&#x2264;" horiz-adv-x="575" d="M50 0v121h475v-121h-475zM50 358v122l475 193v-118l-324 -132l324 -131v-126z" />
<glyph unicode="&#x2265;" horiz-adv-x="575" d="M50 0v121h475v-121h-475zM50 166v117l323 132l-323 131v127l475 -193v-122z" />
<glyph unicode="&#x25ca;" horiz-adv-x="598" d="M50 350l170 350h158l170 -350l-170 -350h-158zM199 350l100 -200l100 200l-100 199z" />
<glyph unicode="&#x25fc;" horiz-adv-x="525" d="M0 0v525h525v-525h-525z" />
<glyph unicode="&#x27f5;" horiz-adv-x="1410" d="M40 256l313 313l86 -85l-167 -168h1098v-120h-1098l167 -167l-86 -85z" />
<glyph unicode="&#x27f6;" horiz-adv-x="1410" d="M40 196v120h1098l-167 168l85 85l314 -313l-314 -312l-85 85l167 167h-1098z" />
<glyph unicode="&#x301a;" horiz-adv-x="412" d="M120 -125v950h272v-104h-77v-743h77v-103h-272zM202 -22h31v743h-31v-743z" />
<glyph unicode="&#x301b;" horiz-adv-x="412" d="M20 -22h77v743h-77v104h272v-950h-272v103zM179 -22h31v743h-31v-743z" />
<glyph horiz-adv-x="743" d="M42 350q0 166 89 265.5t240 99.5q152 0 240.5 -99t88.5 -266t-88.5 -266t-240.5 -99q-151 0 -240 99.5t-89 265.5zM212 350q0 -115 39.5 -179.5t119.5 -64.5t120 64.5t40 179.5t-40 179.5t-120 64.5t-119.5 -64.5t-39.5 -179.5zM241 -46h383v-121h-383v121z" />
<glyph horiz-adv-x="605" d="M42 262q0 120 61.5 198t152.5 78q78 0 129 -61v46h155v-523h-155v50q-66 -65 -147 -65q-91 0 -143.5 76.5t-52.5 200.5zM199 262q0 -80 25 -123.5t73 -43.5q47 0 88 36v263q-39 34 -82 34q-49 0 -76.5 -43.5t-27.5 -122.5z" />
<glyph horiz-adv-x="615" d="M22 -79q0 68 81 119q-42 27 -42 85q0 60 50 113q-70 45 -70 129q0 83 67 127t174 44q62 0 111 -15h184v-104h-62q8 -26 8 -52q0 -83 -67.5 -127.5t-173.5 -44.5q-49 0 -95 11q-5 -12 -5 -27q0 -37 41 -37h159q90 0 137 -41t47 -111q0 -89 -85.5 -151t-214.5 -62 q-117 0 -180.5 37.5t-63.5 106.5zM158 -34q0 -45 32 -69t89 -24q67 0 102.5 24t35.5 65q0 26 -19 40.5t-44 14.5h-146q-16 0 -40 2q-10 -25 -10 -53zM184 367q0 -41 27.5 -60t70.5 -19t70.5 19t27.5 60q0 40 -27 59.5t-71 19.5t-71 -19.5t-27 -59.5z" />
<glyph horiz-adv-x="285" d="M-63 -112q34 -8 59 -8q69 0 69 77v566h155v-565q0 -91 -52 -136t-143 -45q-49 0 -88 18v93zM53 665q0 38 25 63.5t64 25.5t64 -25.5t25 -63.5t-25 -63.5t-64 -25.5t-64 25.5t-25 63.5z" />
<glyph horiz-adv-x="405" d="M20 419v104h105v137h155v-137h105v-104h-105v-419h-155v419h-105z" />
<glyph horiz-adv-x="570" d="M53 665q0 38 25 63.5t64 25.5t64 -25.5t25 -63.5t-25 -63.5t-64 -25.5t-64 25.5t-25 63.5zM65 0v523h155v-523h-155zM222 -112q34 -8 59 -8q69 0 69 77v566h155v-565q0 -91 -52 -136t-143 -45q-49 0 -88 18v93zM338 665q0 38 25 63.5t64 25.5t64 -25.5t25 -63.5 t-25 -63.5t-64 -25.5t-64 25.5t-25 63.5z" />
<glyph horiz-adv-x="605" d="M42 262q0 120 61.5 198t152.5 78q78 0 129 -61v46h155v-523h-155v50q-66 -65 -147 -65q-91 0 -143.5 76.5t-52.5 200.5zM179 585l102 163h182l-162 -163h-122zM199 262q0 -80 25 -123.5t73 -43.5q47 0 88 36v263q-39 34 -82 34q-49 0 -76.5 -43.5t-27.5 -122.5z" />
<glyph horiz-adv-x="605" d="M42 262q0 120 61.5 198t152.5 78q78 0 129 -61v46h155v-523h-155v50q-66 -65 -147 -65q-91 0 -143.5 76.5t-52.5 200.5zM142 748h103q0 -27 16 -48.5t50 -21.5t49.5 21t15.5 49h103q0 -88 -50.5 -131.5t-117.5 -43.5t-118 43.5t-51 131.5zM199 262q0 -80 25 -123.5 t73 -43.5q47 0 88 36v263q-39 34 -82 34q-49 0 -76.5 -43.5t-27.5 -122.5z" />
<glyph horiz-adv-x="605" d="M42 262q0 120 61.5 198t152.5 78q78 0 129 -61v46h155v-523h-155v50q-66 -65 -147 -65q-91 0 -143.5 76.5t-52.5 200.5zM115 585l126 163h141l126 -163h-123l-74 70l-74 -70h-122zM199 262q0 -80 25 -123.5t73 -43.5q47 0 88 36v263q-39 34 -82 34q-49 0 -76.5 -43.5 t-27.5 -122.5z" />
<glyph horiz-adv-x="605" d="M42 262q0 120 61.5 198t152.5 78q78 0 129 -61v46h155v-523h-155v50q-66 -65 -147 -65q-91 0 -143.5 76.5t-52.5 200.5zM126 665q0 36 23.5 60t60.5 24q38 0 61.5 -24t23.5 -60t-23.5 -60t-61.5 -24q-37 0 -60.5 24t-23.5 60zM199 262q0 -80 25 -123.5t73 -43.5 q47 0 88 36v263q-39 34 -82 34q-49 0 -76.5 -43.5t-27.5 -122.5zM342 665q0 36 24 60t61 24t60.5 -24t23.5 -60t-23.5 -60t-60.5 -24t-61 24t-24 60z" />
<glyph horiz-adv-x="605" d="M42 262q0 120 61.5 198t152.5 78q78 0 129 -61v46h155v-523h-155v50q-66 -65 -147 -65q-91 0 -143.5 76.5t-52.5 200.5zM119 748h182l102 -163h-123zM199 262q0 -80 25 -123.5t73 -43.5q47 0 88 36v263q-39 34 -82 34q-49 0 -76.5 -43.5t-27.5 -122.5z" />
<glyph horiz-adv-x="605" d="M42 262q0 120 61.5 198t152.5 78q78 0 129 -61v46h155v-523h-155v50q-66 -65 -147 -65q-91 0 -143.5 76.5t-52.5 200.5zM151 612v101h320v-101h-320zM199 262q0 -80 25 -123.5t73 -43.5q47 0 88 36v263q-39 34 -82 34q-49 0 -76.5 -43.5t-27.5 -122.5z" />
<glyph horiz-adv-x="605" d="M42 262q0 120 61.5 198t152.5 78q78 0 129 -61v46h155v-523h-1q-110 -59 -110 -122q0 -19 13 -29t29 -10q32 0 68 17v-80q-42 -24 -113 -24q-56 0 -87 29.5t-31 73.5q0 83 106 145h-29v50q-66 -65 -147 -65q-91 0 -143.5 76.5t-52.5 200.5zM199 262q0 -80 25 -123.5 t73 -43.5q47 0 88 36v263q-39 34 -82 34q-49 0 -76.5 -43.5t-27.5 -122.5z" />
<glyph horiz-adv-x="605" d="M42 262q0 120 61.5 198t152.5 78q78 0 129 -61v46h155v-523h-155v50q-66 -65 -147 -65q-91 0 -143.5 76.5t-52.5 200.5zM180 664q0 46 37.5 73.5t93.5 27.5q57 0 94 -27.5t37 -73.5t-37 -73.5t-94 -27.5q-56 0 -93.5 27.5t-37.5 73.5zM199 262q0 -80 25 -123.5t73 -43.5 q47 0 88 36v263q-39 34 -82 34q-49 0 -76.5 -43.5t-27.5 -122.5zM280 676q-13 -24 19 -38q30 -13 44 14q12 25 -20 38q-30 13 -43 -14z" />
<glyph horiz-adv-x="605" d="M42 262q0 120 61.5 198t152.5 78q78 0 129 -61v46h155v-523h-155v50q-66 -65 -147 -65q-91 0 -143.5 76.5t-52.5 200.5zM113 625q19 54 51.5 83t70.5 29q33 0 83.5 -21t63.5 -21q28 0 45 39l82 -37q-18 -54 -50.5 -83t-70.5 -29q-33 0 -84 21t-64 21q-26 0 -45 -40z M199 262q0 -80 25 -123.5t73 -43.5q47 0 88 36v263q-39 34 -82 34q-49 0 -76.5 -43.5t-27.5 -122.5z" />
<glyph horiz-adv-x="615" d="M22 -79q0 68 81 119q-42 27 -42 85q0 60 50 113q-70 45 -70 129q0 83 67 127t174 44q62 0 111 -15h184v-104h-62q8 -26 8 -52q0 -83 -67.5 -127.5t-173.5 -44.5q-49 0 -95 11q-5 -12 -5 -27q0 -37 41 -37h159q90 0 137 -41t47 -111q0 -89 -85.5 -151t-214.5 -62 q-117 0 -180.5 37.5t-63.5 106.5zM119 748h103q0 -27 16 -48.5t50 -21.5t49.5 21t15.5 49h103q0 -88 -50.5 -131.5t-117.5 -43.5t-118 43.5t-51 131.5zM158 -34q0 -45 32 -69t89 -24q67 0 102.5 24t35.5 65q0 26 -19 40.5t-44 14.5h-146q-16 0 -40 2q-10 -25 -10 -53z M184 367q0 -41 27.5 -60t70.5 -19t70.5 19t27.5 60q0 40 -27 59.5t-71 19.5t-71 -19.5t-27 -59.5z" />
<glyph horiz-adv-x="615" d="M22 -79q0 68 81 119q-42 27 -42 85q0 60 50 113q-70 45 -70 129q0 83 67 127t174 44q62 0 111 -15h184v-104h-62q8 -26 8 -52q0 -83 -67.5 -127.5t-173.5 -44.5q-49 0 -95 11q-5 -12 -5 -27q0 -37 41 -37h159q90 0 137 -41t47 -111q0 -89 -85.5 -151t-214.5 -62 q-117 0 -180.5 37.5t-63.5 106.5zM92 585l126 163h141l126 -163h-123l-74 70l-74 -70h-122zM158 -34q0 -45 32 -69t89 -24q67 0 102.5 24t35.5 65q0 26 -19 40.5t-44 14.5h-146q-16 0 -40 2q-10 -25 -10 -53zM184 367q0 -41 27.5 -60t70.5 -19t70.5 19t27.5 60 q0 40 -27 59.5t-71 19.5t-71 -19.5t-27 -59.5z" />
<glyph horiz-adv-x="615" d="M22 -79q0 68 81 119q-42 27 -42 85q0 60 50 113q-70 45 -70 129q0 83 67 127t174 44q62 0 111 -15h184v-104h-62q8 -26 8 -52q0 -83 -67.5 -127.5t-173.5 -44.5q-49 0 -95 11q-5 -12 -5 -27q0 -37 41 -37h159q90 0 137 -41t47 -111q0 -89 -85.5 -151t-214.5 -62 q-117 0 -180.5 37.5t-63.5 106.5zM158 -34q0 -45 32 -69t89 -24q67 0 102.5 24t35.5 65q0 26 -19 40.5t-44 14.5h-146q-16 0 -40 2q-10 -25 -10 -53zM184 367q0 -41 27.5 -60t70.5 -19t70.5 19t27.5 60q0 40 -27 59.5t-71 19.5t-71 -19.5t-27 -59.5zM204 581l54 195h103 l-20 -195h-137z" />
<glyph horiz-adv-x="615" d="M22 -79q0 68 81 119q-42 27 -42 85q0 60 50 113q-70 45 -70 129q0 83 67 127t174 44q62 0 111 -15h184v-104h-62q8 -26 8 -52q0 -83 -67.5 -127.5t-173.5 -44.5q-49 0 -95 11q-5 -12 -5 -27q0 -37 41 -37h159q90 0 137 -41t47 -111q0 -89 -85.5 -151t-214.5 -62 q-117 0 -180.5 37.5t-63.5 106.5zM158 -34q0 -45 32 -69t89 -24q67 0 102.5 24t35.5 65q0 26 -19 40.5t-44 14.5h-146q-16 0 -40 2q-10 -25 -10 -53zM184 367q0 -41 27.5 -60t70.5 -19t70.5 19t27.5 60q0 40 -27 59.5t-71 19.5t-71 -19.5t-27 -59.5zM199 665q0 38 25 63.5 t64 25.5t64 -25.5t25 -63.5t-25 -63.5t-64 -25.5t-64 25.5t-25 63.5z" />
<glyph horiz-adv-x="285" d="M53 665q0 38 25 63.5t64 25.5t64 -25.5t25 -63.5t-25 -63.5t-64 -25.5t-64 25.5t-25 63.5zM65 0v523h155v-523h-155z" />
<glyph horiz-adv-x="285" d="M-63 -112q34 -8 59 -8q69 0 69 77v566h155v-565q0 -91 -52 -136t-143 -45q-49 0 -88 18v93zM-53 585l126 163h141l126 -163h-123l-74 70l-74 -70h-122z" />
<glyph horiz-adv-x="405" d="M20 419v104h105v137h155v-137h105v-104h-105v-81h85v-101h-85v-237h-155v237h-85v101h85v81h-105z" />
<glyph horiz-adv-x="405" d="M20 419v104h105v137h155v-137h105v-104h-105v-419h-155v419h-105zM330 568v235h132l-28 -235h-104z" />
<glyph horiz-adv-x="405" d="M20 419v104h105v137h155v-137h105v-104h-105v-419h-29l-46 -63q45 2 78.5 -19t33.5 -64q0 -50 -40 -76t-100 -26q-41 0 -72 15v63q29 -13 63 -13q43 0 43 31q0 29 -43 29q-18 0 -35 -5l-25 44l63 84h-46v419h-105z" />
<glyph horiz-adv-x="405" d="M20 419v104h105v137h155v-137h105v-104h-105v-419h-155v419h-105zM114 -248l20 195h137l-54 -195h-103z" />
<glyph horiz-adv-x="566" d="M10 0l190 543h149l207 -543h-159l-35 112h-178l-34 -112h-140zM216 221h111l-16 52l-40 139l-39 -139z" />
<glyph horiz-adv-x="578" d="M75 0v543h219q44 0 81 -7t70 -22.5t51.5 -44t18.5 -68.5q0 -38 -22 -69.5t-61 -43.5q104 -26 104 -128q0 -55 -33 -92t-81.5 -52.5t-108.5 -15.5h-238zM227 100h86q73 0 73 62q0 64 -73 64h-86v-126zM227 323h67q71 0 71 62q0 58 -71 58h-67v-120z" />
<glyph horiz-adv-x="586" d="M42 271q0 129 73 207.5t192 78.5q102 0 170 -53.5t74 -154.5h-150q-7 51 -29 75t-65 24q-105 0 -105 -177q0 -178 105 -178q43 0 65 24.5t29 75.5h150q-6 -101 -74 -154.5t-170 -53.5q-119 0 -192 78.5t-73 207.5z" />
<glyph horiz-adv-x="622" d="M75 0v543h206q136 0 217.5 -72.5t81.5 -199.5t-81.5 -199t-217.5 -72h-206zM227 109h54q67 0 103 41t36 121t-36 121.5t-103 41.5h-54v-325z" />
<glyph horiz-adv-x="507" d="M75 0v543h375v-109h-223v-98h207v-109h-207v-118h223v-109h-375z" />
<glyph horiz-adv-x="473" d="M75 0v543h365v-109h-213v-110h197v-108h-197v-216h-152z" />
<glyph horiz-adv-x="606" d="M42 271q0 129 73 207.5t192 78.5q101 0 166.5 -49.5t72.5 -139.5h-150q-7 40 -27.5 60t-61.5 20q-105 0 -105 -177q0 -178 112 -178q21 0 48 9.5t42 23.5v53h-95v102h235v-281h-140v45q-22 -26 -62.5 -43t-78.5 -17q-108 0 -164.5 76.5t-56.5 209.5z" />
<glyph horiz-adv-x="653" d="M75 0v543h152v-207h199v207h152v-543h-152v227h-199v-227h-152z" />
<glyph horiz-adv-x="302" d="M75 0v543h152v-543h-152z" />
<glyph horiz-adv-x="533" d="M30 196h153q3 -102 69 -102q64 0 64 77v372h152v-356q0 -100 -63.5 -151t-152.5 -51q-44 0 -81 10t-69.5 33t-51.5 66t-20 102z" />
<glyph horiz-adv-x="585" d="M75 0v543h152v-242l164 242h146l-171 -243l204 -300h-177l-166 264v-264h-152z" />
<glyph horiz-adv-x="477" d="M78 0v543h152v-434h201v-109h-353z" />
<glyph horiz-adv-x="736" d="M75 0v543h159l136 -333l135 333h156v-543h-139v170l2 143l-93 -237h-125l-96 241l3 -147v-170h-138z" />
<glyph horiz-adv-x="643" d="M75 0v543h136l222 -336l-3 148v188h138v-543h-136l-222 335l3 -147v-188h-138z" />
<glyph horiz-adv-x="633" d="M42 271q0 128 76 207t198 79t198 -79t76 -207t-76 -207t-198 -79t-198 79t-76 207zM202 271q0 -82 29.5 -130t84.5 -48q56 0 85.5 48t29.5 130q0 81 -29.5 129t-85.5 48q-55 0 -84.5 -48t-29.5 -129z" />
<glyph horiz-adv-x="551" d="M75 0v543h212q94 0 159 -49.5t65 -140.5t-65 -140t-159 -49h-60v-164h-152zM227 270h60q31 0 52.5 20t21.5 63q0 44 -21.5 64t-52.5 20h-60v-167z" />
<glyph horiz-adv-x="633" d="M42 271q0 128 76 207t198 79t198 -79t76 -207q0 -84 -33.5 -148t-94.5 -100l117 -140h-176l-81 102h-6q-122 0 -198 79t-76 207zM202 271q0 -82 29.5 -130t84.5 -48q56 0 85.5 48t29.5 130q0 81 -29.5 129t-85.5 48q-55 0 -84.5 -48t-29.5 -129z" />
<glyph horiz-adv-x="633" d="M42 271q0 128 76 207t198 79t198 -79t76 -207t-76 -207t-198 -79t-198 79t-76 207zM202 271q0 -82 29.5 -130t84.5 -48q56 0 85.5 48t29.5 130q0 81 -29.5 129t-85.5 48q-55 0 -84.5 -48t-29.5 -129zM215 -39h313v-109h-313v109z" />
<glyph horiz-adv-x="562" d="M75 0v543h206q95 0 160 -48t65 -136q0 -109 -102 -153l136 -206h-170l-108 183h-35v-183h-152zM227 281h54q31 0 53 18.5t22 59.5t-22 59.5t-53 18.5h-54v-156z" />
<glyph horiz-adv-x="563" d="M51 166h149q4 -39 28.5 -58t62.5 -19q34 0 57.5 14.5t23.5 44.5t-28.5 44t-84.5 23q-31 5 -47.5 9t-44.5 12.5t-44 20t-33.5 29t-25.5 43.5t-8 59q0 76 61 122.5t154 46.5q106 0 165.5 -44.5t66.5 -129.5h-149q-3 34 -25 52t-58 18q-32 0 -53.5 -14t-21.5 -41 q0 -21 17 -35t37.5 -19.5t57.5 -11.5q29 -5 40.5 -7.5t38.5 -9.5t39.5 -13.5t32 -20t28.5 -29t16.5 -39t7.5 -51.5q0 -76 -66 -126.5t-154 -50.5q-109 0 -172.5 45.5t-67.5 135.5z" />
<glyph horiz-adv-x="487" d="M30 434v109h427v-109h-137v-434h-152v434h-138z" />
<glyph horiz-adv-x="629" d="M67 195v348h152v-333q0 -116 101 -116q52 0 77.5 27t25.5 74v348h138v-333q0 -106 -68.5 -165.5t-172.5 -59.5q-115 0 -184 54t-69 156z" />
<glyph horiz-adv-x="566" d="M10 543h159l75 -222l51 -161l50 161l71 222h140l-190 -543h-149z" />
<glyph horiz-adv-x="804" d="M10 543h158l53 -203l38 -154l36 154l51 203h128l57 -203l40 -154l35 154l49 203h139l-152 -543h-137l-56 198l-40 155l-34 -155l-51 -198h-149z" />
<glyph horiz-adv-x="534" d="M13 543h162l93 -159l95 159h142l-166 -258l183 -285h-162l-100 170l-102 -170h-142l173 268z" />
<glyph horiz-adv-x="541" d="M18 543h160l106 -224l103 224h135l-174 -349v-194h-152v207z" />
<glyph horiz-adv-x="467" d="M40 0v109l222 325h-220v109h385v-109l-221 -325h221v-109h-387z" />
<glyph horiz-adv-x="829" d="M10 0l364 543h398v-109h-223v-98h207v-109h-207v-118h223v-109h-375v112h-158l-69 -112h-160zM305 221h92v157l-61 -107z" />
<glyph horiz-adv-x="622" d="M8 215v110h67v218h206q136 0 217.5 -72.5t81.5 -199.5t-81.5 -199t-217.5 -72h-206v215h-67zM227 109h54q67 0 103 41t36 121t-36 121.5t-103 41.5h-54v-109h95v-110h-95v-106z" />
<glyph horiz-adv-x="835" d="M75 0v543h152v-543h-152zM332 196h153q3 -102 69 -102q64 0 64 77v372h152v-356q0 -100 -63.5 -151t-152.5 -51q-44 0 -81 10t-69.5 33t-51.5 66t-20 102z" />
<glyph horiz-adv-x="643" d="M75 0v543h136l222 -336l-3 148v188h138v-543q0 -173 -187 -173q-59 0 -89 15v105q32 -11 74 -11q69 0 69 60l-225 339l3 -147v-188h-138z" />
<glyph horiz-adv-x="633" d="M42 271q0 128 76 207t198 79q39 0 75 -9l35 64h157l-72 -131q79 -79 79 -210q0 -128 -76 -207t-198 -79q-39 0 -75 9l-35 -64h-157l72 131q-79 79 -79 210zM202 271q0 -82 29.5 -130t84.5 -48q56 0 85.5 48t29.5 130q0 81 -29.5 129t-85.5 48q-55 0 -84.5 -48t-29.5 -129 z" />
<glyph horiz-adv-x="829" d="M42 271q0 127 81.5 199.5t217.5 72.5h430v-109h-223v-98h207v-109h-207v-118h223v-109h-430q-136 0 -217.5 72t-81.5 199zM202 271q0 -80 36 -121t103 -41h55v325h-55q-67 0 -103 -41.5t-36 -121.5z" />
<glyph horiz-adv-x="551" d="M75 0v543h152v-74h60q94 0 159 -49.5t65 -140.5t-65 -140t-159 -49h-60v-90h-152zM227 195h60q31 0 52.5 20t21.5 64t-21.5 64t-52.5 20h-60v-168z" />
<glyph horiz-adv-x="622" d="M66 0v292q0 122 76 186.5t193 64.5h213v-109l-96 -126q72 -25 100.5 -73t28.5 -95q0 -76 -52 -115.5t-124 -39.5q-156 0 -162 148h125q3 -28 12 -40t29 -12q18 0 27.5 15.5t9.5 39.5q0 37 -31 62t-88 25h-22v103l81 108h-57q-52 0 -81.5 -28.5t-29.5 -103.5v-302h-152z " />
<glyph horiz-adv-x="566" d="M10 0l190 543h149l207 -543h-159l-35 112h-178l-34 -112h-140zM174 581l106 113h168l-159 -113h-115zM216 221h111l-16 52l-40 139l-39 -139z" />
<glyph horiz-adv-x="566" d="M10 0l190 543h149l207 -543h-159l-35 112h-178l-34 -112h-140zM120 694h97q0 -34 56 -34q54 0 54 34h99q0 -60 -44.5 -90t-108.5 -30q-65 0 -109 30t-44 90zM216 221h111l-16 52l-40 139l-39 -139z" />
<glyph horiz-adv-x="566" d="M10 0l190 543h149l207 -543h-159l-35 112h-178l-34 -112h-140zM87 581l126 113h121l126 -113h-123l-64 37l-64 -37h-122zM216 221h111l-16 52l-40 139l-39 -139z" />
<glyph horiz-adv-x="566" d="M10 0l190 543h149l207 -543h-159l-35 112h-178l-34 -112h-140zM109 646q0 28 21 47t51 19q31 0 52 -19t21 -47q0 -29 -21 -47t-52 -18t-51.5 18t-20.5 47zM216 221h111l-16 52l-40 139l-39 -139zM292 646q0 28 21 47t51 19q31 0 51.5 -19t20.5 -47q0 -29 -20.5 -47 t-51.5 -18t-51.5 18t-20.5 47z" />
<glyph horiz-adv-x="566" d="M10 0l190 543h149l207 -543h-159l-35 112h-178l-34 -112h-140zM114 694h169l105 -113h-115zM216 221h111l-16 52l-40 139l-39 -139z" />
<glyph horiz-adv-x="566" d="M10 0l190 543h149l207 -543h-159l-35 112h-178l-34 -112h-140zM135 594v90h278v-90h-278zM216 221h111l-16 52l-40 139l-39 -139z" />
<glyph horiz-adv-x="566" d="M10 0l190 543h149l207 -543h-1q-110 -59 -110 -122q0 -19 13 -29t29 -10q32 0 68 17v-80q-42 -24 -113 -24q-56 0 -87 29.5t-31 73.5q0 83 106 145h-33l-35 112h-178l-34 -112h-140zM216 221h111l-16 52l-40 139l-39 -139z" />
<glyph horiz-adv-x="566" d="M10 0l190 543h149l207 -543h-159l-35 112h-178l-34 -112h-140zM165 639q0 36 30 58t78 22q49 0 79 -22t30 -58q0 -37 -30 -59t-79 -22q-48 0 -78 22t-30 59zM216 221h111l-16 52l-40 139l-39 -139zM242 639q0 -13 8.5 -20.5t22.5 -7.5q31 0 31 28q0 12 -8.5 20t-22.5 8 q-13 0 -22 -8t-9 -20z" />
<glyph horiz-adv-x="566" d="M10 0l190 543h149l207 -543h-159l-35 112h-178l-34 -112h-140zM99 615q31 89 103 89q25 0 71 -14t61 -14q20 0 36 26l76 -34q-31 -89 -103 -89q-25 0 -71.5 14t-61.5 14q-19 0 -35 -26zM216 221h111l-16 52l-40 139l-39 -139z" />
<glyph horiz-adv-x="586" d="M42 271q0 129 73 207.5t192 78.5q102 0 170 -53.5t74 -154.5h-150q-7 51 -29 75t-65 24q-105 0 -105 -177q0 -178 105 -178q43 0 65 24.5t29 75.5h150q-6 -101 -74 -154.5t-170 -53.5q-119 0 -192 78.5t-73 207.5zM187 581l106 113h168l-159 -113h-115z" />
<glyph horiz-adv-x="586" d="M42 271q0 129 73 207.5t192 78.5q102 0 170 -53.5t74 -154.5h-150q-7 51 -29 75t-65 24q-105 0 -105 -177q0 -178 105 -178q43 0 65 24.5t29 75.5h150q-6 -101 -74 -154.5t-170 -53.5q-119 0 -192 78.5t-73 207.5zM110 694h122l64 -37l64 37h123l-126 -113h-121z" />
<glyph horiz-adv-x="586" d="M42 271q0 129 73 207.5t192 78.5q102 0 170 -53.5t74 -154.5h-150q-7 51 -29 75t-65 24q-105 0 -105 -177q0 -178 105 -178q43 0 65 24.5t29 75.5h150q-5 -93 -64.5 -146t-150.5 -61l-36 -49q45 2 78.5 -19t33.5 -64q0 -50 -40 -76t-100 -26q-41 0 -72 15v63 q29 -13 63 -13q43 0 43 31q0 29 -43 29q-18 0 -35 -5l-25 44l55 73q-99 16 -157.5 92t-58.5 190z" />
<glyph horiz-adv-x="586" d="M42 271q0 129 73 207.5t192 78.5q102 0 170 -53.5t74 -154.5h-150q-7 51 -29 75t-65 24q-105 0 -105 -177q0 -178 105 -178q43 0 65 24.5t29 75.5h150q-6 -101 -74 -154.5t-170 -53.5q-119 0 -192 78.5t-73 207.5zM110 581l126 113h121l126 -113h-123l-64 37l-64 -37 h-122z" />
<glyph horiz-adv-x="586" d="M42 271q0 129 73 207.5t192 78.5q102 0 170 -53.5t74 -154.5h-150q-7 51 -29 75t-65 24q-105 0 -105 -177q0 -178 105 -178q43 0 65 24.5t29 75.5h150q-6 -101 -74 -154.5t-170 -53.5q-119 0 -192 78.5t-73 207.5zM222 645q0 30 21.5 49t53.5 19q31 0 52.5 -19t21.5 -49 t-21.5 -48.5t-52.5 -18.5q-32 0 -53.5 18.5t-21.5 48.5z" />
<glyph horiz-adv-x="622" d="M75 0v543h206q136 0 217.5 -72.5t81.5 -199.5t-81.5 -199t-217.5 -72h-206zM91 694h122l64 -37l64 37h123l-126 -113h-121zM227 109h54q67 0 103 41t36 121t-36 121.5t-103 41.5h-54v-325z" />
<glyph horiz-adv-x="622" d="M8 215v110h67v218h206q136 0 217.5 -72.5t81.5 -199.5t-81.5 -199t-217.5 -72h-206v215h-67zM227 109h54q67 0 103 41t36 121t-36 121.5t-103 41.5h-54v-109h95v-110h-95v-106z" />
<glyph horiz-adv-x="507" d="M75 0v543h375v-109h-223v-98h207v-109h-207v-118h223v-109h-375zM141 581l106 113h168l-159 -113h-115z" />
<glyph horiz-adv-x="507" d="M75 0v543h375v-109h-223v-98h207v-109h-207v-118h223v-109h-375zM104 694h97q0 -34 56 -34q54 0 54 34h99q0 -60 -44.5 -90t-108.5 -30q-65 0 -109 30t-44 90z" />
<glyph horiz-adv-x="507" d="M71 694h122l64 -37l64 37h123l-126 -113h-121zM75 0v543h375v-109h-223v-98h207v-109h-207v-118h223v-109h-375z" />
<glyph horiz-adv-x="507" d="M71 581l126 113h121l126 -113h-123l-64 37l-64 -37h-122zM75 0v543h375v-109h-223v-98h207v-109h-207v-118h223v-109h-375z" />
<glyph horiz-adv-x="507" d="M75 0v543h375v-109h-223v-98h207v-109h-207v-118h223v-109h-375zM94 646q0 28 21 47t51 19q31 0 52 -19t21 -47q0 -29 -21 -47t-52 -18t-51.5 18t-20.5 47zM277 646q0 28 21 47t51 19q31 0 51.5 -19t20.5 -47q0 -29 -20.5 -47t-51.5 -18t-51.5 18t-20.5 47z" />
<glyph horiz-adv-x="507" d="M75 0v543h375v-109h-223v-98h207v-109h-207v-118h223v-109h-375zM182 645q0 30 21.5 49t53.5 19q31 0 52.5 -19t21.5 -49t-21.5 -48.5t-52.5 -18.5q-32 0 -53.5 18.5t-21.5 48.5z" />
<glyph horiz-adv-x="507" d="M75 0v543h375v-109h-223v-98h207v-109h-207v-118h223v-109h-375zM96 694h169l105 -113h-115z" />
<glyph horiz-adv-x="507" d="M75 0v543h375v-109h-223v-98h207v-109h-207v-118h223v-109h-375zM118 594v90h278v-90h-278z" />
<glyph horiz-adv-x="507" d="M75 0v543h375v-109h-223v-98h207v-109h-207v-118h223v-109h-1q-110 -59 -110 -122q0 -19 13 -29t29 -10q32 0 68 17v-80q-42 -24 -113 -24q-56 0 -87 29.5t-31 73.5q0 83 106 145h-249z" />
<glyph horiz-adv-x="606" d="M42 271q0 129 73 207.5t192 78.5q101 0 166.5 -49.5t72.5 -139.5h-150q-7 40 -27.5 60t-61.5 20q-105 0 -105 -177q0 -178 112 -178q21 0 48 9.5t42 23.5v53h-95v102h235v-281h-140v45q-22 -26 -62.5 -43t-78.5 -17q-108 0 -164.5 76.5t-56.5 209.5zM148 694h97 q0 -34 56 -34q54 0 54 34h99q0 -60 -44.5 -90t-108.5 -30q-65 0 -109 30t-44 90z" />
<glyph horiz-adv-x="606" d="M42 271q0 129 73 207.5t192 78.5q101 0 166.5 -49.5t72.5 -139.5h-150q-7 40 -27.5 60t-61.5 20q-105 0 -105 -177q0 -178 112 -178q21 0 48 9.5t42 23.5v53h-95v102h235v-281h-140v45q-22 -26 -62.5 -43t-78.5 -17q-108 0 -164.5 76.5t-56.5 209.5zM115 581l126 113h121 l126 -113h-123l-64 37l-64 -37h-122z" />
<glyph horiz-adv-x="606" d="M42 271q0 129 73 207.5t192 78.5q101 0 166.5 -49.5t72.5 -139.5h-150q-7 40 -27.5 60t-61.5 20q-105 0 -105 -177q0 -178 112 -178q21 0 48 9.5t42 23.5v53h-95v102h235v-281h-140v45q-22 -26 -62.5 -43t-78.5 -17q-108 0 -164.5 76.5t-56.5 209.5zM223 -248l20 195h137 l-54 -195h-103z" />
<glyph horiz-adv-x="606" d="M42 271q0 129 73 207.5t192 78.5q101 0 166.5 -49.5t72.5 -139.5h-150q-7 40 -27.5 60t-61.5 20q-105 0 -105 -177q0 -178 112 -178q21 0 48 9.5t42 23.5v53h-95v102h235v-281h-140v45q-22 -26 -62.5 -43t-78.5 -17q-108 0 -164.5 76.5t-56.5 209.5zM226 645 q0 30 21.5 49t53.5 19q31 0 52.5 -19t21.5 -49t-21.5 -48.5t-52.5 -18.5q-32 0 -53.5 18.5t-21.5 48.5z" />
<glyph horiz-adv-x="653" d="M30 365v108h45v70h152v-70h199v70h152v-70h45v-108h-45v-365h-152v197h-199v-197h-152v365h-45zM227 306h199v59h-199v-59z" />
<glyph horiz-adv-x="653" d="M75 0v543h152v-207h199v207h152v-543h-152v227h-199v-227h-152zM140 581l126 113h121l126 -113h-123l-64 37l-64 -37h-122z" />
<glyph horiz-adv-x="302" d="M59 581l106 113h168l-159 -113h-115zM75 0v543h152v-543h-152z" />
<glyph horiz-adv-x="302" d="M-1 694h97q0 -34 56 -34q54 0 54 34h99q0 -60 -44.5 -90t-108.5 -30q-65 0 -109 30t-44 90zM75 0v543h152v-543h-152z" />
<glyph horiz-adv-x="302" d="M-35 581l126 113h121l126 -113h-123l-64 37l-64 -37h-122zM75 0v543h152v-543h-152z" />
<glyph horiz-adv-x="302" d="M-5 646q0 28 21 47t51 19t51.5 -19t21.5 -47q0 -29 -21 -47t-52 -18t-51.5 18t-20.5 47zM75 0v543h152v-543h-152zM164 646q0 28 20.5 47t51.5 19t51.5 -19t20.5 -47q0 -29 -20.5 -47t-51.5 -18t-51.5 18t-20.5 47z" />
<glyph horiz-adv-x="302" d="M-38 694h169l105 -113h-115zM75 0v543h152v-543h-152z" />
<glyph horiz-adv-x="302" d="M13 594v90h278v-90h-278zM75 0v543h152v-543h-152z" />
<glyph horiz-adv-x="302" d="M-4 -145q0 83 106 145h-27v543h152v-543q-110 -59 -110 -122q0 -19 13 -29t29 -10q32 0 68 17v-80q-42 -24 -113 -24q-56 0 -87 29.5t-31 73.5z" />
<glyph horiz-adv-x="302" d="M-22 615q31 89 103 89q25 0 71 -14t61 -14q20 0 36 26l76 -34q-31 -89 -103 -89q-25 0 -71.5 14t-61.5 14q-19 0 -35 -26zM75 0v543h152v-543h-152z" />
<glyph horiz-adv-x="533" d="M30 196h153q3 -102 69 -102q64 0 64 77v372h152v-356q0 -100 -63.5 -151t-152.5 -51q-44 0 -81 10t-69.5 33t-51.5 66t-20 102zM206 581l126 113h121l126 -113h-123l-64 37l-64 -37h-122z" />
<glyph horiz-adv-x="585" d="M75 0v543h152v-242l164 242h146l-171 -243l204 -300h-177l-166 264v-264h-152zM201 -248l20 195h137l-54 -195h-103z" />
<glyph horiz-adv-x="477" d="M57 581l106 113h168l-159 -113h-115zM78 0v543h152v-434h201v-109h-353z" />
<glyph horiz-adv-x="477" d="M78 0v543h152v-434h201v-109h-353zM282 367v235h132l-28 -235h-104z" />
<glyph horiz-adv-x="477" d="M78 0v543h152v-434h201v-109h-353zM158 -248l20 195h137l-54 -195h-103z" />
<glyph horiz-adv-x="477" d="M78 0v543h152v-434h201v-109h-353zM263 291q0 30 21.5 49t53.5 19q31 0 52.5 -19t21.5 -49t-21.5 -48.5t-52.5 -18.5q-32 0 -53.5 18.5t-21.5 48.5z" />
<glyph horiz-adv-x="477" d="M14 131v119l64 36v257h152v-170l104 59v-120l-104 -59v-144h201v-109h-353v167z" />
<glyph horiz-adv-x="643" d="M75 0v543h136l222 -336l-3 148v188h138v-543h-136l-222 335l3 -147v-188h-138zM207 581l106 113h168l-159 -113h-115z" />
<glyph horiz-adv-x="643" d="M75 0v543h136l222 -336l-3 148v188h138v-543h-136l-222 335l3 -147v-188h-138zM128 694h122l64 -37l64 37h123l-126 -113h-121z" />
<glyph horiz-adv-x="643" d="M75 0v543h136l222 -336l-3 148v188h138v-543h-136l-222 335l3 -147v-188h-138zM250 -248l20 195h137l-54 -195h-103z" />
<glyph horiz-adv-x="643" d="M75 0v543h136l222 -336l-3 148v188h138v-543h-136l-222 335l3 -147v-188h-138zM140 615q31 89 103 89q25 0 71 -14t61 -14q20 0 36 26l76 -34q-31 -89 -103 -89q-25 0 -71.5 14t-61.5 14q-19 0 -35 -26z" />
<glyph horiz-adv-x="633" d="M42 271q0 128 76 207t198 79t198 -79t76 -207t-76 -207t-198 -79t-198 79t-76 207zM202 271q0 -82 29.5 -130t84.5 -48q56 0 85.5 48t29.5 130q0 81 -29.5 129t-85.5 48q-55 0 -84.5 -48t-29.5 -129zM202 581l106 113h168l-159 -113h-115z" />
<glyph horiz-adv-x="633" d="M42 271q0 128 76 207t198 79t198 -79t76 -207t-76 -207t-198 -79t-198 79t-76 207zM163 694h97q0 -34 56 -34q54 0 54 34h99q0 -60 -44.5 -90t-108.5 -30q-65 0 -109 30t-44 90zM202 271q0 -82 29.5 -130t84.5 -48q56 0 85.5 48t29.5 130q0 81 -29.5 129t-85.5 48 q-55 0 -84.5 -48t-29.5 -129z" />
<glyph horiz-adv-x="633" d="M42 271q0 128 76 207t198 79t198 -79t76 -207t-76 -207t-198 -79t-198 79t-76 207zM130 581l126 113h121l126 -113h-123l-64 37l-64 -37h-122zM202 271q0 -82 29.5 -130t84.5 -48q56 0 85.5 48t29.5 130q0 81 -29.5 129t-85.5 48q-55 0 -84.5 -48t-29.5 -129z" />
<glyph horiz-adv-x="633" d="M42 271q0 128 76 207t198 79t198 -79t76 -207t-76 -207t-198 -79t-198 79t-76 207zM153 646q0 28 21 47t51 19q31 0 52 -19t21 -47q0 -29 -21 -47t-52 -18t-51.5 18t-20.5 47zM202 271q0 -82 29.5 -130t84.5 -48q56 0 85.5 48t29.5 130q0 81 -29.5 129t-85.5 48 q-55 0 -84.5 -48t-29.5 -129zM336 646q0 28 21 47t51 19q31 0 51.5 -19t20.5 -47q0 -29 -20.5 -47t-51.5 -18t-51.5 18t-20.5 47z" />
<glyph horiz-adv-x="633" d="M42 271q0 128 76 207t198 79t198 -79t76 -207t-76 -207t-198 -79t-198 79t-76 207zM157 694h169l105 -113h-115zM202 271q0 -82 29.5 -130t84.5 -48q56 0 85.5 48t29.5 130q0 81 -29.5 129t-85.5 48q-55 0 -84.5 -48t-29.5 -129z" />
<glyph horiz-adv-x="633" d="M42 271q0 128 76 207t198 79t198 -79t76 -207t-76 -207t-198 -79t-198 79t-76 207zM134 581l84 113h155l-131 -113h-108zM202 271q0 -82 29.5 -130t84.5 -48q56 0 85.5 48t29.5 130q0 81 -29.5 129t-85.5 48q-55 0 -84.5 -48t-29.5 -129zM321 581l83 113h156l-131 -113 h-108z" />
<glyph horiz-adv-x="633" d="M42 271q0 128 76 207t198 79t198 -79t76 -207t-76 -207t-198 -79t-198 79t-76 207zM177 594v90h278v-90h-278zM202 271q0 -82 29.5 -130t84.5 -48q56 0 85.5 48t29.5 130q0 81 -29.5 129t-85.5 48q-55 0 -84.5 -48t-29.5 -129z" />
<glyph horiz-adv-x="633" d="M42 271q0 128 76 207t198 79t198 -79t76 -207t-76 -207t-198 -79t-198 79t-76 207zM143 615q31 89 103 89q25 0 71 -14t61 -14q20 0 36 26l76 -34q-31 -89 -103 -89q-25 0 -71.5 14t-61.5 14q-19 0 -35 -26zM202 271q0 -82 29.5 -130t84.5 -48q56 0 85.5 48t29.5 130 q0 81 -29.5 129t-85.5 48q-55 0 -84.5 -48t-29.5 -129z" />
<glyph horiz-adv-x="562" d="M75 0v543h206q95 0 160 -48t65 -136q0 -109 -102 -153l136 -206h-170l-108 183h-35v-183h-152zM148 581l106 113h168l-159 -113h-115zM227 281h54q31 0 53 18.5t22 59.5t-22 59.5t-53 18.5h-54v-156z" />
<glyph horiz-adv-x="562" d="M75 0v543h206q95 0 160 -48t65 -136q0 -109 -102 -153l136 -206h-170l-108 183h-35v-183h-152zM79 694h122l64 -37l64 37h123l-126 -113h-121zM227 281h54q31 0 53 18.5t22 59.5t-22 59.5t-53 18.5h-54v-156z" />
<glyph horiz-adv-x="562" d="M75 0v543h206q95 0 160 -48t65 -136q0 -109 -102 -153l136 -206h-170l-108 183h-35v-183h-152zM196 -248l20 195h137l-54 -195h-103zM227 281h54q31 0 53 18.5t22 59.5t-22 59.5t-53 18.5h-54v-156z" />
<glyph horiz-adv-x="563" d="M51 166h149q4 -39 28.5 -58t62.5 -19q34 0 57.5 14.5t23.5 44.5t-28.5 44t-84.5 23q-31 5 -47.5 9t-44.5 12.5t-44 20t-33.5 29t-25.5 43.5t-8 59q0 76 61 122.5t154 46.5q106 0 165.5 -44.5t66.5 -129.5h-149q-3 34 -25 52t-58 18q-32 0 -53.5 -14t-21.5 -41 q0 -21 17 -35t37.5 -19.5t57.5 -11.5q29 -5 40.5 -7.5t38.5 -9.5t39.5 -13.5t32 -20t28.5 -29t16.5 -39t7.5 -51.5q0 -76 -66 -126.5t-154 -50.5q-109 0 -172.5 45.5t-67.5 135.5zM157 581l106 113h168l-159 -113h-115z" />
<glyph horiz-adv-x="563" d="M51 166h149q4 -39 28.5 -58t62.5 -19q34 0 57.5 14.5t23.5 44.5t-28.5 44t-84.5 23q-31 5 -47.5 9t-44.5 12.5t-44 20t-33.5 29t-25.5 43.5t-8 59q0 76 61 122.5t154 46.5q106 0 165.5 -44.5t66.5 -129.5h-149q-3 34 -25 52t-58 18q-32 0 -53.5 -14t-21.5 -41 q0 -21 17 -35t37.5 -19.5t57.5 -11.5q29 -5 40.5 -7.5t38.5 -9.5t39.5 -13.5t32 -20t28.5 -29t16.5 -39t7.5 -51.5q0 -76 -66 -126.5t-154 -50.5q-109 0 -172.5 45.5t-67.5 135.5zM86 694h122l64 -37l64 37h123l-126 -113h-121z" />
<glyph horiz-adv-x="563" d="M51 166h149q4 -39 28.5 -58t62.5 -19q34 0 57.5 14.5t23.5 44.5t-28.5 44t-84.5 23q-31 5 -47.5 9t-44.5 12.5t-44 20t-33.5 29t-25.5 43.5t-8 59q0 76 61 122.5t154 46.5q106 0 165.5 -44.5t66.5 -129.5h-149q-3 34 -25 52t-58 18q-32 0 -53.5 -14t-21.5 -41 q0 -21 17 -35t37.5 -19.5t57.5 -11.5q29 -5 40.5 -7.5t38.5 -9.5t39.5 -13.5t32 -20t28.5 -29t16.5 -39t7.5 -51.5q0 -76 -66 -126.5t-154 -50.5q-109 0 -172.5 45.5t-67.5 135.5zM193 -248l20 195h137l-54 -195h-103z" />
<glyph horiz-adv-x="563" d="M51 166h149q4 -39 28.5 -58t62.5 -19q34 0 57.5 14.5t23.5 44.5t-28.5 44t-84.5 23q-31 5 -47.5 9t-44.5 12.5t-44 20t-33.5 29t-25.5 43.5t-8 59q0 76 61 122.5t154 46.5q106 0 165.5 -44.5t66.5 -129.5h-149q-3 34 -25 52t-58 18q-32 0 -53.5 -14t-21.5 -41 q0 -21 17 -35t37.5 -19.5t57.5 -11.5q29 -5 40.5 -7.5t38.5 -9.5t39.5 -13.5t32 -20t28.5 -29t16.5 -39t7.5 -51.5q0 -76 -66 -126.5t-154 -50.5q-109 0 -172.5 45.5t-67.5 135.5zM86 581l126 113h121l126 -113h-123l-64 37l-64 -37h-122z" />
<glyph horiz-adv-x="563" d="M51 166h149q4 -39 28.5 -58t62.5 -19q34 0 57.5 14.5t23.5 44.5t-28.5 44t-84.5 23q-31 5 -47.5 9t-44.5 12.5t-44 20t-33.5 29t-25.5 43.5t-8 59q0 76 61 122.5t154 46.5q106 0 165.5 -44.5t66.5 -129.5h-149q-3 34 -25 52t-58 18q-32 0 -53.5 -14t-21.5 -41 q0 -21 17 -35t37.5 -19.5t57.5 -11.5q29 -5 40.5 -7.5t38.5 -9.5t39.5 -13.5t32 -20t28.5 -29t16.5 -39t7.5 -51.5q0 -69 -56 -118t-136 -58l-36 -49q45 2 78.5 -19t33.5 -64q0 -50 -40 -76t-100 -26q-41 0 -72 15v63q29 -13 63 -13q43 0 43 31q0 29 -43 29q-18 0 -35 -5 l-25 44l54 72q-86 10 -135.5 55t-53.5 123z" />
<glyph horiz-adv-x="487" d="M30 434v109h427v-109h-137v-109h80v-110h-80v-215h-152v215h-80v110h80v109h-138z" />
<glyph horiz-adv-x="487" d="M30 434v109h427v-109h-137v-434h-152v434h-138zM57 694h122l64 -37l64 37h123l-126 -113h-121z" />
<glyph horiz-adv-x="487" d="M30 434v109h427v-109h-137v-434h-35l-46 -63q45 2 78.5 -19t33.5 -64q0 -50 -40 -76t-100 -26q-41 0 -72 15v63q29 -13 63 -13q43 0 43 31q0 29 -43 29q-18 0 -35 -5l-25 44l63 84h-37v434h-138z" />
<glyph horiz-adv-x="487" d="M30 434v109h427v-109h-137v-434h-152v434h-138zM155 -248l20 195h137l-54 -195h-103z" />
<glyph horiz-adv-x="629" d="M67 195v348h152v-333q0 -116 101 -116q52 0 77.5 27t25.5 74v348h138v-333q0 -106 -68.5 -165.5t-172.5 -59.5q-115 0 -184 54t-69 156zM205 581l106 113h168l-159 -113h-115z" />
<glyph horiz-adv-x="629" d="M67 195v348h152v-333q0 -116 101 -116q52 0 77.5 27t25.5 74v348h138v-333q0 -106 -68.5 -165.5t-172.5 -59.5q-115 0 -184 54t-69 156zM161 694h97q0 -34 56 -34q54 0 54 34h99q0 -60 -44.5 -90t-108.5 -30q-65 0 -109 30t-44 90z" />
<glyph horiz-adv-x="629" d="M67 195v348h152v-333q0 -116 101 -116q52 0 77.5 27t25.5 74v348h138v-333q0 -106 -68.5 -165.5t-172.5 -59.5q-115 0 -184 54t-69 156zM128 581l126 113h121l126 -113h-123l-64 37l-64 -37h-122z" />
<glyph horiz-adv-x="629" d="M67 195v348h152v-333q0 -116 101 -116q52 0 77.5 27t25.5 74v348h138v-333q0 -106 -68.5 -165.5t-172.5 -59.5q-115 0 -184 54t-69 156zM151 646q0 28 21 47t51 19q31 0 52 -19t21 -47q0 -29 -21 -47t-52 -18t-51.5 18t-20.5 47zM334 646q0 28 21 47t51 19q31 0 51.5 -19 t20.5 -47q0 -29 -20.5 -47t-51.5 -18t-51.5 18t-20.5 47z" />
<glyph horiz-adv-x="629" d="M67 195v348h152v-333q0 -116 101 -116q52 0 77.5 27t25.5 74v348h138v-333q0 -106 -68.5 -165.5t-172.5 -59.5q-115 0 -184 54t-69 156zM150 694h169l105 -113h-115z" />
<glyph horiz-adv-x="629" d="M67 195v348h152v-333q0 -116 101 -116q52 0 77.5 27t25.5 74v348h138v-333q0 -106 -68.5 -165.5t-172.5 -59.5q-115 0 -184 54t-69 156zM131 581l84 113h155l-131 -113h-108zM318 581l83 113h156l-131 -113h-108z" />
<glyph horiz-adv-x="629" d="M67 195v348h152v-333q0 -116 101 -116q52 0 77.5 27t25.5 74v348h138v-333q0 -106 -68.5 -165.5t-172.5 -59.5q-115 0 -184 54t-69 156zM175 594v90h278v-90h-278z" />
<glyph horiz-adv-x="629" d="M67 195v348h152v-333q0 -116 101 -116q52 0 77.5 27t25.5 74v348h138v-333q0 -81 -41.5 -135.5t-111.5 -76.5q-106 -58 -106 -120q0 -19 13 -29t29 -10q32 0 68 17v-80q-42 -24 -113 -24q-56 0 -87 29.5t-31 73.5q0 76 87 133q-93 12 -147 64.5t-54 142.5z" />
<glyph horiz-adv-x="629" d="M67 195v348h152v-333q0 -116 101 -116q52 0 77.5 27t25.5 74v348h138v-333q0 -106 -68.5 -165.5t-172.5 -59.5q-115 0 -184 54t-69 156zM205 639q0 36 30 58t78 22q49 0 79 -22t30 -58q0 -37 -30 -59t-79 -22q-48 0 -78 22t-30 59zM282 639q0 -13 8.5 -20.5t22.5 -7.5 q31 0 31 28q0 12 -8.5 20t-22.5 8q-13 0 -22 -8t-9 -20z" />
<glyph horiz-adv-x="629" d="M67 195v348h152v-333q0 -116 101 -116q52 0 77.5 27t25.5 74v348h138v-333q0 -106 -68.5 -165.5t-172.5 -59.5q-115 0 -184 54t-69 156zM140 615q31 89 103 89q25 0 71 -14t61 -14q20 0 36 26l76 -34q-31 -89 -103 -89q-25 0 -71.5 14t-61.5 14q-19 0 -35 -26z" />
<glyph horiz-adv-x="804" d="M10 543h158l53 -203l38 -154l36 154l51 203h128l57 -203l40 -154l35 154l49 203h139l-152 -543h-137l-56 198l-40 155l-34 -155l-51 -198h-149zM297 581l106 113h168l-159 -113h-115z" />
<glyph horiz-adv-x="804" d="M10 543h158l53 -203l38 -154l36 154l51 203h128l57 -203l40 -154l35 154l49 203h139l-152 -543h-137l-56 198l-40 155l-34 -155l-51 -198h-149zM218 581l126 113h121l126 -113h-123l-64 37l-64 -37h-122z" />
<glyph horiz-adv-x="804" d="M10 543h158l53 -203l38 -154l36 154l51 203h128l57 -203l40 -154l35 154l49 203h139l-152 -543h-137l-56 198l-40 155l-34 -155l-51 -198h-149zM240 646q0 28 21 47t51 19q31 0 52 -19t21 -47q0 -29 -21 -47t-52 -18t-51.5 18t-20.5 47zM423 646q0 28 21 47t51 19 q31 0 51.5 -19t20.5 -47q0 -29 -20.5 -47t-51.5 -18t-51.5 18t-20.5 47z" />
<glyph horiz-adv-x="804" d="M10 543h158l53 -203l38 -154l36 154l51 203h128l57 -203l40 -154l35 154l49 203h139l-152 -543h-137l-56 198l-40 155l-34 -155l-51 -198h-149zM235 694h169l105 -113h-115z" />
<glyph horiz-adv-x="541" d="M18 543h160l106 -224l103 224h135l-174 -349v-194h-152v207zM171 581l106 113h168l-159 -113h-115z" />
<glyph horiz-adv-x="541" d="M18 543h160l106 -224l103 224h135l-174 -349v-194h-152v207zM89 581l126 113h121l126 -113h-123l-64 37l-64 -37h-122z" />
<glyph horiz-adv-x="541" d="M18 543h160l106 -224l103 224h135l-174 -349v-194h-152v207zM112 646q0 28 21 47t51 19q31 0 52 -19t21 -47q0 -29 -21 -47t-52 -18t-51.5 18t-20.5 47zM295 646q0 28 21 47t51 19q31 0 51.5 -19t20.5 -47q0 -29 -20.5 -47t-51.5 -18t-51.5 18t-20.5 47z" />
<glyph horiz-adv-x="541" d="M18 543h160l106 -224l103 224h135l-174 -349v-194h-152v207zM96 694h169l105 -113h-115z" />
<glyph horiz-adv-x="467" d="M40 0v109l222 325h-220v109h385v-109l-221 -325h221v-109h-387zM124 581l106 113h168l-159 -113h-115z" />
<glyph horiz-adv-x="467" d="M40 0v109l222 325h-220v109h385v-109l-221 -325h221v-109h-387zM49 694h122l64 -37l64 37h123l-126 -113h-121z" />
<glyph horiz-adv-x="467" d="M40 0v109l222 325h-220v109h385v-109l-221 -325h221v-109h-387zM159 645q0 30 21.5 49t53.5 19q31 0 52.5 -19t21.5 -49t-21.5 -48.5t-52.5 -18.5q-32 0 -53.5 18.5t-21.5 48.5z" />
<glyph horiz-adv-x="829" d="M10 0l364 543h398v-109h-223v-98h207v-109h-207v-118h223v-109h-375v112h-158l-69 -112h-160zM305 221h92v157l-61 -107zM386 581l106 113h168l-159 -113h-115z" />
<glyph horiz-adv-x="665" d="M20 419v104h82v55q0 90 50.5 135.5t136.5 45.5q57 0 96 -18v-93q-35 8 -58 8q-70 0 -70 -77v-56h343v-565q0 -91 -52 -136t-143 -45q-49 0 -88 18v93q34 -8 59 -8q69 0 69 77v462h-188v-419h-155v419h-82zM433 665q0 38 25 63.5t64 25.5t64 -25.5t25 -63.5t-25 -63.5 t-64 -25.5t-64 25.5t-25 63.5z" />
<glyph horiz-adv-x="725" d="M20 419v104h82v55q0 90 50.5 135.5t136.5 45.5q64 0 103 -18v-93q-34 8 -65 8q-70 0 -70 -77v-56h188v137h155v-137h105v-104h-105v-419h-155v419h-188v-419h-155v419h-82z" />
<glyph horiz-adv-x="1007" d="M20 419v104h82v55q0 90 50.5 135.5t136.5 45.5q64 0 103 -18v-93q-34 8 -65 8q-70 0 -70 -77v-56h188v55q0 90 50.5 135.5t135.5 45.5q57 0 96 -18v-93q-34 8 -57 8q-70 0 -70 -77v-56h342v-565q0 -91 -52 -136t-143 -45q-48 0 -87 18v93q34 -8 59 -8q68 0 68 77v462 h-187v-419h-155v419h-188v-419h-155v419h-82zM776 665q0 38 25 63.5t64 25.5t64 -25.5t25 -63.5t-25 -63.5t-64 -25.5t-64 25.5t-25 63.5z" />
<glyph horiz-adv-x="1067" d="M20 419v104h82v55q0 90 50.5 135.5t136.5 45.5q64 0 103 -18v-93q-34 8 -65 8q-70 0 -70 -77v-56h188v55q0 90 50.5 135.5t135.5 45.5q65 0 104 -18v-93q-35 8 -65 8q-70 0 -70 -77v-56h187v137h155v-137h105v-104h-105v-419h-155v419h-187v-419h-155v419h-188v-419h-155 v419h-82z" />
<glyph horiz-adv-x="752" d="M20 419v104h105v137h155v-137h192v137h155v-137h105v-104h-105v-419h-155v419h-192v-419h-155v419h-105z" />
<glyph horiz-adv-x="348" d="M15 515q0 44 40 70.5t122 26.5q11 0 39 -2v25q0 41 -43 41q-44 0 -47 -39h-104q2 55 44.5 82.5t106.5 27.5q36 0 66.5 -7t57 -31.5t26.5 -63.5v-205h-107v28q-42 -37 -98 -37q-51 0 -77 22.5t-26 61.5zM122 527q0 -29 38 -29q33 0 56 21v39q-24 2 -35 2q-59 0 -59 -33z " />
<glyph horiz-adv-x="349" d="M25 440v424h107v-154q40 37 86 37q57 0 87.5 -43t30.5 -114q0 -70 -34.5 -114.5t-92.5 -44.5q-45 0 -77 35v-26h-107zM132 528q20 -20 44 -20q52 0 52 82q0 80 -50 80q-26 0 -46 -20v-122z" />
<glyph horiz-adv-x="330" d="M12 590q0 71 44 114t114 43q63 0 103 -31t44 -86h-104q-7 46 -43 46q-49 0 -49 -86q0 -87 49 -87q32 0 41 41h105q-7 -53 -46 -83t-100 -30q-74 0 -116 43t-42 116z" />
<glyph horiz-adv-x="349" d="M12 590q0 70 34.5 113.5t94.5 43.5q45 0 75 -35v152h108v-424h-108v28q-40 -37 -85 -37q-57 0 -88 44t-31 115zM121 590q0 -82 49 -82q28 0 46 21v122q-17 19 -43 19q-52 0 -52 -80z" />
<glyph horiz-adv-x="334" d="M12 590q0 70 45 113.5t112 43.5q72 0 114.5 -43.5t36.5 -133.5h-198q4 -67 50 -67q32 0 39 27h105q-6 -46 -46 -72.5t-98 -26.5q-75 0 -117.5 43t-42.5 116zM123 624h91q-3 54 -45 54q-39 0 -46 -54z" />
<glyph horiz-adv-x="248" d="M6 664v74h50v23q0 59 32.5 85.5t85.5 26.5q43 0 68 -11v-67q-17 4 -39 4q-40 0 -40 -38v-23h79v-74h-79v-224h-107v224h-50z" />
<glyph horiz-adv-x="349" d="M12 594q0 70 34.5 111.5t94.5 41.5q45 0 75 -35v26h108v-297q0 -62 -47 -95t-108 -33q-66 0 -107.5 25t-43.5 79h104q2 -33 47 -33q47 0 47 47v44q-40 -37 -85 -37q-57 0 -88 42.5t-31 113.5zM121 594q0 -79 49 -79q28 0 46 21v115q-17 19 -43 19q-52 0 -52 -76z" />
<glyph horiz-adv-x="362" d="M25 440v424h107v-163q49 46 105 46q41 0 70.5 -23t29.5 -75v-209h-108v179q0 45 -42 45q-25 0 -55 -24v-200h-107z" />
<glyph horiz-adv-x="157" d="M21 824q0 25 16.5 41.5t43.5 16.5q26 0 43 -16.5t17 -41.5q0 -24 -17 -40.5t-43 -16.5q-27 0 -43.5 16.5t-16.5 40.5zM27 440v298h107v-298h-107z" />
<glyph horiz-adv-x="157" d="M21 824q0 25 16.5 41.5t43.5 16.5q26 0 43 -16.5t17 -41.5q0 -24 -17 -40.5t-43 -16.5q-27 0 -43.5 16.5t-16.5 40.5zM27 321v417h107v-417h-107z" />
<glyph horiz-adv-x="327" d="M25 440v424h107v-254l89 128h106l-96 -130l106 -168h-122l-83 142v-142h-107z" />
<glyph horiz-adv-x="157" d="M25 440v424h107v-424h-107z" />
<glyph horiz-adv-x="558" d="M25 440v298h107v-37q49 46 103 46q66 0 88 -48q55 48 112 48q40 0 69 -22.5t29 -75.5v-209h-108v179q0 45 -40 45q-28 0 -52 -24v-200h-108v179q0 45 -40 45q-27 0 -53 -24v-200h-107z" />
<glyph horiz-adv-x="362" d="M25 440v298h107v-37q49 46 105 46q41 0 70.5 -23t29.5 -75v-209h-108v179q0 45 -42 45q-25 0 -55 -24v-200h-107z" />
<glyph horiz-adv-x="347" d="M12 590q0 72 44.5 114.5t116.5 42.5q74 0 117.5 -42.5t43.5 -114.5q0 -73 -43.5 -116t-117.5 -43q-72 0 -116.5 43.5t-44.5 115.5zM121 590q0 -87 52 -87q53 0 53 87q0 86 -53 86q-52 0 -52 -86z" />
<glyph horiz-adv-x="349" d="M25 321v417h107v-28q40 37 86 37q57 0 87.5 -43t30.5 -114q0 -70 -34.5 -114.5t-92.5 -44.5q-45 0 -77 35v-145h-107zM132 528q20 -20 44 -20q52 0 52 82q0 80 -50 80q-26 0 -46 -20v-122z" />
<glyph horiz-adv-x="349" d="M12 590q0 70 34.5 113.5t94.5 43.5q45 0 75 -35v26h108v-417h-108v147q-40 -37 -85 -37q-57 0 -88 44t-31 115zM121 590q0 -82 49 -82q28 0 46 21v122q-17 19 -43 19q-52 0 -52 -80z" />
<glyph horiz-adv-x="265" d="M25 440v298h108v-52q34 61 84 61q23 0 38 -11v-92q-23 9 -46 9q-52 0 -76 -33v-180h-108z" />
<glyph horiz-adv-x="313" d="M13 531h103q2 -34 47 -34q40 0 40 26q0 14 -13.5 19.5t-46.5 10.5q-70 10 -94 25q-35 25 -36 74q0 46 39.5 70.5t96.5 24.5q137 0 143 -92h-104q-3 27 -40 27q-35 0 -35 -23q0 -13 12.5 -18t45.5 -9q2 0 19 -2.5t20.5 -3.5t18.5 -4.5t19.5 -6.5t16 -8t15.5 -11.5 t10.5 -15.5t8.5 -20t2 -25q0 -48 -40 -76t-99 -28q-67 0 -107 26t-42 74z" />
<glyph horiz-adv-x="246" d="M6 664v74h50v78h107v-78h69v-74h-69v-113q0 -26 8 -36t26 -10q16 0 37 7v-68q-41 -13 -73 -13q-105 0 -105 106v127h-50z" />
<glyph horiz-adv-x="358" d="M25 528v210h107v-181q0 -24 10 -34t32 -10q30 0 52 24v201h107v-298h-107v36q-50 -47 -102 -47q-40 0 -69.5 23t-29.5 76z" />
<glyph horiz-adv-x="343" d="M6 738h114l25 -79l33 -113l33 113l25 79h100l-113 -298h-101z" />
<glyph horiz-adv-x="522" d="M6 738h110l22 -75l27 -110l32 110l24 75h89l24 -75l32 -111l29 111l21 75h99l-105 -299h-95l-22 76l-30 110l-33 -110l-24 -75h-95z" />
<glyph horiz-adv-x="348" d="M6 440l110 151l-107 147h114l51 -75l51 75h104l-102 -141l115 -157h-114l-59 86l-58 -86h-105z" />
<glyph horiz-adv-x="343" d="M6 738h114l25 -79l33 -113l33 113l25 79h100l-156 -417h-104l46 120z" />
<glyph horiz-adv-x="279" d="M12 440v74l135 150h-129v74h248v-74l-134 -150h134v-74h-254z" />
<glyph horiz-adv-x="348" d="M15 -45q0 44 40 70.5t122 26.5q11 0 39 -2v25q0 41 -43 41q-44 0 -47 -39h-104q2 55 44.5 82.5t106.5 27.5q36 0 66.5 -7t57 -31.5t26.5 -63.5v-205h-107v28q-42 -37 -98 -37q-51 0 -77 22.5t-26 61.5zM122 -33q0 -29 38 -29q33 0 56 21v39q-24 2 -35 2q-59 0 -59 -33z " />
<glyph horiz-adv-x="349" d="M25 -120v424h107v-154q40 37 86 37q57 0 87.5 -43t30.5 -114q0 -70 -34.5 -114.5t-92.5 -44.5q-45 0 -77 35v-26h-107zM132 -32q20 -20 44 -20q52 0 52 82q0 80 -50 80q-26 0 -46 -20v-122z" />
<glyph horiz-adv-x="330" d="M12 30q0 71 44 114t114 43q63 0 103 -31t44 -86h-104q-7 46 -43 46q-49 0 -49 -86q0 -87 49 -87q32 0 41 41h105q-7 -53 -46 -83t-100 -30q-74 0 -116 43t-42 116z" />
<glyph horiz-adv-x="349" d="M12 30q0 70 34.5 113.5t94.5 43.5q45 0 75 -35v152h108v-424h-108v28q-40 -37 -85 -37q-57 0 -88 44t-31 115zM121 30q0 -82 49 -82q28 0 46 21v122q-17 19 -43 19q-52 0 -52 -80z" />
<glyph horiz-adv-x="334" d="M12 30q0 70 45 113.5t112 43.5q72 0 114.5 -43.5t36.5 -133.5h-198q4 -67 50 -67q32 0 39 27h105q-6 -46 -46 -72.5t-98 -26.5q-75 0 -117.5 43t-42.5 116zM123 64h91q-3 54 -45 54q-39 0 -46 -54z" />
<glyph horiz-adv-x="248" d="M6 104v74h50v23q0 59 32.5 85.5t85.5 26.5q43 0 68 -11v-67q-17 4 -39 4q-40 0 -40 -38v-23h79v-74h-79v-224h-107v224h-50z" />
<glyph horiz-adv-x="349" d="M12 34q0 70 34.5 111.5t94.5 41.5q45 0 75 -35v26h108v-297q0 -62 -47 -95t-108 -33q-66 0 -107.5 25t-43.5 79h104q2 -33 47 -33q47 0 47 47v44q-40 -37 -85 -37q-57 0 -88 42.5t-31 113.5zM121 34q0 -79 49 -79q28 0 46 21v115q-17 19 -43 19q-52 0 -52 -76z" />
<glyph horiz-adv-x="362" d="M25 -120v424h107v-163q49 46 105 46q41 0 70.5 -23t29.5 -75v-209h-108v179q0 45 -42 45q-25 0 -55 -24v-200h-107z" />
<glyph horiz-adv-x="157" d="M21 264q0 25 16.5 41.5t43.5 16.5q26 0 43 -16.5t17 -41.5q0 -24 -17 -40.5t-43 -16.5q-27 0 -43.5 16.5t-16.5 40.5zM27 -120v298h107v-298h-107z" />
<glyph horiz-adv-x="157" d="M21 264q0 25 16.5 41.5t43.5 16.5q26 0 43 -16.5t17 -41.5q0 -24 -17 -40.5t-43 -16.5q-27 0 -43.5 16.5t-16.5 40.5zM27 178h107v-417h-107v417z" />
<glyph horiz-adv-x="327" d="M25 -120v424h107v-254l89 128h106l-96 -130l106 -168h-122l-83 142v-142h-107z" />
<glyph horiz-adv-x="157" d="M25 -120v424h107v-424h-107z" />
<glyph horiz-adv-x="558" d="M25 -120v298h107v-37q49 46 103 46q66 0 88 -48q55 48 112 48q40 0 69 -22.5t29 -75.5v-209h-108v179q0 45 -40 45q-28 0 -52 -24v-200h-108v179q0 45 -40 45q-27 0 -53 -24v-200h-107z" />
<glyph horiz-adv-x="362" d="M25 -120v298h107v-37q49 46 105 46q41 0 70.5 -23t29.5 -75v-209h-108v179q0 45 -42 45q-25 0 -55 -24v-200h-107z" />
<glyph horiz-adv-x="347" d="M12 30q0 72 44.5 114.5t116.5 42.5q74 0 117.5 -42.5t43.5 -114.5q0 -73 -43.5 -116t-117.5 -43q-72 0 -116.5 43.5t-44.5 115.5zM121 30q0 -87 52 -87q53 0 53 87q0 86 -53 86q-52 0 -52 -86z" />
<glyph horiz-adv-x="349" d="M25 178h107v-28q40 37 86 37q57 0 87.5 -43t30.5 -114q0 -70 -34.5 -114.5t-92.5 -44.5q-45 0 -77 35v-145h-107v417zM132 -32q20 -20 44 -20q52 0 52 82q0 80 -50 80q-26 0 -46 -20v-122z" />
<glyph horiz-adv-x="349" d="M12 30q0 70 34.5 113.5t94.5 43.5q45 0 75 -35v26h108v-417h-108v147q-40 -37 -85 -37q-57 0 -88 44t-31 115zM121 30q0 -82 49 -82q28 0 46 21v122q-17 19 -43 19q-52 0 -52 -80z" />
<glyph horiz-adv-x="265" d="M25 -120v298h108v-52q34 61 84 61q23 0 38 -11v-92q-23 9 -46 9q-52 0 -76 -33v-180h-108z" />
<glyph horiz-adv-x="313" d="M13 -29h103q2 -34 47 -34q40 0 40 26q0 14 -13.5 19.5t-46.5 10.5q-70 10 -94 25q-36 23 -36 74q0 46 39.5 70.5t96.5 24.5q137 0 143 -92h-104q-3 27 -40 27q-35 0 -35 -23q0 -13 12.5 -18t45.5 -9q2 0 19 -2.5t20.5 -3.5t18.5 -4.5t19.5 -6.5t16 -8t15.5 -11.5 t10.5 -15.5t8.5 -20t2 -25q0 -48 -40 -76t-99 -28q-67 0 -107 26t-42 74z" />
<glyph horiz-adv-x="246" d="M6 104v74h50v78h107v-78h69v-74h-69v-113q0 -26 8 -36t26 -10q16 0 37 7v-68q-41 -13 -73 -13q-105 0 -105 106v127h-50z" />
<glyph horiz-adv-x="358" d="M25 -32v210h107v-181q0 -24 10 -34t32 -10q30 0 52 24v201h107v-298h-107v36q-50 -47 -102 -47q-40 0 -69.5 23t-29.5 76z" />
<glyph horiz-adv-x="343" d="M6 178h114l25 -79l33 -113l33 113l25 79h100l-113 -298h-101z" />
<glyph horiz-adv-x="522" d="M6 178h110l22 -75l27 -110l32 110l24 75h89l24 -75l32 -111l29 111l21 75h99l-105 -299h-95l-22 76l-30 110l-33 -110l-24 -75h-95z" />
<glyph horiz-adv-x="348" d="M6 -120l110 151l-107 147h114l51 -75l51 75h104l-102 -141l115 -157h-114l-59 86l-58 -86h-105z" />
<glyph horiz-adv-x="343" d="M6 178h114l25 -79l33 -113l33 113l25 79h100l-156 -417h-104l46 120z" />
<glyph horiz-adv-x="279" d="M12 -46l135 150h-129v74h248v-74l-134 -150h134v-74h-254v74z" />
<glyph d="M25 215h165q8 -113 120 -113q48 0 79 22.5t31 64.5q0 14 -4 26.5t-9 20.5t-17 16t-19.5 12t-26 9t-27 7t-31 6.5t-30.5 6.5q-39 8 -64.5 15.5t-59 23.5t-53 36.5t-33.5 55t-14 78.5q0 83 53.5 138.5t141.5 69.5v110h147v-112q175 -33 190 -214h-164q-4 54 -32 79t-80 25 q-46 0 -74.5 -20.5t-28.5 -60.5q0 -13 2.5 -24t9 -19.5t11.5 -15t17.5 -12t19.5 -9t24 -8t24.5 -6l27.5 -5.5t27 -6q32 -7 46.5 -10.5t43.5 -12.5t44 -17.5t35.5 -24.5t31 -34t18 -44.5t7.5 -58.5q0 -82 -56.5 -141t-143.5 -78v-111h-147v111q-193 33 -202 224z" />
<glyph d="M57 262q0 103 45.5 173t127.5 93v115h147v-112q150 -34 164 -198h-151q-6 57 -25 80.5t-59 23.5q-92 0 -92 -175q0 -87 24 -131.5t68 -44.5q35 0 54.5 23t27.5 73h150q-8 -76 -49.5 -124.5t-111.5 -64.5v-113h-147v114q-85 21 -129 91t-44 177z" />
<glyph d="M25 0v121h74v167h-74v121h74v90q0 100 64.5 158t171.5 58q232 0 245 -216h-164q-8 99 -81 99q-33 0 -54.5 -21t-21.5 -63v-105h192v-121h-192v-167h291v-121h-525z" />
<glyph d="M16 700h169l132 -250l127 250h140l-161 -291h117v-121h-157v-86h157v-121h-157v-81h-161v81h-157v121h157v86h-157v121h116z" />
<glyph d="M-10 -47h138q8 -59 47 -59q44 0 44 61v224h-152v121h152v214q0 99 50.5 150t140.5 51q84 0 132.5 -42.5t55.5 -126.5h-139q-5 29 -14 40.5t-28 11.5q-37 0 -37 -61v-237h152v-121h-152v-201q0 -99 -53 -150t-144 -51q-85 0 -135.5 44t-57.5 132z" />
<glyph d="M25 179v121h55q-1 16 -1 50q0 24 1 35h-55v121h72q25 99 83.5 154t145.5 55q111 0 176 -66t73 -199h-166q-6 77 -23.5 110.5t-59.5 33.5q-59 0 -79 -88h101v-121h-115v-35q0 -34 1 -50h114v-121h-100q20 -73 78 -73q42 0 59.5 33t23.5 111h166q-8 -133 -73 -199t-176 -66 q-182 0 -230 194h-71z" />
<glyph d="M30 0v700h184q114 0 164 -62t50 -197q0 -93 -25 -235h-96q19 158 19 210q0 91 -27.5 138t-94.5 47h-72v-601h-102zM176 0v494h102v-396h60q72 0 102 60t30 196q0 120 -35 346h95q39 -199 39 -351q0 -173 -52.5 -261t-168.5 -88h-172z" />
<glyph d="M41 350q0 106 31 187.5t88 126.5l23 156h148l-15 -105q34 -2 61 -7l16 112h148l-29 -196q51 -64 58 -174h-166q-12 144 -96 144q-54 0 -83 -65t-29 -179q0 -244 112 -244q84 0 96 144h166q-12 -187 -150 -244l-18 -126h-148l16 107q-37 5 -60 14l-18 -121h-148l36 247 q-39 90 -39 223z" />
<glyph d="M30 0v516h125v-50q22 32 51 48.5t54 16.5q61 0 86 -52l74 157h148l-55 -116q52 -29 52 -116v-404h-125v365l-80 -170v-195h-92l-52 -110h-148l52 110h-90zM155 74l80 170v129q0 46 -31 46q-25 0 -49 -32v-313z" />
<glyph d="M15 185v121h52v86h-52v121h52v187h137l192 -428l-4 190v238h140v-187h52v-121h-52v-86h52v-121h-52v-185h-137l-192 427l4 -190v-237h-140v185h-52z" />
<glyph d="M46 405v121h276q-23 53 -96 53h-180v121h60h443v-121h-105q23 -23 37 -53h68v-121h-61q-15 -76 -68 -118.5t-129 -54.5l248 -232h-190l-231 227v113h108q77 0 98 65h-278z" />
<glyph d="M11 185v121h72l-11 86h-61v121h46l-24 187h127l21 -296l9 -203l20 203l36 296h126l35 -296l20 -204l10 204l20 296h109l-22 -187h45v-121h-60l-10 -86h70v-121h-85l-22 -185h-128l-33 263l-18 204l-20 -204l-34 -263h-127l-24 185h-87z" />
<glyph d="M39 0v101h527v-101h-527zM39 352q0 97 54.5 154t134.5 57q84 0 128 -57v81h-101v101h101v56h149v-56h61v-101h-61v-433h-149v47q-58 -61 -142 -61q-80 0 -127.5 56.5t-47.5 155.5zM184 352q0 -52 24.5 -81.5t63.5 -29.5q45 0 84 34v155q-38 31 -79 31q-40 0 -66.5 -29.5 t-26.5 -79.5z" />
<glyph d="M20 308v121h67v271h161v-267l157 267h153l-170 -271h162v-121h-148l172 -308h-178l-148 287v-287h-161v308h-67z" />
<glyph d="M45 579v121h508v-121h-174v-84l115 43v-126l-115 -43v-59l115 43v-126l-115 -43v-184h-160v124l-115 -43v126l115 43v59l-115 -43v126l115 43v144h-174z" />
<glyph d="M15 399v121h70v180h189q93 0 161 -45.5t86 -134.5h64v-121h-64q-19 -87 -87 -132t-160 -45h-29v-222h-160v399h-70zM245 340h29q60 0 82 59h-111v-59zM245 520h112q-21 63 -83 63h-29v-63z" />
<glyph d="M25 288v121h304q63 41 63 101q0 41 -23 64.5t-63 23.5q-95 0 -104 -99h-164q18 216 268 216q110 0 175 -47.5t65 -132.5q0 -77 -56 -126h85v-121h-318q-59 -39 -59 -99q0 -41 23 -64t64 -23q97 0 106 99h164q-18 -216 -270 -216q-110 0 -175 47.5t-65 131.5q0 76 53 124 h-73z" />
<glyph d="M41 350q0 136 50 229.5t138 122.5v118h147v-112q85 -18 136 -83t58 -175h-166q-12 144 -96 144q-54 0 -83 -65t-29 -179q0 -244 112 -244q84 0 96 144h166q-7 -110 -58 -175t-136 -83v-112h-147v115q-188 52 -188 355z" />
<glyph d="M43 0v700h165v120h147v-124q88 -10 142 -51.5t54 -123.5q0 -50 -27.5 -91.5t-76.5 -57.5q131 -35 131 -163q0 -94 -62.5 -145.5t-160.5 -61.5v-122h-147v120h-165zM203 117h108q48 0 77 22t29 70q0 89 -106 89h-108v-181zM203 411h83q104 0 104 90q0 82 -104 82h-83v-172 z" />
<glyph d="M14 578l86 85l71 -71q55 29 129 29t129 -29l71 71l85 -85l-71 -71q34 -63 34 -147q0 -85 -34 -148l71 -71l-86 -85l-71 71q-55 -29 -128 -29q-75 0 -128 29l-72 -71l-85 85l71 71q-34 63 -34 148q0 84 34 146zM208 360q0 -82 21.5 -121.5t70.5 -39.5q48 0 69.5 39.5 t21.5 121.5q0 81 -21.5 120.5t-69.5 39.5q-49 0 -70.5 -39.5t-21.5 -120.5z" />
<glyph d="M35 181v121h80l28 111h-58v121h89l43 166h132l-43 -166h81l43 166h133l-43 -166h48v-121h-79l-28 -111h57v-121h-88l-47 -181h-133l47 181h-81l-47 -181h-132l47 181h-49zM247 302h81l28 111h-81z" />
<glyph horiz-adv-x="563" d="M51 166h149q4 -39 28.5 -58t62.5 -19q34 0 57.5 14.5t23.5 44.5t-28.5 44t-84.5 23q-31 5 -47.5 9t-44.5 12.5t-44 20t-33.5 29t-25.5 43.5t-8 59q0 63 43.5 106.5t114.5 57.5v84h136v-86q143 -31 153 -167h-149q-3 34 -25 52t-58 18q-32 0 -53.5 -14t-21.5 -41 q0 -21 17 -35t37.5 -19.5t57.5 -11.5q29 -5 40.5 -7.5t38.5 -9.5t39.5 -13.5t32 -20t28.5 -29t16.5 -39t7.5 -51.5q0 -62 -46 -108t-115 -62v-85h-136v85q-74 14 -116.5 57.5t-46.5 116.5z" />
<glyph horiz-adv-x="499" d="M51 203q0 80 35.5 134.5t102.5 73.5v88h136v-86q120 -29 131 -154h-135q-5 39 -18 52.5t-44 13.5q-68 0 -68 -122t68 -122q27 0 40.5 13.5t19.5 45.5h134q-7 -58 -39.5 -96t-88.5 -51v-86h-136v87q-68 18 -103 72.5t-35 136.5z" />
<glyph horiz-adv-x="523" d="M35 0v109h58v107h-58v108h58v55q0 79 58 128.5t148 49.5q94 0 149 -43.5t60 -126.5h-149q-7 66 -60 66q-24 0 -39 -15.5t-15 -46.5v-67h144v-108h-144v-107h224v-109h-434z" />
<glyph horiz-adv-x="541" d="M18 543h160l106 -197l103 197h135l-120 -212h75v-109h-129v-51h129v-109h-129v-62h-152v62h-130v109h130v51h-130v109h81z" />
<glyph horiz-adv-x="584" d="M-35 -17h149q7 -53 50 -53q52 0 52 62v139h-109v109h109v139q0 78 59 128t144 50q87 0 140.5 -40.5t59.5 -116.5h-149q-7 53 -51 53q-51 0 -51 -62v-151h111v-109h-111v-127q0 -78 -59.5 -128t-144.5 -50q-87 0 -140.5 40.5t-58.5 116.5z" />
<glyph horiz-adv-x="588" d="M27 139v101h49q-1 10 -1 31v20h-48v102h66q25 78 84 121t143 43q95 0 161 -54t72 -154h-150q-13 99 -83 99q-51 0 -74 -55h96v-102h-115v-20q0 -21 1 -31h114v-101h-92q25 -46 70 -46q70 0 83 100h150q-6 -100 -72 -154t-161 -54q-82 0 -139.5 40.5t-84.5 113.5h-69z" />
<glyph horiz-adv-x="727" d="M75 0v543h232q109 0 161 -49t52 -152q0 -74 -20 -182h-117q14 126 14 163q0 56 -22 82.5t-76 26.5h-101v-432h-123zM234 0v383h123v-272h76q67 0 93.5 40t26.5 123q0 99 -27 269h117q32 -156 32 -272q0 -271 -234 -271h-207z" />
<glyph horiz-adv-x="586" d="M14 -93l63 212q-35 64 -35 152q0 97 42.5 166.5t116.5 99.5l29 99h136l-24 -81q22 -1 45 -8l26 89h136l-46 -158q44 -51 48 -129h-150q-7 51 -29 75t-65 24q-105 0 -105 -177q0 -178 105 -178q43 0 65 24.5t29 75.5h150q-5 -88 -57.5 -140t-135.5 -64l-24 -82h-136l26 90 q-21 6 -42 17l-32 -107h-136z" />
<glyph horiz-adv-x="808" d="M72 0v406h139v-51q65 65 136 65q69 0 98 -40l60 113h137l-39 -73h6q55 0 90.5 -31.5t35.5 -105.5v-283h-139v250q0 32 -12.5 46t-39.5 14l-71 -134v-176h-94l-45 -85h-137l137 257v78q0 32 -12.5 46t-39.5 14q-41 0 -71 -33v-277h-139z" />
<glyph horiz-adv-x="635" d="M23 139v101h67v51h-67v102h67v150h136l184 -336l-3 148v188h138v-150h67v-102h-67v-51h67v-101h-67v-139h-136l-184 335l3 -147v-188h-138v139h-67z" />
<glyph horiz-adv-x="493" d="M25 298v101h235q-21 43 -88 43h-147v101h66h372v-101h-77q18 -22 25 -43h52v-101h-48q-24 -107 -148 -140l174 -158h-179l-161 147v101h71q68 0 89 50h-236z" />
<glyph horiz-adv-x="808" d="M17 139v101h97l-14 51h-83v102h55l-41 150h158l44 -205l29 -154l35 154l51 205h128l55 -205l40 -155l27 155l40 205h139l-37 -150h51v-102h-76l-13 -51h89v-101h-114l-34 -139h-137l-55 201l-39 154l-35 -154l-50 -201h-148l-38 139h-124z" />
<glyph horiz-adv-x="485" d="M42 0v101h423v-101h-423zM42 280q0 70 44 113.5t107 43.5q67 0 103 -45v61h-81v87h81v37h124v-37h45v-87h-45v-319h-124v37q-46 -48 -113 -48q-63 0 -102 42.5t-39 114.5zM176 280q0 -35 15 -51.5t39 -16.5q37 0 66 26v86q-29 24 -62 24q-25 0 -41.5 -17t-16.5 -51z" />
<glyph horiz-adv-x="546" d="M10 235v101h65v207h152v-185l125 185h146l-146 -207h157v-101h-138l160 -235h-177l-127 202v-202h-152v235h-65z" />
<glyph horiz-adv-x="487" d="M30 434v109h427v-109h-137v-60l95 31v-107l-95 -31v-46l95 31v-108l-95 -31v-113h-152v63l-95 -31v107l95 31v46l-95 -31v107l95 31v111h-138z" />
<glyph horiz-adv-x="553" d="M10 306v101h65v136h184q79 0 139 -35t79 -101h66v-101h-64q-17 -69 -78 -105.5t-142 -36.5h-32v-164h-152v306h-65zM227 270h32q46 0 65 36h-97v-36zM227 407h93q-19 30 -61 30h-32v-30z" />
<glyph horiz-adv-x="574" d="M42 219v102h268q53 29 53 76q0 27 -20 41.5t-52 14.5q-71 0 -79 -66h-149q7 83 65.5 126.5t162.5 43.5q95 0 153.5 -37t58.5 -105q0 -56 -36 -94h58v-102h-273q-50 -28 -50 -74q0 -27 20.5 -41.5t52.5 -14.5q74 0 80 66h149q-7 -83 -66 -126.5t-163 -43.5 q-95 0 -153.5 37t-58.5 105q0 56 34 92h-55z" />
<glyph horiz-adv-x="586" d="M42 271q0 108 52.5 181.5t141.5 96.5v87h136v-85q78 -16 126 -67t53 -135h-150q-7 51 -29 75t-65 24q-105 0 -105 -177q0 -178 105 -178q43 0 65 24.5t29 75.5h150q-5 -84 -53 -135t-126 -67v-84h-136v86q-89 23 -141.5 96.5t-52.5 181.5z" />
<glyph horiz-adv-x="578" d="M75 0v543h131v93h136v-95q173 -17 173 -140q0 -38 -22 -69.5t-61 -43.5q104 -26 104 -128q0 -74 -55 -113.5t-139 -45.5v-94h-136v93h-131zM227 100h86q73 0 73 62q0 64 -73 64h-86v-126zM227 323h67q71 0 71 62q0 58 -71 58h-67v-120z" />
<glyph horiz-adv-x="558" d="M27 439l86 84l64 -63q45 21 102 21q56 0 101 -20l64 62l86 -84l-61 -59q24 -46 24 -101q0 -57 -25 -102l61 -59l-85 -84l-65 62q-45 -20 -100 -20q-56 0 -101 20l-64 -62l-86 84l61 60q-24 46 -24 101q0 57 24 100zM204 279q0 -108 75 -108q74 0 74 108q0 107 -74 107 q-75 0 -75 -107z" />
<glyph horiz-adv-x="593" d="M27 136v102h87l21 78h-68v101h95l33 126h133l-33 -126h79l33 126h133l-33 -126h58v-101h-85l-21 -78h66v-102h-93l-36 -136h-133l36 136h-79l-36 -136h-133l36 136h-60zM247 238h79l21 78h-79z" />
<glyph horiz-adv-x="653" d="M42 350q0 166 77.5 265.5t206.5 99.5q130 0 207 -99.5t77 -265.5t-77 -265.5t-207 -99.5q-129 0 -206.5 99.5t-77.5 265.5zM189 350q0 -78 13 -130l173 365q-21 9 -49 9q-64 0 -100.5 -65.5t-36.5 -178.5zM278 115q21 -9 48 -9q65 0 101 65.5t36 178.5q0 76 -13 128z" />
<glyph horiz-adv-x="588" d="M42 287q0 137 66.5 219t185.5 82t185 -82t66 -219q0 -138 -66 -220t-185 -82t-185.5 82t-66.5 220zM200 287q0 -200 94 -200t94 200q0 199 -94 199q-49 0 -71.5 -49t-22.5 -150z" />
<glyph horiz-adv-x="588" d="M42 287q0 137 66.5 219t185.5 82t185 -82t66 -219q0 -138 -66 -220t-185 -82t-185.5 82t-66.5 220zM181 287q0 -58 10 -97l141 289q-15 7 -38 7q-113 0 -113 -199zM255 95q19 -8 39 -8q113 0 113 200q0 59 -10 98z" />
<glyph horiz-adv-x="420" d="M32 345v138l164 90h156v-573h-156v435z" />
<glyph horiz-adv-x="562" d="M40 363q14 225 246 225q110 0 170.5 -48.5t60.5 -139.5q0 -32 -11.5 -61.5t-27 -52t-51.5 -53t-65 -51.5t-86 -61h249v-121h-465v121q177 110 240 164t63 115q0 35 -20 57t-57 22q-43 0 -67.5 -29.5t-27.5 -86.5h-151z" />
<glyph horiz-adv-x="589" d="M27 62h159q3 -49 30.5 -75.5t75.5 -26.5t75.5 27t27.5 79q0 101 -133 101h-77v113h77q59 0 88.5 30t29.5 80q0 43 -25 66t-66 23q-92 0 -102 -102h-151q7 101 74 156t183 55q110 0 175 -51.5t65 -148.5q0 -46 -30 -91t-78 -65q62 -15 93 -61.5t31 -103.5 q0 -99 -72 -157.5t-186 -58.5q-250 0 -264 211z" />
<glyph horiz-adv-x="590" d="M45 0v121l185 452h148l-188 -452h143v160h141v-160h91v-121h-91v-134h-141v134h-288z" />
<glyph horiz-adv-x="583" d="M42 65h159q3 -48 27.5 -76.5t66.5 -28.5q94 0 94 142q0 124 -100 124q-53 0 -90 -45h-138v392h438v-121h-300v-177q22 29 62 49t82 20q94 0 147 -62.5t53 -179.5q0 -115 -70 -183t-178 -68q-117 0 -181.5 55.5t-71.5 158.5z" />
<glyph horiz-adv-x="611" d="M42 339q0 208 75 314t201 106q103 0 165 -51.5t71 -156.5h-151q-5 51 -28.5 74.5t-56.5 23.5q-111 0 -118 -275q28 34 75 56.5t92 22.5q95 0 148.5 -59.5t53.5 -169.5q0 -107 -72.5 -173t-180.5 -66q-131 0 -202.5 91.5t-71.5 262.5zM201 290q12 -196 115 -196 q45 0 70 33.5t25 88.5q0 53 -23.5 86t-74.5 33q-27 0 -60 -13t-52 -32z" />
<glyph horiz-adv-x="502" d="M32 452v121h440v-121l-228 -586h-152l233 586h-293z" />
<glyph horiz-adv-x="624" d="M42 202q0 59 33 110.5t99 75.5q-54 20 -84.5 63.5t-30.5 98.5q0 97 70.5 153t182.5 56t182.5 -56t70.5 -153q0 -55 -30.5 -98.5t-83.5 -63.5q66 -24 98.5 -75t32.5 -111q0 -102 -74 -159.5t-196 -57.5t-196 57.5t-74 159.5zM196 206q0 -52 31 -82t85 -30t85 30t31 82 q0 49 -30.5 81t-85.5 32t-85.5 -32t-30.5 -81zM213 546q0 -50 26.5 -78t72.5 -28t72.5 28t26.5 78q0 51 -27.5 77t-71.5 26t-71.5 -26t-27.5 -77z" />
<glyph horiz-adv-x="611" d="M42 352q0 107 72.5 171.5t181.5 64.5q130 0 201.5 -88.5t71.5 -257.5q0 -200 -73.5 -295.5t-201.5 -95.5q-106 0 -171 48.5t-74 151.5h151q9 -91 94 -91q56 0 84.5 56t32.5 188q-28 -34 -75 -56.5t-92 -22.5q-96 0 -149 58.5t-53 168.5zM200 360q0 -51 23.5 -84t74.5 -33 q27 0 60 13.5t52 32.5q-11 190 -114 190q-46 0 -71 -32t-25 -87z" />
<glyph d="M33 350q0 169 69.5 267t197.5 98q127 0 196.5 -98t69.5 -267t-69.5 -267t-196.5 -98q-128 0 -197.5 98t-69.5 267zM199 350q0 -244 101 -244t101 244t-101 244t-101 -244z" />
<glyph d="M33 350q0 169 69.5 267t197.5 98q127 0 196.5 -98t69.5 -267t-69.5 -267t-196.5 -98q-128 0 -197.5 98t-69.5 267zM174 350q0 -64 8 -115l166 349q-20 10 -48 10q-62 0 -94 -65t-32 -179zM251 116q20 -10 49 -10q61 0 93.5 65t32.5 179q0 65 -8 116z" />
<glyph d="M64 0v121h166v440l-166 -89v138l166 90h160v-579h159v-121h-319h-166z" />
<glyph d="M51 482q7 115 74 174t183 59q111 0 176 -53.5t65 -152.5q0 -86 -61 -166t-217 -222h285v-121h-484v121q16 15 47 43q155 143 201 198q67 80 67 147q0 89 -79 89q-86 0 -92 -116h-165z" />
<glyph d="M41 196h165q6 -94 99 -94q46 0 71.5 27.5t25.5 71.5q0 42 -33 67t-100 25h-70v121h70q57 0 87 29t30 72q0 39 -21 61t-58 22q-84 0 -92 -94h-165q8 101 75 156t182 55q110 0 175 -51.5t65 -148.5q0 -46 -30 -89.5t-78 -63.5q63 -15 93.5 -60t30.5 -101q0 -99 -72 -157.5 t-186 -58.5q-250 0 -264 211z" />
<glyph d="M45 111v121l185 468h149l-189 -468h144v158h146v-158h85v-121h-85v-111h-146v111h-289z" />
<glyph d="M51 191h165q6 -89 88 -89q42 0 64 36.5t22 93.5q0 119 -90 119q-55 0 -92 -43h-138v392h438v-121h-300v-180q22 31 63 51.5t83 20.5q94 0 146 -61t52 -178q0 -114 -70 -180.5t-178 -66.5q-239 0 -253 206z" />
<glyph d="M42 317q0 191 75 294.5t200 103.5q101 0 162.5 -48t71.5 -140h-164q-5 38 -21.5 54.5t-48.5 16.5q-52 0 -77.5 -54.5t-30.5 -168.5q28 35 71 56.5t86 21.5q95 0 148.5 -59.5t53.5 -169.5q0 -107 -72.5 -173t-180.5 -66q-129 0 -201 88t-72 244zM208 290q6 -188 107 -188 q44 0 67.5 35.5t23.5 86.5q0 47 -22 78.5t-72 31.5q-62 0 -104 -44z" />
<glyph d="M65 579v121h460v-121l-248 -579h-153l254 579h-313z" />
<glyph d="M32 189q0 59 31.5 106.5t97.5 65.5q-52 20 -82 61.5t-30 91.5q0 97 69 149t182 52t182 -52t69 -149q0 -50 -30 -91.5t-83 -61.5q66 -18 98 -65.5t32 -106.5q0 -100 -72.5 -152t-195.5 -52t-195.5 52t-72.5 152zM189 196q0 -44 30 -69t81 -25t81 25t30 69q0 43 -29 69.5 t-82 26.5t-82 -26.5t-29 -69.5zM204 507q0 -44 25 -68.5t71 -24.5t71 24.5t25 68.5t-26 67.5t-70 23.5t-70 -23.5t-26 -67.5z" />
<glyph d="M42 478q0 109 72.5 173t181.5 64q129 0 200.5 -88t71.5 -245q0 -191 -74.5 -294t-200.5 -103q-108 0 -172.5 51t-71.5 149h164q11 -83 80 -83q58 0 82.5 56.5t27.5 179.5q-29 -35 -72 -57t-87 -22q-96 0 -149 55.5t-53 163.5zM201 478q0 -44 23.5 -72t73.5 -28 q60 0 104 44q-8 176 -106 176q-46 0 -70.5 -32.5t-24.5 -87.5z" />
<glyph d="M48 287q0 137 66.5 219t185.5 82t185 -82t66 -219q0 -138 -66 -220t-185 -82t-185.5 82t-66.5 220zM206 287q0 -200 94 -200t94 200q0 199 -94 199q-49 0 -71.5 -49t-22.5 -150z" />
<glyph d="M48 287q0 137 66.5 219t185.5 82t185 -82t66 -219q0 -138 -66 -220t-185 -82t-185.5 82t-66.5 220zM187 287q0 -58 10 -97l141 289q-15 7 -38 7q-113 0 -113 -199zM261 95q19 -8 39 -8q113 0 113 200q0 59 -10 98z" />
<glyph d="M66 0v121h168v313l-168 -90v139l168 90h156v-452h158v-121h-314h-168z" />
<glyph d="M60 363q14 225 246 225q110 0 170.5 -48.5t60.5 -139.5q0 -32 -11.5 -61.5t-27 -52t-51.5 -53t-65 -51.5t-86 -61h249v-121h-465v121q177 110 240 164t63 115q0 35 -20 57t-57 22q-43 0 -67.5 -29.5t-27.5 -86.5h-151z" />
<glyph d="M38 62h158q8 -102 106 -102q48 0 75.5 27t27.5 79q0 101 -132 101h-78v113h78q58 0 87.5 30t29.5 80q0 43 -24.5 66t-66.5 23q-93 0 -101 -102h-151q8 101 74.5 156t181.5 55q110 0 175.5 -52t65.5 -148q0 -46 -30.5 -91t-78.5 -65q62 -15 93 -61.5t31 -103.5 q0 -99 -71.5 -157.5t-185.5 -58.5q-250 0 -264 211z" />
<glyph d="M45 0v121l185 452h148l-188 -452h143v160h141v-160h91v-121h-91v-134h-141v134h-288z" />
<glyph d="M49 65h158q4 -49 28 -77t66 -28q94 0 94 142q0 124 -100 124q-53 0 -90 -45h-138v392h438v-121h-300v-177q22 29 62 49t82 20q94 0 147 -62t53 -180q0 -115 -70 -183t-178 -68q-117 0 -181 55.5t-71 158.5z" />
<glyph d="M39 339q0 208 74.5 314t200.5 106q103 0 165.5 -51.5t71.5 -156.5h-151q-5 51 -29 74.5t-57 23.5q-108 0 -117 -259q29 34 75 56t91 22q96 0 149 -60.5t53 -176.5q0 -112 -72 -179t-181 -67q-130 0 -201.5 91.5t-71.5 262.5zM197 304q8 -210 115 -210q46 0 71 34.5 t25 95.5q0 126 -99 126q-27 0 -60 -13.5t-52 -32.5z" />
<glyph d="M71 452v121h465v-121l-248 -586h-153l254 586h-318z" />
<glyph d="M30 202q0 60 32.5 111t98.5 75q-53 20 -83.5 63.5t-30.5 98.5q0 97 70.5 153t182.5 56t182.5 -56t70.5 -153q0 -55 -30.5 -98.5t-84.5 -63.5q66 -24 99 -75.5t33 -110.5q0 -102 -74 -159.5t-196 -57.5t-196 57.5t-74 159.5zM184 206q0 -52 31 -82t85 -30t85 30t31 82 q0 49 -30.5 81t-85.5 32t-85.5 -32t-30.5 -81zM201 546q0 -50 26.5 -78t72.5 -28t72.5 28t26.5 78q0 51 -27.5 77t-71.5 26t-71.5 -26t-27.5 -77z" />
<glyph d="M39 352q0 107 72 171.5t181 64.5q130 0 201.5 -88.5t71.5 -257.5q0 -201 -73.5 -296t-201.5 -95q-106 0 -171 48.5t-74 151.5h151q9 -91 94 -91q57 0 85.5 56.5t32.5 188.5q-28 -35 -75 -57.5t-92 -22.5q-96 0 -149 58.5t-53 168.5zM196 360q0 -51 24 -84t75 -33 q27 0 60 13.5t52 33.5q-12 189 -115 189q-46 0 -71 -32t-25 -87z" />
<glyph horiz-adv-x="572" d="M42 271q0 129 67 207.5t177 78.5t177 -78.5t67 -207.5q0 -128 -67 -207t-177 -79q-109 0 -176.5 79t-67.5 207zM197 271q0 -84 23.5 -130.5t65.5 -46.5t65.5 46.5t23.5 130.5t-23.5 130.5t-65.5 46.5t-65.5 -46.5t-23.5 -130.5z" />
<glyph horiz-adv-x="572" d="M42 271q0 129 66.5 207.5t177.5 78.5t177.5 -78.5t66.5 -207.5t-66.5 -207.5t-177.5 -78.5t-177.5 78.5t-66.5 207.5zM179 271q0 -51 9 -87l130 265q-15 6 -32 6q-48 0 -77.5 -46t-29.5 -138zM251 94q15 -7 35 -7q48 0 77.5 46t29.5 138q0 49 -10 91z" />
<glyph horiz-adv-x="392" d="M32 351v122l132 70h153v-543h-153v420z" />
<glyph horiz-adv-x="500" d="M42 374q6 88 64.5 135.5t152.5 47.5q90 0 147 -43.5t57 -120.5q0 -63 -48.5 -124.5t-165.5 -159.5h218v-109h-408v109q26 23 64 54t58 48t46 40.5t39.5 38.5t27 33.5t18.5 35.5t5 34q0 27 -16 43t-43 16q-60 0 -67 -78h-149z" />
<glyph horiz-adv-x="525" d="M35 152h149q6 -63 78 -63q36 0 54 18.5t18 48.5q0 67 -102 67h-56v103h56q46 0 68 19.5t22 50.5q0 25 -15 41t-44 16q-63 0 -72 -62h-149q6 76 67 121t154 45q100 0 155 -39t55 -115q0 -41 -25 -74t-70 -48q55 -13 81 -47.5t26 -77.5q0 -78 -60 -124.5t-163 -46.5 q-102 0 -162 43.5t-65 123.5z" />
<glyph horiz-adv-x="513" d="M45 80v109l148 354h145l-150 -354h96v113h143v-113h61v-109h-61v-80h-143v80h-239z" />
<glyph horiz-adv-x="508" d="M42 148h149q7 -59 64 -59q29 0 45.5 24t16.5 64q0 85 -66 85q-38 0 -66 -31h-129v312h377v-109h-248v-118q44 49 116 49q77 0 122 -49t45 -135q0 -94 -57 -145t-156 -51q-96 0 -151.5 42.5t-61.5 120.5z" />
<glyph horiz-adv-x="532" d="M42 246q0 150 63 230.5t174 80.5q82 0 136 -39t61 -110h-149q-9 45 -55 45q-38 0 -55.5 -34.5t-21.5 -111.5q57 44 126 44q79 0 124 -46t45 -132q0 -84 -62.5 -136t-156.5 -52q-109 0 -169 69.5t-60 191.5zM194 231q1 -74 17 -108t60 -34q35 0 53 24t18 60q0 35 -17.5 59 t-57.5 24q-42 0 -73 -25z" />
<glyph horiz-adv-x="432" d="M32 434v109h370v-109l-182 -434h-147l186 434h-227z" />
<glyph horiz-adv-x="547" d="M42 146q0 44 26.5 81t76.5 53q-42 15 -66 49t-24 73q0 75 60.5 115t157.5 40t158 -40t61 -115q0 -39 -24 -73t-66 -49q50 -16 76.5 -53t26.5 -81q0 -77 -63.5 -119t-168.5 -42q-104 0 -167.5 42t-63.5 119zM195 152q0 -66 78 -66q79 0 79 66q0 33 -20.5 51t-58.5 18 q-37 0 -57.5 -18.5t-20.5 -50.5zM205 393q0 -33 18.5 -50t49.5 -17t50 17t19 50q0 63 -69 63q-68 0 -68 -63z" />
<glyph horiz-adv-x="532" d="M42 373q0 84 62 134t157 50q109 0 169 -69.5t60 -191.5q0 -150 -63 -230.5t-174 -80.5q-85 0 -141 38.5t-66 121.5h149q10 -56 65 -56q40 0 57.5 37t20.5 122q-55 -46 -127 -46q-79 0 -124 43.5t-45 127.5zM190 373q0 -76 75 -76q41 0 74 26q-2 67 -19 98.5t-59 31.5 q-35 0 -53 -22t-18 -58z" />
<glyph horiz-adv-x="439" d="M22 650q0 99 54 159t143 60t143 -59.5t54 -159.5t-54 -159.5t-143 -59.5t-143 60t-54 159zM153 650q0 -127 66 -127q67 0 67 127t-67 127q-66 0 -66 -127z" />
<glyph horiz-adv-x="272" d="M12 700v106l106 54h127v-420h-127v314z" />
<glyph horiz-adv-x="383" d="M22 729q4 68 51.5 104t123.5 36q78 0 122.5 -34.5t44.5 -96.5q0 -51 -32 -88t-132 -116h168v-94h-333v94q22 17 52.5 40.5t46 36t36.5 30t31 28t20.5 23.5t14.5 24t4 22q0 44 -43 44q-45 0 -49 -53h-126z" />
<glyph horiz-adv-x="402" d="M22 558h126q5 -41 55 -41q26 0 39.5 12.5t13.5 31.5q0 47 -76 47h-48v89h48q66 0 66 47q0 38 -43 38q-44 0 -49 -40h-126q5 60 52 93.5t123 33.5q74 0 120.5 -31.5t46.5 -88.5q0 -29 -19 -54.5t-55 -36.5q84 -18 84 -98q0 -58 -51 -93.5t-126 -35.5q-83 0 -130 32.5 t-51 94.5z" />
<glyph horiz-adv-x="382" d="M12 497v95l120 268h120l-123 -268h72v82h115v-82h56v-95h-56v-57h-115v57h-189z" />
<glyph horiz-adv-x="379" d="M22 555h126q5 -38 47 -38q47 0 47 62t-50 62q-32 0 -56 -24h-102v243h303v-95h-201v-74q38 33 93 33q63 0 100 -37.5t37 -107.5q0 -68 -50 -108t-121 -40q-78 0 -123.5 31.5t-49.5 92.5z" />
<glyph horiz-adv-x="391" d="M15 630q0 114 52 176.5t136 62.5q71 0 115 -30.5t50 -85.5h-127q-9 29 -38 29q-26 0 -39.5 -24.5t-17.5 -79.5q37 34 91 34q69 0 105.5 -35.5t36.5 -102.5q0 -64 -50.5 -103.5t-123.5 -39.5q-89 0 -139.5 52.5t-50.5 146.5zM145 611q2 -47 15 -70.5t45 -23.5q49 0 49 57 q0 55 -52 55q-31 0 -57 -18z" />
<glyph horiz-adv-x="327" d="M12 765v95h302v-95l-148 -325h-121l151 325h-184z" />
<glyph horiz-adv-x="403" d="M15 553q0 36 21 64.5t64 39.5q-34 12 -54 37t-20 55q0 57 48.5 88.5t127.5 31.5q78 0 126.5 -31t48.5 -89q0 -30 -20 -55t-54 -37q43 -11 64 -39.5t21 -64.5q0 -60 -50 -91t-136 -31t-136.5 31t-50.5 91zM141 564q0 -47 61 -47t61 47q0 46 -61 46t-61 -46zM151 738 q0 -44 51 -44t51 44t-51 44t-51 -44z" />
<glyph horiz-adv-x="391" d="M12 726q0 64 50.5 103.5t123.5 39.5q89 0 139.5 -53t50.5 -147q0 -114 -52 -176t-136 -62q-71 0 -115.5 31t-50.5 88h127q9 -33 39 -33q27 0 40.5 25t16.5 80q-37 -34 -90 -34q-69 0 -106 35.5t-37 102.5zM137 726q0 -55 52 -55q31 0 57 18q-2 47 -15 70t-45 23 q-49 0 -49 -56z" />
<glyph horiz-adv-x="369" d="M22 611v96h114v112h96v-112h114v-96h-114v-110h-96v110h-114z" />
<glyph horiz-adv-x="369" d="M22 612v95h324v-95h-324z" />
<glyph horiz-adv-x="369" d="M22 537v95h324v-95h-324zM22 687v95h324v-95h-324z" />
<glyph horiz-adv-x="172" d="M22 339l13 191h115l-30 -191h-98z" />
<glyph horiz-adv-x="187" d="M22 502q0 31 19.5 51t52.5 20q32 0 51 -20t19 -51t-19 -51t-51 -20q-33 0 -52.5 20t-19.5 51z" />
<glyph horiz-adv-x="260" d="M22 650q0 91 39 163.5t95 121.5h116q-53 -50 -85 -128t-32 -157t32 -157t85 -128h-116q-134 117 -134 285z" />
<glyph horiz-adv-x="260" d="M-13 365q54 50 86 128t32 157t-32 157t-86 128h118q55 -49 93.5 -121.5t38.5 -163.5q0 -168 -132 -285h-118z" />
<glyph horiz-adv-x="439" d="M22 90q0 99 54 159t143 60t143 -59.5t54 -159.5t-54 -159.5t-143 -59.5t-143 60t-54 159zM153 90q0 -127 66 -127q67 0 67 127t-67 127q-66 0 -66 -127z" />
<glyph horiz-adv-x="272" d="M12 140v106l106 54h127v-420h-127v314z" />
<glyph horiz-adv-x="383" d="M22 169q4 68 51.5 104t123.5 36q78 0 122.5 -34.5t44.5 -96.5q0 -51 -32 -88t-132 -116h168v-94h-333v94q22 17 52.5 40.5t46 36t36.5 30t31 28t20.5 23.5t14.5 24t4 22q0 44 -43 44q-45 0 -49 -53h-126z" />
<glyph horiz-adv-x="402" d="M22 -2h126q5 -41 55 -41q26 0 39.5 12.5t13.5 31.5q0 47 -76 47h-48v89h48q66 0 66 47q0 38 -43 38q-44 0 -49 -40h-126q5 60 52 93.5t123 33.5q74 0 120.5 -31.5t46.5 -88.5q0 -29 -19 -54.5t-55 -36.5q84 -18 84 -98q0 -58 -51 -93.5t-126 -35.5q-83 0 -130 32.5 t-51 94.5z" />
<glyph horiz-adv-x="382" d="M12 32l120 268h120l-123 -268h72v82h115v-82h56v-95h-56v-57h-115v57h-189v95z" />
<glyph horiz-adv-x="379" d="M22 -5h126q5 -38 47 -38q47 0 47 62t-50 62q-32 0 -56 -24h-102v243h303v-95h-201v-74q38 33 93 33q63 0 100 -37.5t37 -107.5q0 -68 -50 -108t-121 -40q-78 0 -123.5 31.5t-49.5 92.5z" />
<glyph horiz-adv-x="391" d="M15 70q0 114 52 176.5t136 62.5q71 0 115 -30.5t50 -85.5h-127q-9 29 -38 29q-26 0 -39.5 -24.5t-17.5 -79.5q37 34 91 34q69 0 105.5 -35.5t36.5 -102.5q0 -64 -50.5 -103.5t-123.5 -39.5q-89 0 -139.5 52.5t-50.5 146.5zM145 51q2 -47 15 -70.5t45 -23.5q49 0 49 57 q0 55 -52 55q-31 0 -57 -18z" />
<glyph horiz-adv-x="327" d="M12 205v95h302v-95l-148 -325h-121l151 325h-184z" />
<glyph horiz-adv-x="403" d="M15 -7q0 36 21 64.5t64 39.5q-34 12 -54 37t-20 55q0 57 48.5 88.5t127.5 31.5q78 0 126.5 -31t48.5 -89q0 -30 -20 -55t-54 -37q43 -11 64 -39.5t21 -64.5q0 -60 -50 -91t-136 -31t-136.5 31t-50.5 91zM141 4q0 -47 61 -47t61 47q0 46 -61 46t-61 -46zM151 178 q0 -44 51 -44t51 44t-51 44t-51 -44z" />
<glyph horiz-adv-x="391" d="M12 166q0 64 50.5 103.5t123.5 39.5q89 0 139.5 -53t50.5 -147q0 -114 -52 -176t-136 -62q-71 0 -115.5 31t-50.5 88h127q9 -33 39 -33q27 0 40.5 25t16.5 80q-37 -34 -90 -34q-69 0 -106 35.5t-37 102.5zM137 166q0 -55 52 -55q31 0 57 18q-2 47 -15 70t-45 23 q-49 0 -49 -56z" />
<glyph horiz-adv-x="369" d="M22 51v96h114v112h96v-112h114v-96h-114v-110h-96v110h-114z" />
<glyph horiz-adv-x="369" d="M22 52v95h324v-95h-324z" />
<glyph horiz-adv-x="369" d="M22 -23v95h324v-95h-324zM22 127v95h324v-95h-324z" />
<glyph horiz-adv-x="172" d="M22 -221l13 191h115l-30 -191h-98z" />
<glyph horiz-adv-x="199" d="M22 -58q0 31 19.5 51t52.5 20q32 0 51 -20t19 -51t-19 -51t-51 -20q-33 0 -52.5 20t-19.5 51z" />
<glyph horiz-adv-x="260" d="M22 90q0 91 39 163.5t95 121.5h116q-53 -50 -85 -128t-32 -157t32 -157t85 -128h-116q-134 117 -134 285z" />
<glyph horiz-adv-x="260" d="M-13 -195q54 50 86 128t32 157t-32 157t-86 128h118q55 -49 93.5 -121.5t38.5 -163.5q0 -168 -132 -285h-118z" />
<glyph horiz-adv-x="439" d="M22 490q0 99 54 159t143 60t143 -59.5t54 -159.5t-54 -159.5t-143 -59.5t-143 60t-54 159zM153 490q0 -127 66 -127q67 0 67 127t-67 127q-66 0 -66 -127z" />
<glyph horiz-adv-x="272" d="M12 540v106l106 54h127v-420h-127v314z" />
<glyph horiz-adv-x="383" d="M22 569q4 68 51.5 104t123.5 36q78 0 122.5 -34.5t44.5 -96.5q0 -51 -32 -88t-132 -116h168v-94h-333v94q22 17 52.5 40.5t46 36t36.5 30t31 28t20.5 23.5t14.5 24t4 22q0 44 -43 44q-45 0 -49 -53h-126z" />
<glyph horiz-adv-x="402" d="M22 398h126q5 -41 55 -41q26 0 39.5 12.5t13.5 31.5q0 47 -76 47h-48v89h48q66 0 66 47q0 38 -43 38q-44 0 -49 -40h-126q5 60 52 93.5t123 33.5q74 0 120.5 -31.5t46.5 -88.5q0 -29 -19 -54.5t-55 -36.5q84 -18 84 -98q0 -58 -51 -93.5t-126 -35.5q-83 0 -130 32.5 t-51 94.5z" />
<glyph horiz-adv-x="382" d="M12 337v95l120 268h120l-123 -268h72v82h115v-82h56v-95h-56v-57h-115v57h-189z" />
<glyph horiz-adv-x="379" d="M22 395h126q5 -38 47 -38q47 0 47 62t-50 62q-32 0 -56 -24h-102v243h303v-95h-201v-74q38 33 93 33q63 0 100 -37.5t37 -107.5q0 -68 -50 -108t-121 -40q-78 0 -123.5 31.5t-49.5 92.5z" />
<glyph horiz-adv-x="391" d="M15 470q0 114 52 176.5t136 62.5q71 0 115 -30.5t50 -85.5h-127q-9 29 -38 29q-26 0 -39.5 -24.5t-17.5 -79.5q37 34 91 34q69 0 105.5 -35.5t36.5 -102.5q0 -64 -50.5 -103.5t-123.5 -39.5q-89 0 -139.5 52.5t-50.5 146.5zM145 451q2 -47 15 -70.5t45 -23.5q49 0 49 57 q0 55 -52 55q-31 0 -57 -18z" />
<glyph horiz-adv-x="327" d="M12 605v95h302v-95l-148 -325h-121l151 325h-184z" />
<glyph horiz-adv-x="403" d="M15 393q0 36 21 64.5t64 39.5q-34 12 -54 37t-20 55q0 57 48.5 88.5t127.5 31.5q78 0 126.5 -31t48.5 -89q0 -30 -20 -55t-54 -37q43 -11 64 -39.5t21 -64.5q0 -60 -50 -91t-136 -31t-136.5 31t-50.5 91zM141 404q0 -47 61 -47t61 47q0 46 -61 46t-61 -46zM151 578 q0 -44 51 -44t51 44t-51 44t-51 -44z" />
<glyph horiz-adv-x="391" d="M12 566q0 64 50.5 103.5t123.5 39.5q89 0 139.5 -53t50.5 -147q0 -114 -52 -176t-136 -62q-71 0 -115.5 31t-50.5 88h127q9 -33 39 -33q27 0 40.5 25t16.5 80q-37 -34 -90 -34q-69 0 -106 35.5t-37 102.5zM137 566q0 -55 52 -55q31 0 57 18q-2 47 -15 70t-45 23 q-49 0 -49 -56z" />
<glyph horiz-adv-x="439" d="M22 210q0 99 54 159t143 60t143 -59.5t54 -159.5t-54 -159.5t-143 -59.5t-143 60t-54 159zM153 210q0 -127 66 -127q67 0 67 127t-67 127q-66 0 -66 -127z" />
<glyph horiz-adv-x="272" d="M12 260v106l106 54h127v-420h-127v314z" />
<glyph horiz-adv-x="383" d="M22 289q4 68 51.5 104t123.5 36q78 0 122.5 -34.5t44.5 -96.5q0 -51 -32 -88t-132 -116h168v-94h-333v94q22 17 52.5 40.5t46 36t36.5 30t31 28t20.5 23.5t14.5 24t4 22q0 44 -43 44q-45 0 -49 -53h-126z" />
<glyph horiz-adv-x="402" d="M22 118h126q5 -41 55 -41q26 0 39.5 12.5t13.5 31.5q0 47 -76 47h-48v89h48q66 0 66 47q0 38 -43 38q-44 0 -49 -40h-126q5 60 52 93.5t123 33.5q74 0 120.5 -31.5t46.5 -88.5q0 -29 -19 -54.5t-55 -36.5q84 -18 84 -98q0 -58 -51 -93.5t-126 -35.5q-83 0 -130 32.5 t-51 94.5z" />
<glyph horiz-adv-x="382" d="M12 57v95l120 268h120l-123 -268h72v82h115v-82h56v-95h-56v-57h-115v57h-189z" />
<glyph horiz-adv-x="379" d="M22 115h126q5 -38 47 -38q47 0 47 62t-50 62q-32 0 -56 -24h-102v243h303v-95h-201v-74q38 33 93 33q63 0 100 -37.5t37 -107.5q0 -68 -50 -108t-121 -40q-78 0 -123.5 31.5t-49.5 92.5z" />
<glyph horiz-adv-x="391" d="M15 190q0 114 52 176.5t136 62.5q71 0 115 -30.5t50 -85.5h-127q-9 29 -38 29q-26 0 -39.5 -24.5t-17.5 -79.5q37 34 91 34q69 0 105.5 -35.5t36.5 -102.5q0 -64 -50.5 -103.5t-123.5 -39.5q-89 0 -139.5 52.5t-50.5 146.5zM145 171q2 -47 15 -70.5t45 -23.5q49 0 49 57 q0 55 -52 55q-31 0 -57 -18z" />
<glyph horiz-adv-x="327" d="M12 325v95h302v-95l-148 -325h-121l151 325h-184z" />
<glyph horiz-adv-x="403" d="M15 113q0 36 21 64.5t64 39.5q-34 12 -54 37t-20 55q0 57 48.5 88.5t127.5 31.5q78 0 126.5 -31t48.5 -89q0 -30 -20 -55t-54 -37q43 -11 64 -39.5t21 -64.5q0 -60 -50 -91t-136 -31t-136.5 31t-50.5 91zM141 124q0 -47 61 -47t61 47q0 46 -61 46t-61 -46zM151 298 q0 -44 51 -44t51 44t-51 44t-51 -44z" />
<glyph horiz-adv-x="391" d="M12 286q0 64 50.5 103.5t123.5 39.5q89 0 139.5 -53t50.5 -147q0 -114 -52 -176t-136 -62q-71 0 -115.5 31t-50.5 88h127q9 -33 39 -33q27 0 40.5 25t16.5 80q-37 -34 -90 -34q-69 0 -106 35.5t-37 102.5zM137 286q0 -55 52 -55q31 0 57 18q-2 47 -15 70t-45 23 q-49 0 -49 -56z" />
<glyph horiz-adv-x="778" d="M50 113l253 253l-253 253l85 86l253 -254l254 254l86 -85l-254 -254l254 -254l-86 -86l-254 254l-253 -253z" />
<glyph horiz-adv-x="1000" d="M40 306v121h920v-121h-920z" />
<glyph horiz-adv-x="500" d="M40 306v121h420v-121h-420z" />
<glyph horiz-adv-x="347" d="M50 306v121h247v-121h-247z" />
<glyph horiz-adv-x="340" d="M50 299v137l240 185v-161l-118 -88l118 -88v-170z" />
<glyph horiz-adv-x="340" d="M50 114v162l117 88l-117 88v169l240 -185v-137z" />
<glyph horiz-adv-x="595" d="M50 299v137l240 185v-161l-118 -88l118 -88v-170zM305 299v137l240 185v-161l-118 -88l118 -88v-170z" />
<glyph horiz-adv-x="595" d="M50 114v162l117 88l-117 88v169l240 -185v-137zM305 114v162l117 88l-117 88v169l240 -185v-137z" />
<glyph horiz-adv-x="560" d="M40 179q0 39 12 69.5t30 48t40 33.5t41.5 26.5t35 26.5t20.5 34t-3 50h154q10 -48 1.5 -82t-27 -52t-43.5 -34.5t-47 -29t-37 -35.5t-15 -55q0 -37 19.5 -57t57.5 -20q77 0 85 90h164q-7 -100 -72.5 -153.5t-176.5 -53.5t-175 50.5t-64 143.5zM200 625q0 40 24.5 65 t64.5 25t65 -25t25 -65t-25 -64.5t-65 -24.5t-64.5 24.5t-24.5 64.5z" />
<glyph horiz-adv-x="320" d="M70 625q0 40 25 65t65 25t64.5 -25t24.5 -65t-24.5 -64.5t-64.5 -24.5t-65 24.5t-25 64.5zM74 0l24 467h124l25 -467h-173z" />
<glyph horiz-adv-x="1082" d="M60 263q0 230 160.5 381t412.5 151q165 0 273 -95t108 -251q0 -94 -29.5 -170t-77 -121t-101.5 -69t-108 -24q-103 0 -124 73q-44 -41 -81 -57.5t-81 -16.5q-66 0 -105 58t-39 152q0 148 79 248t186 100q64 0 105 -61l7 42h155l-68 -382q-9 -55 29 -55q47 0 88.5 81.5 t41.5 190.5q0 123 -71 192t-205 69q-86 0 -164 -28.5t-137.5 -81t-94.5 -133t-35 -177.5q0 -170 90 -248t244 -78q56 0 131.5 13t117.5 29l-16 -95q-46 -17 -121 -30t-143 -13q-82 0 -157 25.5t-136 74t-97.5 128t-36.5 178.5zM426 288q0 -53 17.5 -83t47.5 -30q44 0 84 35 v-1l48 269q-25 34 -63 34q-58 0 -96 -65t-38 -159z" />
<glyph horiz-adv-x="838" d="M50 227v109h738v-109h-738z" />
<glyph horiz-adv-x="437" d="M50 227v109h337v-109h-337z" />
<glyph horiz-adv-x="302" d="M50 227v109h202v-109h-202z" />
<glyph horiz-adv-x="480" d="M32 394q6 76 62.5 119.5t146.5 43.5q89 0 144 -41t55 -112q0 -39 -17.5 -67t-41.5 -42.5t-46.5 -27.5t-33.5 -32t-2 -47h-141q-8 37 -1 63t22 39t34.5 24.5t37.5 20.5t30 26.5t12 42.5q0 48 -52 48q-54 0 -60 -58h-149zM152 64q0 35 21.5 57t57.5 22t57.5 -22t21.5 -57 t-21.5 -57t-57.5 -22t-57.5 22t-21.5 57z" />
<glyph horiz-adv-x="480" d="M40 138q0 39 17.5 67t41.5 42.5t46.5 27.5t33.5 32t2 47h141q8 -37 1 -63t-22 -39t-34.5 -25t-37.5 -21t-30 -26.5t-12 -41.5q0 -48 52 -48q55 0 60 58h149q-5 -77 -62 -120t-147 -43q-89 0 -144 41t-55 112zM170 478q0 35 21.5 57t57.5 22t58 -22t22 -57t-22 -57 t-58 -22t-57.5 22t-21.5 57z" />
<glyph horiz-adv-x="301" d="M71 64q0 35 21.5 57t57.5 22t57.5 -22t21.5 -57t-21.5 -57t-57.5 -22t-57.5 22t-21.5 57zM72 543h156l-19 -355h-118z" />
<glyph horiz-adv-x="301" d="M71 479q0 35 21.5 57t57.5 22t57.5 -22t21.5 -57t-21.5 -57t-57.5 -22t-57.5 22t-21.5 57zM72 0l19 355h118l19 -355h-156z" />
<glyph horiz-adv-x="362" d="M50 430q0 55 37.5 91t93.5 36t93.5 -36t37.5 -91t-37.5 -91t-93.5 -36t-93.5 36t-37.5 91zM133 430q0 -21 13.5 -35t34.5 -14t34.5 14t13.5 35t-13.5 35t-34.5 14t-34.5 -14t-13.5 -35z" />
<glyph horiz-adv-x="228" d="M50 543h128l-14 -223h-100z" />
<glyph horiz-adv-x="391" d="M50 543h128l-14 -223h-100zM213 543h128l-14 -223h-100z" />
<glyph horiz-adv-x="245" d="M23 456l62 211h140l-87 -211h-115z" />
<glyph horiz-adv-x="422" d="M23 456l62 211h140l-87 -211h-115zM203 456l62 211h140l-87 -211h-115z" />
<glyph horiz-adv-x="245" d="M23 456l87 211h115l-62 -211h-140z" />
<glyph horiz-adv-x="422" d="M23 456l87 211h115l-62 -211h-140zM203 456l87 211h115l-62 -211h-140z" />
<glyph horiz-adv-x="483" d="M50 226v110h136v133h110v-133h137v-110h-137v-134h-110v134h-136z" />
<glyph horiz-adv-x="483" d="M50 226v110h383v-110h-383z" />
<glyph horiz-adv-x="480" d="M50 136v110h383v-110h-383zM50 316v110h383v-110h-383z" />
<glyph horiz-adv-x="352" d="M60 271q0 119 48 212.5t116 155.5h140q-66 -64 -105.5 -165t-39.5 -203t39.5 -203t105.5 -165h-140q-69 63 -116.5 156t-47.5 212z" />
<glyph horiz-adv-x="352" d="M-13 -97q66 64 105.5 165t39.5 203t-39.5 203t-105.5 165h141q68 -62 116 -155.5t48 -212.5t-47.5 -212t-116.5 -156h-141z" />
<glyph horiz-adv-x="364" d="M120 -97v736h224v-96h-72v-544h72v-96h-224z" />
<glyph horiz-adv-x="364" d="M20 -1h72v544h-72v96h224v-736h-224v96z" />
<glyph horiz-adv-x="354" d="M30 221v101q42 0 61 11.5t19 43.5v103q0 80 56 119.5t147 39.5h21v-96h-18q-54 0 -54 -58v-102q0 -43 -21.5 -73t-54.5 -39q33 -9 54.5 -39.5t21.5 -72.5v-102q0 -58 54 -58h18v-96h-21q-91 0 -147 39.5t-56 119.5v104q0 32 -19 43.5t-61 11.5z" />
<glyph horiz-adv-x="354" d="M20 -1h18q54 0 54 58v102q0 42 21.5 72.5t54.5 39.5q-33 9 -54.5 39t-21.5 73v102q0 58 -54 58h-18v96h21q91 0 147 -39.5t56 -119.5v-103q0 -32 19 -43.5t61 -11.5v-101q-42 0 -61 -11.5t-19 -43.5v-104q0 -80 -56 -119.5t-147 -39.5h-21v96z" />
<glyph horiz-adv-x="442" d="M20 -31l252 605h150l-252 -605h-150z" />
<glyph horiz-adv-x="442" d="M20 574h150l252 -605h-150z" />
<glyph horiz-adv-x="606" d="M37 150q0 43 23.5 79.5t65.5 60.5q-48 57 -48 110q0 68 55 112.5t138 44.5q93 0 145.5 -41t59.5 -120h-149q-4 30 -17.5 43t-38.5 13q-20 0 -33 -11.5t-13 -31.5q0 -35 47 -82l120 -117q9 39 9 84h141q0 -94 -56 -175l122 -119h-188l-29 28q-68 -43 -150 -43 q-89 0 -146.5 43.5t-57.5 121.5zM172 162q0 -36 26.5 -54.5t63.5 -18.5q31 0 55 12l-122 119q-23 -23 -23 -58z" />
<glyph horiz-adv-x="894" d="M40 369l373 373l86 -85l-228 -228h583v-120h-583l228 -227l-86 -86z" />
<glyph horiz-adv-x="894" d="M40 309v120h583l-227 228l85 85l373 -373l-373 -373l-85 86l226 227h-582z" />
<glyph horiz-adv-x="826" d="M40 403l373 373l373 -373l-86 -86l-227 227v-583h-120v584l-228 -228z" />
<glyph horiz-adv-x="826" d="M40 335l85 85l228 -228v584h120v-583l227 227l86 -85l-373 -374z" />
<glyph horiz-adv-x="738" d="M80 131v529h527v-122h-322l413 -412l-85 -85l-413 413v-323h-120z" />
<glyph horiz-adv-x="738" d="M40 126l412 412h-322v122h528v-529h-120v323l-413 -413z" />
<glyph horiz-adv-x="738" d="M40 574l85 86l413 -414v323h120v-528h-528v121h322z" />
<glyph horiz-adv-x="738" d="M80 41v528h120v-323l413 414l85 -86l-413 -412h322v-121h-527z" />
<glyph horiz-adv-x="1704" d="M40 369l373 373l86 -85l-228 -228h1393v-120h-1393l228 -227l-86 -86z" />
<glyph horiz-adv-x="1704" d="M40 309v120h1393l-228 228l86 85l373 -373l-373 -373l-86 86l227 227h-1392z" />
<glyph horiz-adv-x="232" d="M50 568v235h132l-28 -235h-104z" />
<glyph horiz-adv-x="424" d="M50 750l132 145h192l-199 -145h-125z" />
<glyph horiz-adv-x="457" d="M50 895h103q0 -51 76 -51q75 0 75 51h103q0 -77 -52.5 -117t-125.5 -40t-126 40t-53 117z" />
<glyph horiz-adv-x="553" d="M50 895h140l86 -60l87 60h140l-151 -145h-151z" />
<glyph horiz-adv-x="553" d="M50 750l151 145h151l151 -145h-140l-87 60l-86 -60h-140z" />
<glyph horiz-adv-x="496" d="M50 833q0 36 24 58.5t61 22.5q38 0 61.5 -22.5t23.5 -58.5t-23.5 -58.5t-61.5 -22.5q-37 0 -61 22.5t-24 58.5zM275 833q0 36 24 58.5t62 22.5q36 0 60.5 -22.5t24.5 -58.5t-24.5 -58.5t-60.5 -22.5q-38 0 -62 22.5t-24 58.5z" />
<glyph horiz-adv-x="279" d="M50 832q0 38 25.5 61.5t64.5 23.5t64 -23.5t25 -61.5q0 -37 -25.5 -61t-63.5 -24q-39 0 -64.5 24t-25.5 61z" />
<glyph horiz-adv-x="424" d="M50 895h192l132 -145h-125z" />
<glyph horiz-adv-x="595" d="M50 750l104 145h176l-164 -145h-116zM264 750l105 145h176l-164 -145h-117z" />
<glyph horiz-adv-x="447" d="M50 779v102h347v-102h-347z" />
<glyph horiz-adv-x="362" d="M50 823q0 46 37.5 75.5t93.5 29.5t93.5 -29t37.5 -76t-37.5 -76t-93.5 -29t-93.5 29.5t-37.5 75.5zM150 835q-13 -28 19 -42q30 -13 44 18q5 13 -0.5 24.5t-19.5 17.5t-26 0.5t-17 -18.5z" />
<glyph horiz-adv-x="516" d="M50 792q19 54 53 83t73 29q33 0 89 -20.5t69 -20.5q33 0 50 39l82 -37q-18 -54 -52 -83.5t-73 -29.5q-33 0 -90 21t-70 21q-31 0 -49 -39z" />
<glyph horiz-adv-x="374" d="M50 581l106 113h168l-159 -113h-115z" />
<glyph horiz-adv-x="406" d="M50 694h97q0 -34 56 -34q54 0 54 34h99q0 -60 -44.5 -90t-108.5 -30q-65 0 -109 30t-44 90z" />
<glyph horiz-adv-x="473" d="M50 694h122l64 -37l64 37h123l-126 -113h-121z" />
<glyph horiz-adv-x="473" d="M50 581l126 113h121l126 -113h-123l-64 37l-64 -37h-122z" />
<glyph horiz-adv-x="427" d="M50 646q0 28 21 47t51 19q31 0 52 -19t21 -47q0 -29 -21 -47t-52 -18t-51.5 18t-20.5 47zM233 646q0 28 21 47t51 19q31 0 51.5 -19t20.5 -47q0 -29 -20.5 -47t-51.5 -18t-51.5 18t-20.5 47z" />
<glyph horiz-adv-x="249" d="M50 645q0 30 21.5 49t53.5 19q31 0 52.5 -19t21.5 -49t-21.5 -48.5t-52.5 -18.5q-32 0 -53.5 18.5t-21.5 48.5z" />
<glyph horiz-adv-x="374" d="M50 694h169l105 -113h-115z" />
<glyph horiz-adv-x="526" d="M50 581l84 113h155l-131 -113h-108zM237 581l83 113h156l-131 -113h-108z" />
<glyph horiz-adv-x="378" d="M50 594v90h278v-90h-278z" />
<glyph horiz-adv-x="317" d="M50 639q0 36 30 58t78 22q49 0 79 -22t30 -58q0 -37 -30 -59t-79 -22q-48 0 -78 22t-30 59zM127 639q0 -13 8.5 -20.5t22.5 -7.5q31 0 31 28q0 12 -8.5 20t-22.5 8q-13 0 -22 -8t-9 -20z" />
<glyph horiz-adv-x="447" d="M50 615q31 89 103 89q25 0 71 -14t61 -14q20 0 36 26l76 -34q-31 -89 -103 -89q-25 0 -71.5 14t-61.5 14q-19 0 -35 -26z" />
</font>
</defs>
</svg>
