<?xml version="1.0" standalone="no"?>
<!DOCTYPE svg PUBLIC "-//W3C//DTD SVG 1.1//EN" "http://www.w3.org/Graphics/SVG/1.1/DTD/svg11.dtd" >
<svg xmlns="http://www.w3.org/2000/svg">
<metadata></metadata>
<defs>
<font id="vegan-sans-black" horiz-adv-x="600" >
<font-face units-per-em="1000" ascent="800" descent="-200" />
<missing-glyph horiz-adv-x="300" />
<glyph unicode="fb" horiz-adv-x="1004" d="M20 406v120h80v10q0 111 83 167t212 56q61 0 129 -11t106 -27v-238q35 33 66.5 48t73.5 15q94 0 144 -80t50 -201q0 -116 -58.5 -198.5t-149.5 -82.5q-76 0 -126 62v-46h-180v638q-26 6 -55 6q-115 0 -115 -107v-11h100v-120h-100v-406h-180v406h-80zM630 135 q34 -26 64 -26q46 0 68 42.5t22 113.5q0 156 -85 156q-34 0 -69 -27v-259z" />
<glyph unicode="ff" horiz-adv-x="780" d="M20 406v120h80v40q0 97 54.5 145t142.5 48q72 0 113 -19v-105q-29 7 -65 7q-65 0 -65 -75v-41h170v40q0 97 54.5 145t142.5 48q72 0 113 -19v-105q-29 7 -65 7q-65 0 -65 -75v-41h130v-120h-130v-406h-180v406h-170v-406h-180v406h-80z" />
<glyph unicode="fh" horiz-adv-x="1019" d="M20 406v120h80v10q0 111 83 167t212 56q61 0 129 -11t106 -27v-260q83 85 183 85q63 0 104.5 -39t41.5 -135v-372h-180v342q0 63 -67 63q-44 0 -82 -33v-372h-180v638q-26 6 -55 6q-115 0 -115 -107v-11h100v-120h-100v-406h-180v406h-80z" />
<glyph unicode="fi" horiz-adv-x="690" d="M20 406v120h80v40q0 97 54.5 145t142.5 48q62 0 103 -19v-105q-29 7 -55 7q-65 0 -65 -75v-41h350v-526h-180v406h-170v-406h-180v406h-80zM440 667q0 43 28 71.5t72 28.5t72 -28.5t28 -71.5t-28 -71.5t-72 -28.5t-72 28.5t-28 71.5z" />
<glyph unicode="fj" horiz-adv-x="690" d="M20 406v120h80v40q0 97 54.5 145t142.5 48q62 0 103 -19v-105q-29 7 -55 7q-65 0 -65 -75v-41h350v-734h-180v614h-170v-406h-180v406h-80zM440 667q0 43 28 71.5t72 28.5t72 -28.5t28 -71.5t-28 -71.5t-72 -28.5t-72 28.5t-28 71.5z" />
<glyph unicode="fk" horiz-adv-x="985" d="M20 406v120h80v10q0 111 83 167t212 56q61 0 129 -11t106 -27v-416l149 221h172l-163 -227l177 -299h-203l-132 239v-239h-180v638q-26 6 -55 6q-115 0 -115 -107v-11h100v-120h-100v-406h-180v406h-80z" />
<glyph unicode="fl" horiz-adv-x="690" d="M20 406v120h80v10q0 111 83 167t212 56q61 0 129 -11t106 -27v-721h-180v638q-26 6 -55 6q-115 0 -115 -107v-11h100v-120h-100v-406h-180v406h-80z" />
<glyph unicode="ft" horiz-adv-x="790" d="M20 406v120h80v40q0 97 54.5 145t142.5 48q72 0 113 -19v-105q-29 7 -65 7q-65 0 -65 -75v-41h170v134h180v-134h120v-120h-120v-219q0 -85 60 -85q18 0 60 10v-105q-64 -22 -123 -22q-177 0 -177 179v242h-170v-406h-180v406h-80z" />
<glyph unicode="ffb" horiz-adv-x="1354" d="M20 406v120h80v40q0 97 54.5 145t142.5 48q72 0 113 -19v-105q-29 7 -65 7q-65 0 -65 -75v-41h170v10q0 111 83 167t212 56q61 0 129 -11t106 -27v-238q35 33 66.5 48t73.5 15q94 0 144 -80t50 -201q0 -116 -58.5 -198.5t-149.5 -82.5q-76 0 -126 62v-46h-180v638 q-26 6 -55 6q-115 0 -115 -107v-11h100v-120h-100v-406h-180v406h-170v-406h-180v406h-80zM980 135q34 -26 64 -26q46 0 68 42.5t22 113.5q0 156 -85 156q-34 0 -69 -27v-259z" />
<glyph unicode="ffh" horiz-adv-x="1369" d="M20 406v120h80v40q0 97 54.5 145t142.5 48q72 0 113 -19v-105q-29 7 -65 7q-65 0 -65 -75v-41h170v10q0 111 83 167t212 56q61 0 129 -11t106 -27v-260q83 85 183 85q63 0 104.5 -39t41.5 -135v-372h-180v342q0 63 -67 63q-44 0 -82 -33v-372h-180v638q-26 6 -55 6 q-115 0 -115 -107v-11h100v-120h-100v-406h-180v406h-170v-406h-180v406h-80z" />
<glyph unicode="ffi" horiz-adv-x="1040" d="M20 406v120h80v40q0 97 54.5 145t142.5 48q72 0 113 -19v-105q-29 7 -65 7q-65 0 -65 -75v-41h170v40q0 97 54.5 145t142.5 48q62 0 103 -19v-105q-29 7 -55 7q-65 0 -65 -75v-41h350v-526h-180v406h-170v-406h-180v406h-170v-406h-180v406h-80zM790 667q0 43 28 71.5 t72 28.5t72 -28.5t28 -71.5t-28 -71.5t-72 -28.5t-72 28.5t-28 71.5z" />
<glyph unicode="ffj" horiz-adv-x="1040" d="M20 406v120h80v40q0 97 54.5 145t142.5 48q72 0 113 -19v-105q-29 7 -65 7q-65 0 -65 -75v-41h170v40q0 97 54.5 145t142.5 48q62 0 103 -19v-105q-29 7 -55 7q-65 0 -65 -75v-41h350v-734h-180v614h-170v-406h-180v406h-170v-406h-180v406h-80zM790 667q0 43 28 71.5 t72 28.5t72 -28.5t28 -71.5t-28 -71.5t-72 -28.5t-72 28.5t-28 71.5z" />
<glyph unicode="ffk" horiz-adv-x="1335" d="M20 406v120h80v40q0 97 54.5 145t142.5 48q72 0 113 -19v-105q-29 7 -65 7q-65 0 -65 -75v-41h170v10q0 111 83 167t212 56q61 0 129 -11t106 -27v-416l149 221h172l-163 -227l177 -299h-203l-132 239v-239h-180v638q-26 6 -55 6q-115 0 -115 -107v-11h100v-120h-100 v-406h-180v406h-170v-406h-180v406h-80z" />
<glyph unicode="ffl" horiz-adv-x="1160" d="M20 406v120h80v40q0 97 54.5 145t142.5 48q72 0 113 -19v-105q-29 7 -65 7q-65 0 -65 -75v-41h170v10q0 111 83 167t212 56q61 0 129 -11t106 -27v-721h-180v638q-26 6 -55 6q-115 0 -115 -107v-11h100v-120h-100v-406h-180v406h-170v-406h-180v406h-80z" />
<glyph unicode="fft" horiz-adv-x="1140" d="M20 406v120h80v40q0 97 54.5 145t142.5 48q72 0 113 -19v-105q-29 7 -65 7q-65 0 -65 -75v-41h170v40q0 97 54.5 145t142.5 48q72 0 113 -19v-105q-29 7 -65 7q-65 0 -65 -75v-41h170v134h180v-134h120v-120h-120v-219q0 -85 60 -85q18 0 60 10v-105q-64 -22 -123 -22 q-177 0 -177 179v242h-170v-406h-180v406h-170v-406h-180v406h-80z" />
<glyph unicode="tt" horiz-adv-x="810" d="M20 406v120h80v134h180v-134h190v134h180v-134h120v-120h-120v-219q0 -85 60 -85q18 0 60 10v-105q-64 -22 -123 -22q-177 0 -177 179v242h-190v-219q0 -85 60 -85q18 0 60 10v-105q-64 -22 -123 -22q-177 0 -177 179v242h-80z" />
<glyph unicode="&#xd;" horiz-adv-x="0" />
<glyph unicode=" "  horiz-adv-x="300" />
<glyph unicode="&#x09;" horiz-adv-x="300" />
<glyph unicode="&#xa0;" horiz-adv-x="300" />
<glyph unicode="!" horiz-adv-x="320" d="M60 85q0 44 27.5 71.5t72.5 27.5t72 -27.5t27 -71.5q0 -45 -27 -72.5t-72 -27.5t-72.5 28t-27.5 72zM61 700h199l-27 -458h-145z" />
<glyph unicode="&#x22;" horiz-adv-x="440" d="M50 700h150l-19 -300h-112zM240 700h150l-19 -300h-112z" />
<glyph unicode="#" horiz-adv-x="699" d="M20 177v139h103l23 90h-76v139h112l40 155h165l-40 -155h100l40 155h165l-40 -155h67v-139h-103l-23 -90h76v-139h-111l-46 -177h-165l46 177h-100l-46 -177h-165l46 177h-68zM288 316h100l23 90h-100z" />
<glyph unicode="$" horiz-adv-x="645" d="M40 218h188q7 -99 106 -99q42 0 68.5 18t26.5 53q0 15 -4 26.5t-14 20t-19 14.5t-26.5 11t-29 7.5t-34.5 6.5t-35 7q-49 11 -80.5 22t-68 34t-55 62.5t-18.5 94.5q0 84 52.5 140t141.5 73v111h170v-114q169 -35 185 -216h-188q-7 91 -97 91q-40 0 -64 -17.5t-24 -51.5 q0 -15 4 -27t14 -20.5t18.5 -14.5t27 -11t29 -7.5t35 -7.5t34.5 -7q31 -7 46 -10.5t43 -12.5t43 -18t35 -24.5t30 -33.5t17.5 -45t7.5 -59q0 -81 -55 -140.5t-141 -79.5v-114h-170v113q-190 34 -199 225z" />
<glyph unicode="%" horiz-adv-x="1082" d="M50 490q0 100 55 159.5t147 59.5t147 -59.5t55 -159.5t-55 -159.5t-147 -59.5t-147 59.5t-55 159.5zM198 490q0 -56 11.5 -86t42.5 -30t42.5 30t11.5 86t-11.5 86t-42.5 30t-42.5 -30t-11.5 -86zM217 0l475 700h173l-475 -700h-173zM628 210q0 100 55 159.5t147 59.5 t147 -59.5t55 -159.5t-55 -159.5t-147 -59.5t-147 59.5t-55 159.5zM776 210q0 -56 11.5 -86t42.5 -30t42.5 30t11.5 86t-11.5 86t-42.5 30t-42.5 -30t-11.5 -86z" />
<glyph unicode="&#x26;" horiz-adv-x="722" d="M30 198q0 56 27.5 102.5t78.5 74.5q-59 70 -59 135q0 93 64.5 149t172.5 56q126 0 189 -47.5t74 -147.5h-188q-6 61 -75 61q-26 0 -43.5 -14t-17.5 -41q0 -22 11.5 -40t46.5 -55l156 -159q14 54 14 113h178q0 -127 -72 -237l145 -148h-234l-31 31q-76 -46 -166 -46 q-112 0 -191.5 55.5t-79.5 157.5zM196 214q0 -44 33 -69.5t82 -25.5q30 0 58 13l-145 148q-28 -26 -28 -66z" />
<glyph unicode="'" horiz-adv-x="250" d="M50 700h150l-19 -300h-112z" />
<glyph unicode="(" horiz-adv-x="416" d="M60 350q0 154 60.5 272.5t146.5 202.5h169q-83 -83 -132 -213t-49 -262t49 -262t132 -213h-169q-86 84 -146.5 202.5t-60.5 272.5z" />
<glyph unicode=")" horiz-adv-x="416" d="M-20 -125q83 83 132 213t49 262t-49 262t-132 213h169q86 -84 146.5 -202.5t60.5 -272.5t-60.5 -272.5t-146.5 -202.5h-169z" />
<glyph unicode="*" horiz-adv-x="519" d="M50 484l123 38l-123 38l72 123l94 -87l-28 124h143l-27 -123l93 86l72 -123l-123 -38l123 -38l-72 -123l-93 85l27 -122h-143l28 123l-94 -86z" />
<glyph unicode="+" horiz-adv-x="580" d="M50 297v139h170v170h139v-170h171v-139h-171v-171h-139v171h-170z" />
<glyph unicode="," horiz-adv-x="217" d="M10 -160l20 330h167l-49 -330h-138z" />
<glyph unicode="-" horiz-adv-x="350" d="M50 207v139h250v-139h-250z" />
<glyph unicode="." horiz-adv-x="239" d="M20 85q0 44 27.5 71.5t72.5 27.5t72 -27.5t27 -71.5q0 -45 -27 -72.5t-72 -27.5t-72.5 28t-27.5 72z" />
<glyph unicode="/" horiz-adv-x="538" d="M20 -40l315 780h183l-315 -780h-183z" />
<glyph unicode="0" horiz-adv-x="664" d="M40 350q0 165 80 265t212 100t212 -100t80 -265t-80 -265t-212 -100t-212 100t-80 265zM230 350q0 -226 102 -226t102 226t-102 226t-102 -226z" />
<glyph unicode="1" horiz-adv-x="450" d="M30 451v159l165 90h185v-700h-185v541z" />
<glyph unicode="2" horiz-adv-x="591" d="M40 480q7 117 75.5 176t189.5 59q116 0 183.5 -54.5t67.5 -154.5q0 -44 -14.5 -83.5t-52 -85.5t-79 -87t-119.5 -111h270v-139h-499v139q22 20 62.5 56.5t58 52.5t48 44.5t43.5 42.5t33 36.5t28.5 36.5t18 32t13 33.5t3.5 32.5q0 75 -65 75q-38 0 -56.5 -24.5 t-20.5 -76.5h-188z" />
<glyph unicode="3" horiz-adv-x="606" d="M30 200h188q5 -81 83 -81q41 0 60.5 23t19.5 60q0 79 -120 79h-70v139h70q53 0 79.5 26.5t26.5 64.5q0 70 -64 70q-70 0 -75 -81h-188q8 104 76 159.5t187 55.5q114 0 181.5 -52.5t67.5 -151.5q0 -44 -28.5 -86.5t-73.5 -63.5q59 -18 87.5 -61.5t28.5 -97.5 q0 -101 -73 -159t-192 -58q-256 0 -271 215z" />
<glyph unicode="4" horiz-adv-x="601" d="M50 101v139l175 460h170l-180 -460h121v150h165v-150h80v-139h-80v-101h-165v101h-286z" />
<glyph unicode="5" horiz-adv-x="596" d="M40 200h188q2 -41 18.5 -61t54.5 -20q37 0 53 33.5t16 82.5q0 101 -77 101q-40 0 -75 -33h-159v397h452v-139h-293v-159q20 28 61 49.5t82 21.5q95 0 145 -60.5t50 -177.5q0 -115 -71.5 -182.5t-183.5 -67.5q-246 0 -261 215z" />
<glyph unicode="6" horiz-adv-x="620" d="M40 320q0 190 77 292.5t203 102.5q104 0 169 -49.5t75 -147.5h-188q-4 34 -16.5 48.5t-39.5 14.5q-46 0 -66 -50t-23 -154q27 33 69 54.5t82 21.5q95 0 146.5 -59.5t51.5 -168.5q0 -108 -73.5 -174t-184.5 -66q-132 0 -207 88.5t-75 246.5zM231 286q2 -81 23 -124t68 -43 q36 0 54 32.5t18 73.5q0 36 -17.5 63.5t-62.5 27.5q-48 0 -83 -30z" />
<glyph unicode="7" horiz-adv-x="509" d="M30 561v139h449v-139l-220 -561h-175l225 561h-279z" />
<glyph unicode="8" horiz-adv-x="630" d="M40 190q0 57 30 104.5t96 66.5q-52 20 -81 62t-29 88q0 100 71.5 152t187.5 52t187.5 -52t71.5 -152q0 -46 -29 -88t-81 -62q66 -19 96 -66.5t30 -104.5q0 -100 -73.5 -152.5t-201.5 -52.5t-201.5 52.5t-73.5 152.5zM220 200q0 -36 25 -58.5t70 -22.5t70 22.5t25 58.5 t-25 58.5t-70 22.5t-70 -22.5t-25 -58.5zM233 501q0 -39 22.5 -59.5t59.5 -20.5t59.5 20.5t22.5 59.5t-22.5 59.5t-59.5 20.5t-59.5 -20.5t-22.5 -59.5z" />
<glyph unicode="9" horiz-adv-x="620" d="M40 475q0 111 73 175.5t186 64.5q132 0 206.5 -88.5t74.5 -246.5q0 -190 -77 -292.5t-203 -102.5q-112 0 -179.5 52t-74.5 155h188q8 -73 66 -73q49 0 68.5 51.5t21.5 163.5q-28 -34 -69.5 -55.5t-82.5 -21.5q-96 0 -147 55t-51 163zM222 475q0 -33 19.5 -57t64.5 -24 q46 0 83 30q-3 77 -23.5 117t-66.5 40q-39 0 -58 -29.5t-19 -76.5z" />
<glyph unicode=":" horiz-adv-x="239" d="M20 85q0 44 27.5 71.5t72.5 27.5t72 -27.5t27 -71.5q0 -45 -27 -72.5t-72 -27.5t-72.5 28t-27.5 72zM20 432q0 44 27.5 71.5t72.5 27.5t72 -27.5t27 -71.5q0 -45 -27 -72.5t-72 -27.5t-72.5 28t-27.5 72z" />
<glyph unicode=";" horiz-adv-x="239" d="M20 -160l20 330h167l-49 -330h-138zM20 432q0 44 27.5 71.5t72.5 27.5t72 -27.5t27 -71.5q0 -45 -27 -72.5t-72 -27.5t-72.5 28t-27.5 72z" />
<glyph unicode="&#x3c;" horiz-adv-x="580" d="M50 297v139l480 190v-134l-305 -121l305 -120v-144z" />
<glyph unicode="=" horiz-adv-x="580" d="M50 187v139h480v-139h-480zM50 407v139h480v-139h-480z" />
<glyph unicode="&#x3e;" horiz-adv-x="580" d="M50 107v134l305 121l-305 120v144l480 -190v-139z" />
<glyph unicode="?" horiz-adv-x="576" d="M30 504q7 103 74.5 157t183.5 54q115 0 181.5 -52t66.5 -147q0 -39 -12 -69t-30 -46.5t-40 -31.5t-41.5 -24t-35 -24.5t-20.5 -32t3 -46.5h-176q-11 56 2 93.5t39.5 56t54.5 33t49 36.5t21 55q0 65 -62 65q-65 0 -70 -77h-188zM177 85q0 44 27.5 71.5t72.5 27.5t72 -27.5 t27 -71.5q0 -45 -27 -72.5t-72 -27.5t-72.5 28t-27.5 72z" />
<glyph unicode="@" horiz-adv-x="1092" d="M60 183q0 230 163 381t415 151q168 0 276 -94.5t108 -251.5q0 -94 -30 -170t-78.5 -121.5t-104.5 -69t-112 -23.5q-44 0 -82 17t-51 55q-45 -41 -80.5 -57t-77.5 -16q-69 0 -105.5 59.5t-36.5 151.5q0 142 76.5 246.5t183.5 104.5q62 0 101 -61l7 41h180l-66 -373 q-9 -53 28 -53t74.5 78.5t37.5 179.5q0 122 -67.5 185.5t-197.5 63.5q-84 0 -160 -26.5t-135 -76.5t-94 -129t-35 -176q0 -313 328 -313q55 0 131 13t118 29l-18 -108q-46 -17 -121 -30t-143 -13q-82 0 -158 25.5t-138 74t-99 128t-37 178.5zM445 210q0 -45 14 -73t40 -28 q32 0 64 27l46 259q-19 26 -45 26q-54 0 -86.5 -64.5t-32.5 -146.5z" />
<glyph unicode="A" horiz-adv-x="685" d="M10 0l236 700h193l236 -700h-195l-40 142h-214l-41 -142h-175zM264 278h137l-8 30l-60 230l-60 -230z" />
<glyph unicode="B" horiz-adv-x="663" d="M70 0v700h252q275 0 275 -180q0 -47 -25.5 -87.5t-74.5 -56.5q126 -39 126 -166q0 -73 -41.5 -122.5t-101 -68.5t-132.5 -19h-278zM255 134h93q38 0 64 17.5t26 58.5q0 44 -26 62.5t-64 18.5h-93v-157zM255 419h67q90 0 90 76q0 71 -90 71h-67v-147z" />
<glyph unicode="C" horiz-adv-x="677" d="M40 350q0 166 86 265.5t228 99.5q132 0 210.5 -69t82.5 -206h-188q-4 69 -28.5 102.5t-76.5 33.5q-61 0 -90 -61.5t-29 -164.5q0 -226 119 -226q52 0 76.5 33.5t28.5 102.5h188q-4 -137 -82.5 -206t-210.5 -69q-159 0 -236.5 96.5t-77.5 268.5z" />
<glyph unicode="D" horiz-adv-x="724" d="M70 0v700h257q157 0 257 -94t100 -256t-100 -256t-257 -94h-257zM255 139h72q77 0 119.5 56.5t42.5 154.5t-42.5 154.5t-119.5 56.5h-72v-422z" />
<glyph unicode="E" horiz-adv-x="580" d="M70 0v700h450v-139h-265v-123h245v-139h-245v-160h265v-139h-450z" />
<glyph unicode="F" horiz-adv-x="540" d="M70 0v700h440v-139h-255v-143h235v-139h-235v-279h-185z" />
<glyph unicode="G" horiz-adv-x="702" d="M40 350q0 166 87 265.5t234 99.5q122 0 197 -62.5t84 -182.5h-188q-5 53 -26.5 79.5t-66.5 26.5q-126 0 -126 -226q0 -228 144 -228q18 0 45.5 7.5t42.5 18.5v83h-113v129h288v-360h-175v59q-25 -33 -74 -53.5t-94 -20.5q-122 0 -190.5 96t-68.5 269z" />
<glyph unicode="H" horiz-adv-x="753" d="M70 0v700h185v-262h243v262h185v-700h-185v299h-243v-299h-185z" />
<glyph unicode="I" horiz-adv-x="325" d="M70 0v700h185v-700h-185z" />
<glyph unicode="J" horiz-adv-x="614" d="M30 250h182q1 -73 21.5 -102.5t59.5 -29.5q76 0 76 99v483h185v-463q0 -128 -74.5 -190t-186.5 -62q-57 0 -101.5 12t-82 40.5t-58 82.5t-21.5 130z" />
<glyph unicode="K" horiz-adv-x="675" d="M70 0v700h185v-304l198 304h172l-206 -315l246 -385h-210l-200 332v-332h-185z" />
<glyph unicode="L" horiz-adv-x="525" d="M70 0v700h185v-561h240v-139h-425z" />
<glyph unicode="M" horiz-adv-x="851" d="M70 0v700h189l170 -397l163 397h189v-700h-170v201l4 220l-112 -289h-155l-112 279l4 -217v-194h-170z" />
<glyph unicode="N" horiz-adv-x="733" d="M70 0v700h160l267 -418l-4 217v201h170v-700h-160l-267 417l4 -217v-200h-170z" />
<glyph unicode="O" horiz-adv-x="744" d="M40 350q0 167 89.5 266t242.5 99t242.5 -99t89.5 -266t-89.5 -266t-242.5 -99t-242.5 99t-89.5 266zM235 350q0 -226 137 -226t137 226t-137 226t-137 -226z" />
<glyph unicode="P" horiz-adv-x="633" d="M70 0v700h258q112 0 193.5 -63t81.5 -182t-81.5 -182t-193.5 -63h-73v-210h-185zM255 344h73q35 0 62.5 29.5t27.5 81.5t-27.5 81.5t-62.5 29.5h-73v-222z" />
<glyph unicode="Q" horiz-adv-x="744" d="M40 350q0 167 89.5 266t242.5 99t242.5 -99t89.5 -266q0 -108 -38.5 -189.5t-110.5 -126.5l138 -185h-216l-93 136h-12q-153 0 -242.5 99t-89.5 266zM235 350q0 -226 137 -226t137 226t-137 226t-137 -226z" />
<glyph unicode="R" horiz-adv-x="644" d="M70 0v700h253q53 0 100.5 -13t87.5 -39.5t63.5 -72.5t23.5 -105q0 -143 -129 -201l165 -269h-206l-129 240h-44v-240h-185zM255 368h68q36 0 63 25.5t27 76.5q0 48 -27 72t-63 24h-68v-198z" />
<glyph unicode="S" horiz-adv-x="645" d="M40 218h188q7 -99 106 -99q42 0 68.5 18t26.5 53q0 15 -4 26.5t-14 20t-19 14.5t-26.5 11t-29 7.5t-34.5 6.5t-35 7q-49 11 -80.5 22t-68 34t-55 62.5t-18.5 94.5q0 101 73.5 160t190.5 59q134 0 204.5 -55t80.5 -170h-188q-7 91 -97 91q-40 0 -64 -17.5t-24 -51.5 q0 -15 4 -27t14 -20.5t18.5 -14.5t27 -11t29 -7.5t35 -7.5t34.5 -7q31 -7 46 -10.5t43 -12.5t43 -18t35 -24.5t30 -33.5t17.5 -45t7.5 -59q0 -100 -80 -164.5t-191 -64.5q-284 0 -294 233z" />
<glyph unicode="T" horiz-adv-x="577" d="M30 561v139h517v-139h-166v-561h-185v561h-166z" />
<glyph unicode="U" horiz-adv-x="708" d="M60 237v463h185v-443q0 -133 117 -133q57 0 86.5 29.5t29.5 83.5v463h170v-443q0 -138 -77.5 -205t-208.5 -67q-135 0 -218.5 61.5t-83.5 190.5z" />
<glyph unicode="V" horiz-adv-x="665" d="M10 700h195l77 -268l60 -230l61 230l77 268h175l-226 -700h-193z" />
<glyph unicode="W" horiz-adv-x="973" d="M10 700h193l55 -268l44 -230l46 230l59 268h179l58 -268l46 -230l44 230l56 268h173l-186 -700h-193l-50 225l-46 230l-48 -230l-51 -225h-193z" />
<glyph unicode="X" horiz-adv-x="630" d="M10 0l210 349l-205 351h195l112 -198l105 198h178l-200 -333l215 -367h-195l-121 215l-116 -215h-178z" />
<glyph unicode="Y" horiz-adv-x="621" d="M10 700h194l124 -305l124 305h159l-208 -445v-255h-185v255z" />
<glyph unicode="Z" horiz-adv-x="562" d="M40 0v139l270 422h-270v139h482v-139l-270 -422h270v-139h-482z" />
<glyph unicode="[" horiz-adv-x="415" d="M120 -125v950h275v-119h-90v-712h90v-119h-275z" />
<glyph unicode="\" horiz-adv-x="538" d="M20 740h183l315 -780h-183z" />
<glyph unicode="]" horiz-adv-x="415" d="M20 -6h90v712h-90v119h275v-950h-275v119z" />
<glyph unicode="^" horiz-adv-x="559" d="M50 300l160 400h139l160 -400h-144l-90 225l-91 -225h-134z" />
<glyph unicode="_" horiz-adv-x="500" d="M40 -15h420v-139h-420v139z" />
<glyph unicode="`" horiz-adv-x="409" d="M50 754h207l102 -168h-140z" />
<glyph unicode="a" horiz-adv-x="584" d="M30 131q0 79 63 125.5t192 46.5q27 0 59 -3v50q0 76 -64 76q-33 0 -50.5 -18t-18.5 -62h-171q5 100 70.5 147.5t169.5 47.5q34 0 65.5 -4t65 -15.5t58 -30t40 -49.5t15.5 -72v-370h-180v48q-66 -63 -155 -63q-79 0 -119 38.5t-40 107.5zM206 155q0 -52 62 -52q43 0 76 31 v77q-26 3 -51 3q-35 0 -61 -13.5t-26 -45.5z" />
<glyph unicode="b" horiz-adv-x="614" d="M60 0v744h180v-266q35 33 66.5 48t73.5 15q94 0 144 -79t50 -199q0 -116 -58.5 -197t-149.5 -81q-76 0 -126 62v-47h-180zM240 136q34 -26 64 -26q90 0 90 153t-85 153q-34 0 -69 -27v-253z" />
<glyph unicode="c" horiz-adv-x="567" d="M40 263q0 128 69 203t187 75q108 0 170.5 -55.5t70.5 -159.5h-171q-5 54 -20 77t-50 23q-76 0 -76 -163q0 -80 20 -121.5t56 -41.5q55 0 67 90h171q-11 -98 -73 -151.5t-165 -53.5q-124 0 -190 74t-66 204z" />
<glyph unicode="d" horiz-adv-x="614" d="M40 263q0 116 58.5 197t149.5 81q76 0 126 -62v265h180v-744h-180v48q-35 -33 -66.5 -48t-73.5 -15q-94 0 -144 79t-50 199zM220 263q0 -153 85 -153q34 0 69 27v253q-34 26 -64 26q-90 0 -90 -153z" />
<glyph unicode="e" horiz-adv-x="575" d="M40 263q0 127 69 202.5t181 75.5q120 -1 187 -77q58 -66 58 -195q0 -21 -2 -45h-322q4 -70 24 -97t57 -27q59 0 67 65h171q-10 -86 -74.5 -133t-163.5 -47q-126 0 -189 73t-63 205zM213 323h150q-3 59 -21.5 83t-51.5 24q-65 0 -77 -107z" />
<glyph unicode="f" horiz-adv-x="430" d="M20 406v120h80v40q0 97 54.5 145t142.5 48q72 0 113 -19v-105q-29 7 -65 7q-65 0 -65 -75v-41h130v-120h-130v-406h-180v406h-80z" />
<glyph unicode="g" horiz-adv-x="614" d="M40 271q0 115 58 192.5t150 77.5q76 0 126 -62v47h180v-533q0 -74 -41 -125t-96 -71t-117 -20q-236 0 -245 190h171q1 -25 7.5 -41t18.5 -23t22.5 -9t25.5 -2q74 0 74 81v90q-35 -33 -66.5 -48t-73.5 -15q-95 0 -144.5 75.5t-49.5 195.5zM220 271q0 -146 85 -146 q34 0 69 27v238q-34 26 -64 26q-90 0 -90 -145z" />
<glyph unicode="h" horiz-adv-x="629" d="M60 0v744h180v-288q83 85 183 85q63 0 104.5 -39t41.5 -135v-367h-180v337q0 63 -67 63q-44 0 -82 -33v-367h-180z" />
<glyph unicode="i" horiz-adv-x="300" d="M50 667q0 43 28 71.5t72 28.5t72 -28.5t28 -71.5t-28 -71.5t-72 -28.5t-72 28.5t-28 71.5zM60 0v526h180v-526h-180z" />
<glyph unicode="j" horiz-adv-x="300" d="M50 667q0 43 28 71.5t72 28.5t72 -28.5t28 -71.5t-28 -71.5t-72 -28.5t-72 28.5t-28 71.5zM60 -208v734h180v-734h-180z" />
<glyph unicode="k" horiz-adv-x="595" d="M60 0v744h180v-439l149 221h172l-163 -227l177 -299h-203l-132 239v-239h-180z" />
<glyph unicode="l" horiz-adv-x="300" d="M60 0v744h180v-744h-180z" />
<glyph unicode="m" horiz-adv-x="946" d="M60 0v526h180v-70q83 85 180 85q102 0 131 -90q91 90 192 90q143 0 143 -174v-367h-180v337q0 63 -64 63q-41 0 -79 -33v-367h-180v337q0 63 -64 63q-41 0 -79 -33v-367h-180z" />
<glyph unicode="n" horiz-adv-x="629" d="M60 0v526h180v-70q83 85 183 85q63 0 104.5 -39t41.5 -135v-367h-180v337q0 63 -67 63q-44 0 -82 -33v-367h-180z" />
<glyph unicode="o" horiz-adv-x="604" d="M40 263q0 129 70 203.5t192 74.5t192 -74.5t70 -203.5t-70 -203.5t-192 -74.5t-192 74.5t-70 203.5zM220 263q0 -83 19.5 -123t62.5 -40t62.5 40t19.5 123t-19.5 123t-62.5 40t-62.5 -40t-19.5 -123z" />
<glyph unicode="p" horiz-adv-x="614" d="M60 -208v734h180v-48q35 33 66.5 48t73.5 15q94 0 144 -79t50 -199q0 -116 -58.5 -197t-149.5 -81q-76 0 -126 62v-255h-180zM240 136q34 -26 64 -26q90 0 90 153t-85 153q-34 0 -69 -27v-253z" />
<glyph unicode="q" horiz-adv-x="614" d="M40 263q0 116 58.5 197t149.5 81q76 0 126 -62v47h180v-734h-180v256q-35 -33 -66.5 -48t-73.5 -15q-94 0 -144 79t-50 199zM220 263q0 -153 85 -153q34 0 69 27v253q-34 26 -64 26q-90 0 -90 -153z" />
<glyph unicode="r" horiz-adv-x="455" d="M60 0v526h180v-100q25 55 64.5 85t76.5 30q35 0 64 -18v-159q-38 16 -78 16q-39 0 -74.5 -14.5t-52.5 -38.5v-327h-180z" />
<glyph unicode="s" horiz-adv-x="523" d="M30 163h168q0 -35 19.5 -52.5t52.5 -17.5q67 0 67 48q0 24 -22 33.5t-72 18.5q-13 2 -19 3q-44 8 -71.5 17t-58.5 27t-46.5 50t-15.5 78q0 81 61.5 127t153.5 46q117 0 172.5 -40.5t60.5 -125.5h-168q-4 58 -65 58q-59 0 -59 -44q0 -30 33 -41q12 -4 78 -16q29 -5 42 -8 t38 -10t37.5 -14t30 -19.5t25.5 -27.5t14.5 -37.5t6.5 -49.5q0 -83 -63.5 -132t-159.5 -49q-231 0 -240 178z" />
<glyph unicode="t" horiz-adv-x="440" d="M20 406v120h80v134h180v-134h120v-120h-120v-219q0 -85 60 -85q18 0 60 10v-105q-64 -22 -123 -22q-177 0 -177 179v242h-80z" />
<glyph unicode="u" horiz-adv-x="623" d="M60 159v367h180v-337q0 -63 64 -63q41 0 79 33v367h180v-526h-180v70q-83 -85 -180 -85q-143 0 -143 174z" />
<glyph unicode="v" horiz-adv-x="564" d="M10 526h190l36 -133l59 -220l58 220l36 133h165l-180 -526h-181z" />
<glyph unicode="w" horiz-adv-x="846" d="M10 526h181l25 -127l47 -220l58 220l34 127h155l34 -127l56 -221l49 221l26 126h161l-157 -526h-174l-27 112l-52 220l-57 -220l-30 -111h-174z" />
<glyph unicode="x" horiz-adv-x="568" d="M10 0l177 258l-175 268h183l90 -141l89 141h166l-167 -244l185 -282h-183l-100 155l-99 -155h-166z" />
<glyph unicode="y" horiz-adv-x="554" d="M10 526h190l28 -105l59 -220l62 220l30 105h165l-251 -734h-156l71 208z" />
<glyph unicode="z" horiz-adv-x="470" d="M30 0v120l218 286h-208v120h400v-120l-218 -286h218v-120h-410z" />
<glyph unicode="{" horiz-adv-x="415" d="M20 281v139q54 0 77 12t23 53v126q0 214 250 214h25v-119h-25q-38 0 -51.5 -22t-13.5 -63v-128q0 -58 -27.5 -95t-69.5 -48q42 -11 69.5 -48.5t27.5 -95.5v-127q0 -41 13.5 -63t51.5 -22h25v-119h-25q-250 0 -250 214v127q0 41 -23 53t-77 12z" />
<glyph unicode="|" horiz-adv-x="350" d="M90 -160v980h170v-980h-170z" />
<glyph unicode="}" horiz-adv-x="415" d="M20 -6h25q38 0 51.5 22t13.5 63v127q0 58 27.5 95.5t69.5 48.5q-42 11 -69.5 48t-27.5 95v128q0 41 -13.5 63t-51.5 22h-25v119h25q250 0 250 -214v-126q0 -41 23 -53t77 -12v-139q-54 0 -77 -12t-23 -53v-127q0 -214 -250 -214h-25v119z" />
<glyph unicode="~" horiz-adv-x="654" d="M50 326q26 77 74.5 109.5t98.5 32.5q53 0 115.5 -30.5t84.5 -30.5q37 0 65 55l116 -55q-26 -77 -74.5 -109.5t-98.5 -32.5q-41 0 -79.5 15.5t-68.5 31t-52 15.5q-36 0 -65 -56z" />
<glyph unicode="&#xa1;" horiz-adv-x="320" d="M60 407q0 44 27.5 72t72.5 28t72 -27.5t27 -72.5q0 -44 -27 -71.5t-72 -27.5t-72.5 27.5t-27.5 71.5zM61 -208l27 458h145l27 -458h-199z" />
<glyph unicode="&#xa2;" horiz-adv-x="567" d="M40 263q0 101 44.5 170.5t123.5 94.5v118h170v-115q145 -37 159 -205h-171q-5 54 -20 77t-50 23q-76 0 -76 -163q0 -80 20 -121.5t56 -41.5q55 0 67 90h171q-18 -156 -156 -195v-115h-170v117q-82 24 -125 93t-43 173z" />
<glyph unicode="&#xa3;" horiz-adv-x="620" d="M40 0v139h69v147h-69v139h69v71q0 101 67 160t179 59q123 0 185 -55t70 -170h-188q-4 48 -19.5 69.5t-47.5 21.5q-26 0 -43.5 -18t-17.5 -51v-87h181v-139h-181v-147h280v-139h-534z" />
<glyph unicode="&#xa4;" horiz-adv-x="660" d="M20 571l98 98l75 -75q59 31 137 31t137 -31l75 75l98 -98l-77 -77q29 -58 29 -134t-29 -136l76 -76l-98 -98l-75 75q-59 -31 -136 -31t-136 31l-75 -75l-98 98l76 76q-29 60 -29 136t29 134zM248 360q0 -76 19.5 -113.5t62.5 -37.5t62.5 37.5t19.5 113.5t-19.5 113 t-62.5 37t-62.5 -37t-19.5 -113z" />
<glyph unicode="&#xa5;" horiz-adv-x="621" d="M10 700h194l124 -235l124 235h159l-157 -275h99v-139h-150v-70h150v-139h-150v-77h-185v77h-150v139h150v70h-150v139h99z" />
<glyph unicode="&#xa6;" horiz-adv-x="350" d="M90 -160v455h170v-455h-170zM90 420v400h170v-400h-170z" />
<glyph unicode="&#xa7;" horiz-adv-x="650" d="M40 326q0 71 66 125q-56 46 -56 135q0 101 73.5 160t190.5 59q134 0 204.5 -55t80.5 -170h-188q-7 91 -97 91q-40 0 -64 -17.5t-24 -51.5q0 -33 31 -47t91 -21q8 -1 34 -4t36.5 -4t35 -5t36 -7.5t31 -10.5t30 -14.5t24 -19t19.5 -25t11 -31.5t5 -39q0 -69 -66 -126 q56 -46 56 -134q0 -101 -73.5 -160t-190.5 -59q-134 0 -204.5 55t-80.5 170h188q7 -91 97 -91q40 0 64 17.5t24 51.5q0 33 -31 47t-91 21q-8 1 -34 4t-36.5 4t-35 5t-36 7.5t-31 10.5t-30 14.5t-24 19t-19.5 25t-11 31.5t-5 39zM197 370q0 -27 29.5 -38.5t91.5 -18.5 q79 -8 122 -18q12 19 12 35q0 27 -29.5 38.5t-91.5 18.5q-79 8 -122 18q-12 -19 -12 -35z" />
<glyph unicode="&#xa8;" horiz-adv-x="516" d="M50 667q0 41 26 67.5t68 26.5t68 -26.5t26 -67.5t-26 -67.5t-68 -26.5t-68 26.5t-26 67.5zM278 667q0 41 26 67.5t68 26.5t68 -26.5t26 -67.5t-26 -67.5t-68 -26.5t-68 26.5t-26 67.5z" />
<glyph unicode="&#xa9;" horiz-adv-x="830" d="M50 350q0 152 105 258.5t260 106.5t260 -106.5t105 -258.5t-105 -258.5t-260 -106.5t-260 106.5t-105 258.5zM144 350q0 -116 78 -196.5t193 -80.5t193 80.5t78 196.5t-78 196.5t-193 80.5t-193 -80.5t-78 -196.5zM230 350q0 97 49.5 155.5t132.5 58.5q78 0 125.5 -40.5 t50.5 -120.5h-124q-3 72 -52 72q-56 0 -56 -125q0 -126 56 -126q49 0 52 73h124q-3 -81 -50.5 -121.5t-125.5 -40.5q-182 0 -182 215z" />
<glyph unicode="&#xaa;" horiz-adv-x="354" d="M10 515q0 45 41 71.5t126 26.5q11 0 35 -2v29q0 32 -38 32q-39 0 -41 -35h-117q3 56 48.5 85t109.5 29q38 0 70.5 -6.5t61 -30.5t28.5 -63v-211h-122v27q-40 -36 -96 -36q-106 0 -106 84zM131 529q0 -26 33 -26q28 0 48 17v36q-20 2 -30 2q-51 0 -51 -29z" />
<glyph unicode="&#xab;" horiz-adv-x="610" d="M50 202v159l240 180v-184l-100 -71l100 -70v-194zM320 202v159l240 180v-184l-100 -71l100 -70v-194z" />
<glyph unicode="&#xac;" horiz-adv-x="580" d="M50 297v139h480v-310h-139v171h-341z" />
<glyph unicode="&#xad;" horiz-adv-x="350" d="M50 207v139h250v-139h-250z" />
<glyph unicode="&#xae;" horiz-adv-x="578" d="M50 477q0 100 68.5 169t170.5 69t170.5 -69t68.5 -169t-68.5 -169t-170.5 -69t-170.5 69t-68.5 169zM118 477q0 -73 49 -124.5t122 -51.5t122 51.5t49 124.5t-49 124.5t-122 51.5t-122 -51.5t-49 -124.5zM191 353v255h90q42 0 73 -20.5t31 -62.5q0 -49 -43 -71l58 -101 h-82l-43 87h-8v-87h-76zM267 492h14q31 0 31 33q0 32 -31 32h-14v-65z" />
<glyph unicode="&#xaf;" horiz-adv-x="430" d="M50 612v114h330v-114h-330z" />
<glyph unicode="&#xb0;" horiz-adv-x="428" d="M50 551q0 71 47 117.5t117 46.5t117 -46.5t47 -117.5t-47 -117.5t-117 -46.5t-117 46.5t-47 117.5zM157 551q0 -26 16 -43t41 -17t41 17t16 43t-16 43t-41 17t-41 -17t-16 -43z" />
<glyph unicode="&#xb1;" horiz-adv-x="580" d="M50 0v139h480v-139h-480zM50 367v139h170v170h139v-170h171v-139h-171v-171h-139v171h-170z" />
<glyph unicode="&#xb4;" horiz-adv-x="409" d="M50 586l102 168h207l-169 -168h-140z" />
<glyph unicode="&#xb5;" horiz-adv-x="623" d="M60 -208v734h180v-337q0 -63 64 -63q41 0 79 33v367h180v-526h-180v70q-45 -46 -100 -70q-15 -6 -43 -12v-196h-180z" />
<glyph unicode="&#xb6;" horiz-adv-x="718" d="M40 485q0 110 72.5 162.5t172.5 52.5h333v-700h-125v566h-60v-566h-125v270h-23q-100 0 -172.5 52.5t-72.5 162.5z" />
<glyph unicode="&#xb7;" horiz-adv-x="300" d="M50 365q0 43 28 71.5t72 28.5t72 -28.5t28 -71.5t-28 -71.5t-72 -28.5t-72 28.5t-28 71.5z" />
<glyph unicode="&#xb8;" horiz-adv-x="320" d="M50 -165q27 -13 63 -13q37 0 37 26q0 25 -37 25q-12 0 -32 -5l-28 48l63 84h87l-45 -61q44 1 78 -20t34 -64q0 -51 -41.5 -77t-105.5 -26q-42 0 -73 15v68z" />
<glyph unicode="&#xba;" horiz-adv-x="348" d="M10 592q0 72 45 115.5t119 43.5t119 -43t45 -116t-45 -117t-119 -44t-119 44t-45 117zM132 592q0 -81 42 -81q21 0 31.5 18t10.5 63t-10.5 62.5t-31.5 17.5q-42 0 -42 -80z" />
<glyph unicode="&#xbb;" horiz-adv-x="610" d="M50 22v184l100 71l-100 70v194l240 -180v-159zM320 22v184l100 71l-100 70v194l240 -180v-159z" />
<glyph unicode="&#xbc;" horiz-adv-x="975" d="M50 527v119l107 54h144v-420h-144v301zM161 0l475 700h173l-475 -700h-173zM556 51v107l113 262h135l-117 -262h58v76h128v-76h52v-107h-52v-51h-128v51h-189z" />
<glyph unicode="&#xbd;" horiz-adv-x="1005" d="M50 527v119l107 54h144v-420h-144v301zM161 0l475 700h173l-475 -700h-173zM596 288q5 69 53.5 105t128.5 36q81 0 127 -35t46 -96q0 -51 -29.5 -85.5t-124.5 -105.5h158v-107h-345v107q22 17 52 39t46 34t36 28t30 26t19.5 21.5t13.5 21.5t4 21q0 35 -33 35 q-37 0 -40 -45h-142z" />
<glyph unicode="&#xbe;" horiz-adv-x="1023" d="M50 400h142q3 -33 44 -33q22 0 32 10.5t10 24.5q0 20 -14.5 29.5t-53.5 9.5h-46v99h46q59 0 59 42q0 31 -32 31q-36 0 -39 -33h-142q5 61 54 95t127 34q76 0 124 -31t48 -89q0 -29 -18 -55t-52 -37q79 -19 79 -96q0 -59 -52 -94.5t-130 -35.5q-177 0 -186 129zM209 0 l475 700h173l-475 -700h-173zM604 51v107l113 262h135l-117 -262h58v76h128v-76h52v-107h-52v-51h-128v51h-189z" />
<glyph unicode="&#xbf;" horiz-adv-x="576" d="M40 -24q0 39 12 69t30 46.5t40 31.5t41.5 24t35 24.5t20.5 32t-3 46.5h176q11 -56 -2 -93.5t-39.5 -56t-54.5 -33t-49 -36.5t-21 -55q0 -65 62 -65q65 0 70 77h188q-7 -103 -74.5 -157t-183.5 -54q-115 0 -181.5 52t-66.5 147zM200 407q0 45 27 72.5t72 27.5t72.5 -28 t27.5 -72t-27.5 -71.5t-72.5 -27.5t-72 27.5t-27 71.5z" />
<glyph unicode="&#xc0;" horiz-adv-x="685" d="M10 0l236 700h193l236 -700h-195l-40 142h-214l-41 -142h-175zM128 897h217l132 -148h-140zM264 278h137l-8 30l-60 230l-60 -230z" />
<glyph unicode="&#xc1;" horiz-adv-x="685" d="M10 0l236 700h193l236 -700h-195l-40 142h-214l-41 -142h-175zM208 749l132 148h217l-209 -148h-140zM264 278h137l-8 30l-60 230l-60 -230z" />
<glyph unicode="&#xc2;" horiz-adv-x="685" d="M10 0l236 700h193l236 -700h-195l-40 142h-214l-41 -142h-175zM102 749l152 148h177l152 -148h-160l-81 57l-80 -57h-160zM264 278h137l-8 30l-60 230l-60 -230z" />
<glyph unicode="&#xc3;" horiz-adv-x="685" d="M10 0l236 700h193l236 -700h-195l-40 142h-214l-41 -142h-175zM123 791q19 57 55 88.5t77 31.5q35 0 94 -20t71 -20q31 0 48 38l94 -42q-18 -57 -54 -88.5t-77 -31.5q-35 0 -94 20t-72 20q-30 0 -48 -38zM264 278h137l-8 30l-60 230l-60 -230z" />
<glyph unicode="&#xc4;" horiz-adv-x="685" d="M10 0l236 700h193l236 -700h-195l-40 142h-214l-41 -142h-175zM132 836q0 40 26.5 65t68.5 25t68.5 -25t26.5 -65t-26.5 -65t-68.5 -25t-68.5 25t-26.5 65zM264 278h137l-8 30l-60 230l-60 -230zM362 836q0 40 26.5 65t68.5 25t68.5 -25t26.5 -65t-26.5 -65t-68.5 -25 t-68.5 25t-26.5 65z" />
<glyph unicode="&#xc5;" horiz-adv-x="685" d="M10 0l236 700h193l236 -700h-195l-40 142h-214l-41 -142h-175zM203 824q0 47 40 77.5t99 30.5t99 -30.5t40 -77.5t-40 -77.5t-99 -30.5t-99 30.5t-40 77.5zM264 278h137l-8 30l-60 230l-60 -230zM300 824q0 -17 11.5 -28.5t30.5 -11.5t30.5 11.5t11.5 28.5t-11.5 28.5 t-30.5 11.5t-30.5 -11.5t-11.5 -28.5z" />
<glyph unicode="&#xc6;" horiz-adv-x="1001" d="M0 0l471 700h470v-139h-265v-123h245v-139h-245v-160h265v-139h-450v142h-202l-84 -142h-205zM370 278h121v202z" />
<glyph unicode="&#xc7;" horiz-adv-x="677" d="M40 350q0 166 86 265.5t228 99.5q132 0 210.5 -69t82.5 -206h-188q-4 69 -28.5 102.5t-76.5 33.5q-61 0 -90 -61.5t-29 -164.5q0 -226 119 -226q52 0 76.5 33.5t28.5 102.5h188q-4 -128 -73.5 -196.5t-187.5 -77.5l-35 -47q44 1 78 -20t34 -64q0 -51 -41.5 -77 t-105.5 -26q-42 0 -73 15v68q27 -13 63 -13q37 0 37 26q0 25 -37 25q-12 0 -32 -5l-28 48l54 72q-132 16 -196 110.5t-64 251.5z" />
<glyph unicode="&#xc8;" horiz-adv-x="580" d="M70 0v700h450v-139h-265v-123h245v-139h-245v-160h265v-139h-450zM81 897h217l132 -148h-140z" />
<glyph unicode="&#xc9;" horiz-adv-x="580" d="M70 0v700h450v-139h-265v-123h245v-139h-245v-160h265v-139h-450zM151 749l132 148h217l-209 -148h-140z" />
<glyph unicode="&#xca;" horiz-adv-x="580" d="M55 749l152 148h177l152 -148h-160l-81 57l-80 -57h-160zM70 0v700h450v-139h-265v-123h245v-139h-245v-160h265v-139h-450z" />
<glyph unicode="&#xcb;" horiz-adv-x="580" d="M70 0v700h450v-139h-265v-123h245v-139h-245v-160h265v-139h-450zM85 836q0 40 26.5 65t68.5 25t68.5 -25t26.5 -65t-26.5 -65t-68.5 -25t-68.5 25t-26.5 65zM315 836q0 40 26.5 65t68.5 25t68.5 -25t26.5 -65t-26.5 -65t-68.5 -25t-68.5 25t-26.5 65z" />
<glyph unicode="&#xcc;" horiz-adv-x="325" d="M-62 897h217l132 -148h-140zM70 0v700h185v-700h-185z" />
<glyph unicode="&#xcd;" horiz-adv-x="325" d="M38 749l132 148h217l-209 -148h-140zM70 0v700h185v-700h-185z" />
<glyph unicode="&#xce;" horiz-adv-x="325" d="M-78 749l152 148h177l152 -148h-160l-81 57l-80 -57h-160zM70 0v700h185v-700h-185z" />
<glyph unicode="&#xcf;" horiz-adv-x="325" d="M-38 836q0 40 26.5 65t68.5 25t68.5 -25t26.5 -65t-26.5 -65t-68.5 -25t-68.5 25t-26.5 65zM70 0v700h185v-700h-185zM172 836q0 40 26.5 65t68.5 25t68.5 -25t26.5 -65t-26.5 -65t-68.5 -25t-68.5 25t-26.5 65z" />
<glyph unicode="&#xd0;" horiz-adv-x="724" d="M-20 279v139h90v282h257q157 0 257 -94t100 -256t-100 -256t-257 -94h-257v279h-90zM255 139h72q77 0 119.5 56.5t42.5 154.5t-42.5 154.5t-119.5 56.5h-72v-143h140v-139h-140v-140z" />
<glyph unicode="&#xd1;" horiz-adv-x="733" d="M70 0v700h160l267 -418l-4 217v201h170v-700h-160l-267 417l4 -217v-200h-170zM147 791q19 57 55 88.5t77 31.5q35 0 94 -20t71 -20q31 0 48 38l94 -42q-18 -57 -54 -88.5t-77 -31.5q-35 0 -94 20t-72 20q-30 0 -48 -38z" />
<glyph unicode="&#xd2;" horiz-adv-x="744" d="M40 350q0 167 89.5 266t242.5 99t242.5 -99t89.5 -266t-89.5 -266t-242.5 -99t-242.5 99t-89.5 266zM158 897h217l132 -148h-140zM235 350q0 -226 137 -226t137 226t-137 226t-137 -226z" />
<glyph unicode="&#xd3;" horiz-adv-x="744" d="M40 350q0 167 89.5 266t242.5 99t242.5 -99t89.5 -266t-89.5 -266t-242.5 -99t-242.5 99t-89.5 266zM235 350q0 -226 137 -226t137 226t-137 226t-137 -226zM238 749l132 148h217l-209 -148h-140z" />
<glyph unicode="&#xd4;" horiz-adv-x="744" d="M40 350q0 167 89.5 266t242.5 99t242.5 -99t89.5 -266t-89.5 -266t-242.5 -99t-242.5 99t-89.5 266zM132 749l152 148h177l152 -148h-160l-81 57l-80 -57h-160zM235 350q0 -226 137 -226t137 226t-137 226t-137 -226z" />
<glyph unicode="&#xd5;" horiz-adv-x="744" d="M40 350q0 167 89.5 266t242.5 99t242.5 -99t89.5 -266t-89.5 -266t-242.5 -99t-242.5 99t-89.5 266zM153 791q19 57 55 88.5t77 31.5q35 0 94 -20t71 -20q31 0 48 38l94 -42q-18 -57 -54 -88.5t-77 -31.5q-35 0 -94 20t-72 20q-30 0 -48 -38zM235 350q0 -226 137 -226 t137 226t-137 226t-137 -226z" />
<glyph unicode="&#xd6;" horiz-adv-x="744" d="M40 350q0 167 89.5 266t242.5 99t242.5 -99t89.5 -266t-89.5 -266t-242.5 -99t-242.5 99t-89.5 266zM162 836q0 40 26.5 65t68.5 25t68.5 -25t26.5 -65t-26.5 -65t-68.5 -25t-68.5 25t-26.5 65zM235 350q0 -226 137 -226t137 226t-137 226t-137 -226zM392 836 q0 40 26.5 65t68.5 25t68.5 -25t26.5 -65t-26.5 -65t-68.5 -25t-68.5 25t-26.5 65z" />
<glyph unicode="&#xd7;" horiz-adv-x="566" d="M50 232l134 134l-134 134l98 99l134 -135l135 135l99 -98l-135 -135l135 -135l-99 -98l-135 134l-134 -134z" />
<glyph unicode="&#xd8;" horiz-adv-x="744" d="M39 -90l92 172q-91 100 -91 268q0 167 89.5 266t242.5 99q47 0 91 -11l46 86h196l-92 -172q91 -100 91 -268q0 -167 -89.5 -266t-242.5 -99q-47 0 -91 11l-46 -86h-196zM235 350q0 -226 137 -226t137 226t-137 226t-137 -226z" />
<glyph unicode="&#xd9;" horiz-adv-x="708" d="M60 237v463h185v-443q0 -133 117 -133q57 0 86.5 29.5t29.5 83.5v463h170v-443q0 -138 -77.5 -205t-208.5 -67q-135 0 -218.5 61.5t-83.5 190.5zM130 897h217l132 -148h-140z" />
<glyph unicode="&#xda;" horiz-adv-x="708" d="M60 237v463h185v-443q0 -133 117 -133q57 0 86.5 29.5t29.5 83.5v463h170v-443q0 -138 -77.5 -205t-208.5 -67q-135 0 -218.5 61.5t-83.5 190.5zM220 749l132 148h217l-209 -148h-140z" />
<glyph unicode="&#xdb;" horiz-adv-x="708" d="M60 237v463h185v-443q0 -133 117 -133q57 0 86.5 29.5t29.5 83.5v463h170v-443q0 -138 -77.5 -205t-208.5 -67q-135 0 -218.5 61.5t-83.5 190.5zM114 749l152 148h177l152 -148h-160l-81 57l-80 -57h-160z" />
<glyph unicode="&#xdc;" horiz-adv-x="708" d="M60 237v463h185v-443q0 -133 117 -133q57 0 86.5 29.5t29.5 83.5v463h170v-443q0 -138 -77.5 -205t-208.5 -67q-135 0 -218.5 61.5t-83.5 190.5zM144 836q0 40 26.5 65t68.5 25t68.5 -25t26.5 -65t-26.5 -65t-68.5 -25t-68.5 25t-26.5 65zM374 836q0 40 26.5 65t68.5 25 t68.5 -25t26.5 -65t-26.5 -65t-68.5 -25t-68.5 25t-26.5 65z" />
<glyph unicode="&#xdd;" horiz-adv-x="621" d="M10 700h194l124 -305l124 305h159l-208 -445v-255h-185v255zM186 749l132 148h217l-209 -148h-140z" />
<glyph unicode="&#xde;" horiz-adv-x="633" d="M70 0v700h185v-95h73q112 0 193.5 -63t81.5 -182t-81.5 -182t-193.5 -63h-73v-115h-185zM255 249h73q35 0 62.5 29.5t27.5 81.5t-27.5 81.5t-62.5 29.5h-73v-222z" />
<glyph unicode="&#xdf;" horiz-adv-x="699" d="M60 0v476q0 133 86.5 208t213.5 75q106 0 179.5 -42t73.5 -127q0 -34 -16.5 -64t-36 -47t-36 -37.5t-16.5 -38.5q0 -17 17.5 -33t43 -32t50.5 -36t42.5 -55t17.5 -81q0 -63 -34.5 -105.5t-81.5 -59t-102 -16.5q-186 0 -195 178h168q0 -70 39 -70q36 0 36 50 q0 29 -18.5 50.5t-45.5 36t-53.5 31t-45 45t-18.5 67.5q0 28 15 54t32.5 43t32.5 44t15 57q0 73 -73 73q-110 0 -110 -167v-477h-180z" />
<glyph unicode="&#xe0;" horiz-adv-x="584" d="M30 131q0 79 63 125.5t192 46.5q27 0 59 -3v50q0 76 -64 76q-33 0 -50.5 -18t-18.5 -62h-171q5 100 70.5 147.5t169.5 47.5q34 0 65.5 -4t65 -15.5t58 -30t40 -49.5t15.5 -72v-370h-180v48q-66 -63 -155 -63q-79 0 -119 38.5t-40 107.5zM93 754h207l102 -168h-140z M206 155q0 -52 62 -52q43 0 76 31v77q-26 3 -51 3q-35 0 -61 -13.5t-26 -45.5z" />
<glyph unicode="&#xe1;" horiz-adv-x="584" d="M30 131q0 79 63 125.5t192 46.5q27 0 59 -3v50q0 76 -64 76q-33 0 -50.5 -18t-18.5 -62h-171q5 100 70.5 147.5t169.5 47.5q34 0 65.5 -4t65 -15.5t58 -30t40 -49.5t15.5 -72v-370h-180v48q-66 -63 -155 -63q-79 0 -119 38.5t-40 107.5zM163 586l102 168h207l-169 -168 h-140zM206 155q0 -52 62 -52q43 0 76 31v77q-26 3 -51 3q-35 0 -61 -13.5t-26 -45.5z" />
<glyph unicode="&#xe2;" horiz-adv-x="584" d="M30 131q0 79 63 125.5t192 46.5q27 0 59 -3v50q0 76 -64 76q-33 0 -50.5 -18t-18.5 -62h-171q5 100 70.5 147.5t169.5 47.5q34 0 65.5 -4t65 -15.5t58 -30t40 -49.5t15.5 -72v-370h-180v48q-66 -63 -155 -63q-79 0 -119 38.5t-40 107.5zM77 586l132 168h157l132 -168 h-140l-71 64l-70 -64h-140zM206 155q0 -52 62 -52q43 0 76 31v77q-26 3 -51 3q-35 0 -61 -13.5t-26 -45.5z" />
<glyph unicode="&#xe3;" horiz-adv-x="584" d="M30 131q0 79 63 125.5t192 46.5q27 0 59 -3v50q0 76 -64 76q-33 0 -50.5 -18t-18.5 -62h-171q5 100 70.5 147.5t169.5 47.5q34 0 65.5 -4t65 -15.5t58 -30t40 -49.5t15.5 -72v-370h-180v48q-66 -63 -155 -63q-79 0 -119 38.5t-40 107.5zM78 627q19 57 52.5 88.5 t74.5 31.5q35 0 89 -20t66 -20q26 0 43 38l94 -42q-19 -57 -52 -88.5t-74 -31.5q-35 0 -89 20t-67 20q-25 0 -43 -38zM206 155q0 -52 62 -52q43 0 76 31v77q-26 3 -51 3q-35 0 -61 -13.5t-26 -45.5z" />
<glyph unicode="&#xe4;" horiz-adv-x="584" d="M30 131q0 79 63 125.5t192 46.5q27 0 59 -3v50q0 76 -64 76q-33 0 -50.5 -18t-18.5 -62h-171q5 100 70.5 147.5t169.5 47.5q34 0 65.5 -4t65 -15.5t58 -30t40 -49.5t15.5 -72v-370h-180v48q-66 -63 -155 -63q-79 0 -119 38.5t-40 107.5zM79 667q0 41 26 67.5t68 26.5 t68 -26.5t26 -67.5t-26 -67.5t-68 -26.5t-68 26.5t-26 67.5zM206 155q0 -52 62 -52q43 0 76 31v77q-26 3 -51 3q-35 0 -61 -13.5t-26 -45.5zM307 667q0 41 26 67.5t68 26.5t68 -26.5t26 -67.5t-26 -67.5t-68 -26.5t-68 26.5t-26 67.5z" />
<glyph unicode="&#xe5;" horiz-adv-x="584" d="M30 131q0 79 63 125.5t192 46.5q27 0 59 -3v50q0 76 -64 76q-33 0 -50.5 -18t-18.5 -62h-171q5 100 70.5 147.5t169.5 47.5q34 0 65.5 -4t65 -15.5t58 -30t40 -49.5t15.5 -72v-370h-180v48q-66 -63 -155 -63q-79 0 -119 38.5t-40 107.5zM148 667q0 47 39.5 75t99.5 28 t99.5 -28t39.5 -75t-39.5 -75t-99.5 -28t-99.5 28t-39.5 75zM206 155q0 -52 62 -52q43 0 76 31v77q-26 3 -51 3q-35 0 -61 -13.5t-26 -45.5zM245 667q0 -15 11.5 -25t30.5 -10t30.5 10t11.5 25t-11.5 25t-30.5 10t-30.5 -10t-11.5 -25z" />
<glyph unicode="&#xe6;" horiz-adv-x="879" d="M30 131q0 79 63 125.5t192 46.5q27 0 59 -3v50q0 76 -64 76q-33 0 -50.5 -18t-18.5 -62h-171q5 100 70.5 147.5t169.5 47.5q102 0 160 -54q65 54 154 54q120 0 187 -76.5t56 -240.5h-322q4 -69 23.5 -96.5t57.5 -27.5q59 0 67 65h171q-10 -86 -74.5 -133t-163.5 -47 q-130 0 -195 81q-99 -81 -212 -81q-79 0 -119 38.5t-40 107.5zM206 155q0 -52 62 -52q47 0 93 40q-10 31 -14 67q-34 4 -54 4q-35 0 -61 -13.5t-26 -45.5zM517 323h150q-3 59 -21.5 83t-51.5 24q-65 0 -77 -107z" />
<glyph unicode="&#xe7;" horiz-adv-x="567" d="M40 263q0 128 69 203t187 75q108 0 170.5 -55.5t70.5 -159.5h-171q-5 54 -20 77t-50 23q-76 0 -76 -163q0 -80 20 -121.5t56 -41.5q55 0 67 90h171q-10 -92 -65.5 -145t-147.5 -59l-35 -47q44 1 78 -20t34 -64q0 -51 -41.5 -77t-105.5 -26q-42 0 -73 15v68q27 -13 63 -13 q37 0 37 26q0 25 -37 25q-12 0 -32 -5l-28 48l56 74q-96 17 -146.5 88.5t-50.5 184.5z" />
<glyph unicode="&#xe8;" horiz-adv-x="575" d="M40 263q0 127 69 202.5t181 75.5q120 0 187 -76.5t56 -240.5h-322q4 -70 24 -97t57 -27q59 0 67 65h171q-10 -86 -74.5 -133t-163.5 -47q-126 0 -189 73t-63 205zM80 754h207l102 -168h-140zM213 323h150q-3 59 -21.5 83t-51.5 24q-65 0 -77 -107z" />
<glyph unicode="&#xe9;" horiz-adv-x="575" d="M40 263q0 127 69 202.5t181 75.5q120 0 187 -76.5t56 -240.5h-322q4 -70 24 -97t57 -27q59 0 67 65h171q-10 -86 -74.5 -133t-163.5 -47q-126 0 -189 73t-63 205zM175 586l102 168h207l-169 -168h-140zM213 323h150q-3 59 -21.5 83t-51.5 24q-65 0 -77 -107z" />
<glyph unicode="&#xea;" horiz-adv-x="575" d="M40 263q0 127 69 202.5t181 75.5q120 0 187 -76.5t56 -240.5h-322q4 -70 24 -97t57 -27q59 0 67 65h171q-10 -86 -74.5 -133t-163.5 -47q-126 0 -189 73t-63 205zM74 586l132 168h157l132 -168h-140l-71 64l-70 -64h-140zM213 323h150q-3 59 -21.5 83t-51.5 24 q-65 0 -77 -107z" />
<glyph unicode="&#xeb;" horiz-adv-x="575" d="M40 263q0 127 69 202.5t181 75.5q120 0 187 -76.5t56 -240.5h-322q4 -70 24 -97t57 -27q59 0 67 65h171q-10 -86 -74.5 -133t-163.5 -47q-126 0 -189 73t-63 205zM76 667q0 41 26 67.5t68 26.5t68 -26.5t26 -67.5t-26 -67.5t-68 -26.5t-68 26.5t-26 67.5zM213 323h150 q-3 59 -21.5 83t-51.5 24q-65 0 -77 -107zM304 667q0 41 26 67.5t68 26.5t68 -26.5t26 -67.5t-26 -67.5t-68 -26.5t-68 26.5t-26 67.5z" />
<glyph unicode="&#xec;" horiz-adv-x="300" d="M-81 754h207l102 -168h-140zM60 0v526h180v-526h-180z" />
<glyph unicode="&#xed;" horiz-adv-x="300" d="M60 0v526h180v-526h-180zM66 586l102 168h207l-169 -168h-140z" />
<glyph unicode="&#xee;" horiz-adv-x="300" d="M-60 586l132 168h157l132 -168h-140l-71 64l-70 -64h-140zM60 0v526h180v-526h-180z" />
<glyph unicode="&#xef;" horiz-adv-x="300" d="M-48 667q0 41 26 67.5t68 26.5t68 -26.5t26 -67.5t-26 -67.5t-68 -26.5t-68 26.5t-26 67.5zM60 0v526h180v-526h-180zM160 667q0 41 26 67.5t68 26.5t68 -26.5t26 -67.5t-26 -67.5t-68 -26.5t-68 26.5t-26 67.5z" />
<glyph unicode="&#xf0;" horiz-adv-x="604" d="M40 256q0 122 59 191t142 69q60 0 102 -40q-22 52 -57 101l-119 -34l-69 99l103 29q-37 35 -94 73h198q21 -13 44 -31l109 31l69 -99l-88 -25q125 -162 125 -336q0 -137 -70 -218t-192 -81q-123 0 -192.5 71.5t-69.5 199.5zM220 256q0 -156 82 -156t82 156q0 66 -12 123 q-30 22 -58 22q-94 0 -94 -145z" />
<glyph unicode="&#xf1;" horiz-adv-x="629" d="M60 0v526h180v-70q83 85 183 85q63 0 104.5 -39t41.5 -135v-367h-180v337q0 63 -67 63q-44 0 -82 -33v-367h-180zM95 627q19 57 52.5 88.5t74.5 31.5q35 0 89 -20t66 -20q26 0 43 38l94 -42q-19 -57 -52 -88.5t-74 -31.5q-35 0 -89 20t-67 20q-25 0 -43 -38z" />
<glyph unicode="&#xf2;" horiz-adv-x="604" d="M40 263q0 129 70 203.5t192 74.5t192 -74.5t70 -203.5t-70 -203.5t-192 -74.5t-192 74.5t-70 203.5zM108 754h207l102 -168h-140zM220 263q0 -83 19.5 -123t62.5 -40t62.5 40t19.5 123t-19.5 123t-62.5 40t-62.5 -40t-19.5 -123z" />
<glyph unicode="&#xf3;" horiz-adv-x="604" d="M40 263q0 129 70 203.5t192 74.5t192 -74.5t70 -203.5t-70 -203.5t-192 -74.5t-192 74.5t-70 203.5zM188 586l102 168h207l-169 -168h-140zM220 263q0 -83 19.5 -123t62.5 -40t62.5 40t19.5 123t-19.5 123t-62.5 40t-62.5 -40t-19.5 -123z" />
<glyph unicode="&#xf4;" horiz-adv-x="604" d="M40 263q0 129 70 203.5t192 74.5t192 -74.5t70 -203.5t-70 -203.5t-192 -74.5t-192 74.5t-70 203.5zM92 586l132 168h157l132 -168h-140l-71 64l-70 -64h-140zM220 263q0 -83 19.5 -123t62.5 -40t62.5 40t19.5 123t-19.5 123t-62.5 40t-62.5 -40t-19.5 -123z" />
<glyph unicode="&#xf5;" horiz-adv-x="604" d="M40 263q0 129 70 203.5t192 74.5t192 -74.5t70 -203.5t-70 -203.5t-192 -74.5t-192 74.5t-70 203.5zM93 627q19 57 52.5 88.5t74.5 31.5q35 0 89 -20t66 -20q26 0 43 38l94 -42q-19 -57 -52 -88.5t-74 -31.5q-35 0 -89 20t-67 20q-25 0 -43 -38zM220 263q0 -83 19.5 -123 t62.5 -40t62.5 40t19.5 123t-19.5 123t-62.5 40t-62.5 -40t-19.5 -123z" />
<glyph unicode="&#xf6;" horiz-adv-x="604" d="M40 263q0 129 70 203.5t192 74.5t192 -74.5t70 -203.5t-70 -203.5t-192 -74.5t-192 74.5t-70 203.5zM94 667q0 41 26 67.5t68 26.5t68 -26.5t26 -67.5t-26 -67.5t-68 -26.5t-68 26.5t-26 67.5zM220 263q0 -83 19.5 -123t62.5 -40t62.5 40t19.5 123t-19.5 123t-62.5 40 t-62.5 -40t-19.5 -123zM322 667q0 41 26 67.5t68 26.5t68 -26.5t26 -67.5t-26 -67.5t-68 -26.5t-68 26.5t-26 67.5z" />
<glyph unicode="&#xf7;" horiz-adv-x="580" d="M50 297v139h480v-139h-480zM201 183q0 38 24.5 62t64.5 24q39 0 63.5 -24t24.5 -62t-24.5 -62.5t-63.5 -24.5t-64 24.5t-25 62.5zM201 550q0 38 24.5 62t64.5 24q39 0 63.5 -24t24.5 -62t-24.5 -62.5t-63.5 -24.5t-64 24.5t-25 62.5z" />
<glyph unicode="&#xf8;" horiz-adv-x="604" d="M18 -80l83 149q-61 75 -61 194q0 129 70 203.5t192 74.5q28 0 58 -5l39 70h184l-82 -147q63 -74 63 -196q0 -129 -70 -203.5t-192 -74.5q-29 0 -61 5l-39 -70h-184zM220 263q0 -83 19.5 -123t62.5 -40t62.5 40t19.5 123t-19.5 123t-62.5 40t-62.5 -40t-19.5 -123z" />
<glyph unicode="&#xf9;" horiz-adv-x="623" d="M60 159v367h180v-337q0 -63 64 -63q41 0 79 33v367h180v-526h-180v70q-83 -85 -180 -85q-143 0 -143 174zM117 754h207l102 -168h-140z" />
<glyph unicode="&#xfa;" horiz-adv-x="623" d="M60 159v367h180v-337q0 -63 64 -63q41 0 79 33v367h180v-526h-180v70q-83 -85 -180 -85q-143 0 -143 174zM197 586l102 168h207l-169 -168h-140z" />
<glyph unicode="&#xfb;" horiz-adv-x="623" d="M60 159v367h180v-337q0 -63 64 -63q41 0 79 33v367h180v-526h-180v70q-83 -85 -180 -85q-143 0 -143 174zM101 586l132 168h157l132 -168h-140l-71 64l-70 -64h-140z" />
<glyph unicode="&#xfc;" horiz-adv-x="623" d="M60 159v367h180v-337q0 -63 64 -63q41 0 79 33v367h180v-526h-180v70q-83 -85 -180 -85q-143 0 -143 174zM103 667q0 41 26 67.5t68 26.5t68 -26.5t26 -67.5t-26 -67.5t-68 -26.5t-68 26.5t-26 67.5zM331 667q0 41 26 67.5t68 26.5t68 -26.5t26 -67.5t-26 -67.5 t-68 -26.5t-68 26.5t-26 67.5z" />
<glyph unicode="&#xfd;" horiz-adv-x="554" d="M10 526h190l28 -105l59 -220l62 220l30 105h165l-251 -734h-156l71 208zM164 586l102 168h207l-169 -168h-140z" />
<glyph unicode="&#xfe;" horiz-adv-x="614" d="M60 -208v952h180v-266q35 33 66.5 48t73.5 15q94 0 144 -79t50 -199q0 -116 -58.5 -197t-149.5 -81q-76 0 -126 62v-255h-180zM240 136q34 -26 64 -26q90 0 90 153t-85 153q-34 0 -69 -27v-253z" />
<glyph unicode="&#xff;" horiz-adv-x="554" d="M10 526h190l28 -105l59 -220l62 220l30 105h165l-251 -734h-156l71 208zM79 667q0 41 26 67.5t68 26.5t68 -26.5t26 -67.5t-26 -67.5t-68 -26.5t-68 26.5t-26 67.5zM307 667q0 41 26 67.5t68 26.5t68 -26.5t26 -67.5t-26 -67.5t-68 -26.5t-68 26.5t-26 67.5z" />
<glyph unicode="&#x100;" horiz-adv-x="685" d="M10 0l236 700h193l236 -700h-195l-40 142h-214l-41 -142h-175zM162 777v114h360v-114h-360zM264 278h137l-8 30l-60 230l-60 -230z" />
<glyph unicode="&#x101;" horiz-adv-x="584" d="M30 131q0 79 63 125.5t192 46.5q27 0 59 -3v50q0 76 -64 76q-33 0 -50.5 -18t-18.5 -62h-171q5 100 70.5 147.5t169.5 47.5q34 0 65.5 -4t65 -15.5t58 -30t40 -49.5t15.5 -72v-370h-180v48q-66 -63 -155 -63q-79 0 -119 38.5t-40 107.5zM122 612v114h330v-114h-330z M206 155q0 -52 62 -52q43 0 76 31v77q-26 3 -51 3q-35 0 -61 -13.5t-26 -45.5z" />
<glyph unicode="&#x102;" horiz-adv-x="685" d="M10 0l236 700h193l236 -700h-195l-40 142h-214l-41 -142h-175zM151 897h118q0 -43 73 -43t73 43h118q0 -80 -57.5 -120.5t-133.5 -40.5t-133.5 40.5t-57.5 120.5zM264 278h137l-8 30l-60 230l-60 -230z" />
<glyph unicode="&#x103;" horiz-adv-x="584" d="M30 131q0 79 63 125.5t192 46.5q27 0 59 -3v50q0 76 -64 76q-33 0 -50.5 -18t-18.5 -62h-171q5 100 70.5 147.5t169.5 47.5q34 0 65.5 -4t65 -15.5t58 -30t40 -49.5t15.5 -72v-370h-180v48q-66 -63 -155 -63q-79 0 -119 38.5t-40 107.5zM106 754h118q0 -23 15 -43t48 -20 t48 20t15 43h118q0 -48 -17 -85t-44.5 -57t-58 -29.5t-61.5 -9.5t-61.5 9.5t-58 29.5t-44.5 57t-17 85zM206 155q0 -52 62 -52q43 0 76 31v77q-26 3 -51 3q-35 0 -61 -13.5t-26 -45.5z" />
<glyph unicode="&#x104;" horiz-adv-x="685" d="M10 0l236 700h193l236 -700q-105 -57 -105 -116q0 -17 12 -26t26 -9q32 0 67 15v-88q-42 -24 -121 -24q-59 0 -91 30t-32 75q0 81 104 143h-55l-40 142h-214l-41 -142h-175zM264 278h137l-8 30l-60 230l-60 -230z" />
<glyph unicode="&#x105;" horiz-adv-x="584" d="M30 131q0 79 63 125.5t192 46.5q27 0 59 -3v50q0 76 -64 76q-33 0 -50.5 -18t-18.5 -62h-171q5 100 70.5 147.5t169.5 47.5q34 0 65.5 -4t65 -15.5t58 -30t40 -49.5t15.5 -72v-370q-105 -57 -105 -116q0 -17 12 -26t26 -9q33 0 67 15v-88q-42 -24 -121 -24q-59 0 -91 30 t-32 75q0 81 104 143h-40v48q-66 -63 -155 -63q-79 0 -119 38.5t-40 107.5zM206 155q0 -52 62 -52q43 0 76 31v77q-26 3 -51 3q-35 0 -61 -13.5t-26 -45.5z" />
<glyph unicode="&#x106;" horiz-adv-x="677" d="M40 350q0 166 86 265.5t228 99.5q132 0 210.5 -69t82.5 -206h-188q-4 69 -28.5 102.5t-76.5 33.5q-61 0 -90 -61.5t-29 -164.5q0 -226 119 -226q52 0 76.5 33.5t28.5 102.5h188q-4 -137 -82.5 -206t-210.5 -69q-159 0 -236.5 96.5t-77.5 268.5zM209 749l132 148h217 l-209 -148h-140z" />
<glyph unicode="&#x107;" horiz-adv-x="567" d="M40 263q0 128 69 203t187 75q108 0 170.5 -55.5t70.5 -159.5h-171q-5 54 -20 77t-50 23q-76 0 -76 -163q0 -80 20 -121.5t56 -41.5q55 0 67 90h171q-11 -98 -73 -151.5t-165 -53.5q-124 0 -190 74t-66 204zM205 586l102 168h207l-169 -168h-140z" />
<glyph unicode="&#x108;" horiz-adv-x="677" d="M40 350q0 166 86 265.5t228 99.5q132 0 210.5 -69t82.5 -206h-188q-4 69 -28.5 102.5t-76.5 33.5q-61 0 -90 -61.5t-29 -164.5q0 -226 119 -226q52 0 76.5 33.5t28.5 102.5h188q-4 -137 -82.5 -206t-210.5 -69q-159 0 -236.5 96.5t-77.5 268.5zM103 749l152 148h177 l152 -148h-160l-81 57l-80 -57h-160z" />
<glyph unicode="&#x109;" horiz-adv-x="567" d="M40 263q0 128 69 203t187 75q108 0 170.5 -55.5t70.5 -159.5h-171q-5 54 -20 77t-50 23q-76 0 -76 -163q0 -80 20 -121.5t56 -41.5q55 0 67 90h171q-11 -98 -73 -151.5t-165 -53.5q-124 0 -190 74t-66 204zM78 586l132 168h157l132 -168h-140l-71 64l-70 -64h-140z" />
<glyph unicode="&#x10a;" horiz-adv-x="677" d="M40 350q0 166 86 265.5t228 99.5q132 0 210.5 -69t82.5 -206h-188q-4 69 -28.5 102.5t-76.5 33.5q-61 0 -90 -61.5t-29 -164.5q0 -226 119 -226q52 0 76.5 33.5t28.5 102.5h188q-4 -137 -82.5 -206t-210.5 -69q-159 0 -236.5 96.5t-77.5 268.5zM242 835q0 42 28 68.5 t73 26.5t73 -26.5t28 -68.5t-28 -68.5t-73 -26.5t-73 26.5t-28 68.5z" />
<glyph unicode="&#x10b;" horiz-adv-x="567" d="M40 263q0 128 69 203t187 75q108 0 170.5 -55.5t70.5 -159.5h-171q-5 54 -20 77t-50 23q-76 0 -76 -163q0 -80 20 -121.5t56 -41.5q55 0 67 90h171q-11 -98 -73 -151.5t-165 -53.5q-124 0 -190 74t-66 204zM188 667q0 43 28 71.5t72 28.5t72 -28.5t28 -71.5t-28 -71.5 t-72 -28.5t-72 28.5t-28 71.5z" />
<glyph unicode="&#x10c;" horiz-adv-x="677" d="M40 350q0 166 86 265.5t228 99.5q132 0 210.5 -69t82.5 -206h-188q-4 69 -28.5 102.5t-76.5 33.5q-61 0 -90 -61.5t-29 -164.5q0 -226 119 -226q52 0 76.5 33.5t28.5 102.5h188q-4 -137 -82.5 -206t-210.5 -69q-159 0 -236.5 96.5t-77.5 268.5zM103 897h160l80 -57l81 57 h160l-152 -148h-177z" />
<glyph unicode="&#x10d;" horiz-adv-x="567" d="M40 263q0 128 69 203t187 75q108 0 170.5 -55.5t70.5 -159.5h-171q-5 54 -20 77t-50 23q-76 0 -76 -163q0 -80 20 -121.5t56 -41.5q55 0 67 90h171q-11 -98 -73 -151.5t-165 -53.5q-124 0 -190 74t-66 204zM78 754h140l70 -64l71 64h140l-132 -168h-157z" />
<glyph unicode="&#x10e;" horiz-adv-x="724" d="M67 897h160l80 -57l81 57h160l-152 -148h-177zM70 0v700h257q157 0 257 -94t100 -256t-100 -256t-257 -94h-257zM255 139h72q77 0 119.5 56.5t42.5 154.5t-42.5 154.5t-119.5 56.5h-72v-422z" />
<glyph unicode="&#x10f;" horiz-adv-x="735" d="M40 263q0 116 58.5 197t149.5 81q76 0 126 -62v265h180v-744h-180v48q-35 -33 -66.5 -48t-73.5 -15q-94 0 -144 79t-50 199zM220 263q0 -153 85 -153q34 0 69 27v253q-34 26 -64 26q-90 0 -90 -153zM604 563v240h151l-31 -240h-120z" />
<glyph unicode="&#x110;" horiz-adv-x="724" d="M-20 279v139h90v282h257q157 0 257 -94t100 -256t-100 -256t-257 -94h-257v279h-90zM255 139h72q77 0 119.5 56.5t42.5 154.5t-42.5 154.5t-119.5 56.5h-72v-143h140v-139h-140v-140z" />
<glyph unicode="&#x111;" horiz-adv-x="614" d="M40 263q0 116 58.5 197t149.5 81q76 0 126 -62v93h-90v114h90v58h180v-58h60v-114h-60v-572h-180v48q-35 -33 -66.5 -48t-73.5 -15q-94 0 -144 79t-50 199zM220 263q0 -153 85 -153q34 0 69 27v253q-34 26 -64 26q-90 0 -90 -153z" />
<glyph unicode="&#x112;" horiz-adv-x="580" d="M70 0v700h450v-139h-265v-123h245v-139h-245v-160h265v-139h-450zM115 777v114h360v-114h-360z" />
<glyph unicode="&#x113;" horiz-adv-x="575" d="M40 263q0 127 69 202.5t181 75.5q120 0 187 -76.5t56 -240.5h-322q4 -70 24 -97t57 -27q59 0 67 65h171q-10 -86 -74.5 -133t-163.5 -47q-126 0 -189 73t-63 205zM119 612v114h330v-114h-330zM213 323h150q-3 59 -21.5 83t-51.5 24q-65 0 -77 -107z" />
<glyph unicode="&#x114;" horiz-adv-x="580" d="M70 0v700h450v-139h-265v-123h245v-139h-245v-160h265v-139h-450zM104 897h118q0 -43 73 -43t73 43h118q0 -80 -57.5 -120.5t-133.5 -40.5t-133.5 40.5t-57.5 120.5z" />
<glyph unicode="&#x115;" horiz-adv-x="575" d="M40 263q0 127 69 202.5t181 75.5q120 0 187 -76.5t56 -240.5h-322q4 -70 24 -97t57 -27q59 0 67 65h171q-10 -86 -74.5 -133t-163.5 -47q-126 0 -189 73t-63 205zM103 754h118q0 -23 15 -43t48 -20t48 20t15 43h118q0 -48 -17 -85t-44.5 -57t-58 -29.5t-61.5 -9.5 t-61.5 9.5t-58 29.5t-44.5 57t-17 85zM213 323h150q-3 59 -21.5 83t-51.5 24q-65 0 -77 -107z" />
<glyph unicode="&#x116;" horiz-adv-x="580" d="M70 0v700h450v-139h-265v-123h245v-139h-245v-160h265v-139h-450zM194 835q0 42 28 68.5t73 26.5t73 -26.5t28 -68.5t-28 -68.5t-73 -26.5t-73 26.5t-28 68.5z" />
<glyph unicode="&#x117;" horiz-adv-x="575" d="M40 263q0 127 69 202.5t181 75.5q120 0 187 -76.5t56 -240.5h-322q4 -70 24 -97t57 -27q59 0 67 65h171q-10 -86 -74.5 -133t-163.5 -47q-126 0 -189 73t-63 205zM184 667q0 43 28 71.5t72 28.5t72 -28.5t28 -71.5t-28 -71.5t-72 -28.5t-72 28.5t-28 71.5zM213 323h150 q-3 59 -21.5 83t-51.5 24q-65 0 -77 -107z" />
<glyph unicode="&#x118;" horiz-adv-x="580" d="M70 0v700h450v-139h-265v-123h245v-139h-245v-160h265v-139q-105 -57 -105 -116q0 -17 12 -26t26 -9q33 0 67 15v-88q-42 -24 -121 -24q-59 0 -91 30t-32 75q0 81 104 143h-310z" />
<glyph unicode="&#x119;" horiz-adv-x="575" d="M40 263q0 127 69 202.5t181 75.5q120 0 187 -76.5t56 -240.5h-322q4 -70 24 -97t57 -27q59 0 67 65h171q-4 -44 -27 -81q-47 -93 -62.5 -133.5t-15.5 -66.5q0 -17 12 -26t26 -9q32 0 67 15v-88q-42 -24 -121 -24q-59 0 -91 30t-32 75q0 30 17 60.5t59 74.5q-31 -7 -70 -7 q-126 0 -189 73t-63 205zM213 323h150q-3 59 -21.5 83t-51.5 24q-65 0 -77 -107z" />
<glyph unicode="&#x11a;" horiz-adv-x="580" d="M55 897h160l80 -57l81 57h160l-152 -148h-177zM70 0v700h450v-139h-265v-123h245v-139h-245v-160h265v-139h-450z" />
<glyph unicode="&#x11b;" horiz-adv-x="575" d="M40 263q0 127 69 202.5t181 75.5q120 0 187 -76.5t56 -240.5h-322q4 -70 24 -97t57 -27q59 0 67 65h171q-10 -86 -74.5 -133t-163.5 -47q-126 0 -189 73t-63 205zM74 754h140l70 -64l71 64h140l-132 -168h-157zM213 323h150q-3 59 -21.5 83t-51.5 24q-65 0 -77 -107z" />
<glyph unicode="&#x11c;" horiz-adv-x="702" d="M40 350q0 166 87 265.5t234 99.5q122 0 197 -62.5t84 -182.5h-188q-5 53 -26.5 79.5t-66.5 26.5q-126 0 -126 -226q0 -228 144 -228q18 0 45.5 7.5t42.5 18.5v83h-113v129h288v-360h-175v59q-25 -33 -74 -53.5t-94 -20.5q-122 0 -190.5 96t-68.5 269zM111 749l152 148 h177l152 -148h-160l-81 57l-80 -57h-160z" />
<glyph unicode="&#x11d;" horiz-adv-x="614" d="M40 271q0 115 58 192.5t150 77.5q76 0 126 -62v47h180v-533q0 -74 -41 -125t-96 -71t-117 -20q-236 0 -245 190h171q1 -25 7.5 -41t18.5 -23t22.5 -9t25.5 -2q74 0 74 81v90q-35 -33 -66.5 -48t-73.5 -15q-95 0 -144.5 75.5t-49.5 195.5zM107 586l132 168h157l132 -168 h-140l-71 64l-70 -64h-140zM220 271q0 -146 85 -146q34 0 69 27v238q-34 26 -64 26q-90 0 -90 -145z" />
<glyph unicode="&#x11e;" horiz-adv-x="702" d="M40 350q0 166 87 265.5t234 99.5q122 0 197 -62.5t84 -182.5h-188q-5 53 -26.5 79.5t-66.5 26.5q-126 0 -126 -226q0 -228 144 -228q18 0 45.5 7.5t42.5 18.5v83h-113v129h288v-360h-175v59q-25 -33 -74 -53.5t-94 -20.5q-122 0 -190.5 96t-68.5 269zM160 897h118 q0 -43 73 -43t73 43h118q0 -80 -57.5 -120.5t-133.5 -40.5t-133.5 40.5t-57.5 120.5z" />
<glyph unicode="&#x11f;" horiz-adv-x="614" d="M40 271q0 115 58 192.5t150 77.5q76 0 126 -62v47h180v-533q0 -74 -41 -125t-96 -71t-117 -20q-236 0 -245 190h171q1 -25 7.5 -41t18.5 -23t22.5 -9t25.5 -2q74 0 74 81v90q-35 -33 -66.5 -48t-73.5 -15q-95 0 -144.5 75.5t-49.5 195.5zM136 754h118q0 -23 15 -43 t48 -20t48 20t15 43h118q0 -48 -17 -85t-44.5 -57t-58 -29.5t-61.5 -9.5t-61.5 9.5t-58 29.5t-44.5 57t-17 85zM220 271q0 -146 85 -146q34 0 69 27v238q-34 26 -64 26q-90 0 -90 -145z" />
<glyph unicode="&#x120;" horiz-adv-x="702" d="M40 350q0 166 87 265.5t234 99.5q122 0 197 -62.5t84 -182.5h-188q-5 53 -26.5 79.5t-66.5 26.5q-126 0 -126 -226q0 -228 144 -228q18 0 45.5 7.5t42.5 18.5v83h-113v129h288v-360h-175v59q-25 -33 -74 -53.5t-94 -20.5q-122 0 -190.5 96t-68.5 269zM240 835 q0 42 28 68.5t73 26.5t73 -26.5t28 -68.5t-28 -68.5t-73 -26.5t-73 26.5t-28 68.5z" />
<glyph unicode="&#x121;" horiz-adv-x="614" d="M40 271q0 115 58 192.5t150 77.5q76 0 126 -62v47h180v-533q0 -74 -41 -125t-96 -71t-117 -20q-236 0 -245 190h171q1 -25 7.5 -41t18.5 -23t22.5 -9t25.5 -2q74 0 74 81v90q-35 -33 -66.5 -48t-73.5 -15q-95 0 -144.5 75.5t-49.5 195.5zM207 667q0 43 28 71.5t72 28.5 t72 -28.5t28 -71.5t-28 -71.5t-72 -28.5t-72 28.5t-28 71.5zM220 271q0 -146 85 -146q34 0 69 27v238q-34 26 -64 26q-90 0 -90 -145z" />
<glyph unicode="&#x122;" horiz-adv-x="702" d="M40 350q0 166 87 265.5t234 99.5q122 0 197 -62.5t84 -182.5h-188q-5 53 -26.5 79.5t-66.5 26.5q-126 0 -126 -226q0 -228 144 -228q18 0 45.5 7.5t42.5 18.5v83h-113v129h288v-360h-175v59q-25 -33 -74 -53.5t-94 -20.5q-122 0 -190.5 96t-68.5 269zM263 -248l20 200 h157l-59 -200h-118z" />
<glyph unicode="&#x123;" horiz-adv-x="614" d="M40 271q0 115 58 192.5t150 77.5q76 0 126 -62v47h180v-533q0 -74 -41 -125t-96 -71t-117 -20q-236 0 -245 190h171q1 -25 7.5 -41t18.5 -23t22.5 -9t25.5 -2q74 0 74 81v90q-35 -33 -66.5 -48t-73.5 -15q-95 0 -144.5 75.5t-49.5 195.5zM219 580l59 200h118l-20 -200 h-157zM220 271q0 -146 85 -146q34 0 69 27v238q-34 26 -64 26q-90 0 -90 -145z" />
<glyph unicode="&#x124;" horiz-adv-x="753" d="M70 0v700h185v-262h243v262h185v-700h-185v299h-243v-299h-185zM136 749l152 148h177l152 -148h-160l-81 57l-80 -57h-160z" />
<glyph unicode="&#x125;" horiz-adv-x="629" d="M-90 779l152 148h177l152 -148h-160l-81 57l-80 -57h-160zM60 0v744h180v-288q83 85 183 85q63 0 104.5 -39t41.5 -135v-367h-180v337q0 63 -67 63q-44 0 -82 -33v-367h-180z" />
<glyph unicode="&#x126;" horiz-adv-x="753" d="M0 469v139h70v92h185v-92h243v92h185v-92h70v-139h-70v-469h-185v249h-243v-249h-185v469h-70zM255 388h243v81h-243v-81z" />
<glyph unicode="&#x127;" horiz-adv-x="629" d="M0 572v114h60v58h180v-58h90v-114h-90v-116q83 85 183 85q63 0 104.5 -39t41.5 -135v-367h-180v337q0 63 -67 63q-44 0 -82 -33v-367h-180v572h-60z" />
<glyph unicode="&#x128;" horiz-adv-x="325" d="M-57 791q19 57 55 88.5t77 31.5q35 0 94 -20t71 -20q31 0 48 38l94 -42q-18 -57 -54 -88.5t-77 -31.5q-35 0 -94 20t-72 20q-30 0 -48 -38zM70 0v700h185v-700h-185z" />
<glyph unicode="&#x129;" horiz-adv-x="300" d="M-59 627q19 57 52.5 88.5t74.5 31.5q35 0 89 -20t66 -20q26 0 43 38l94 -42q-19 -57 -52 -88.5t-74 -31.5q-35 0 -89 20t-67 20q-25 0 -43 -38zM60 0v526h180v-526h-180z" />
<glyph unicode="&#x12a;" horiz-adv-x="325" d="M12 777v114h300v-114h-300zM70 0v700h185v-700h-185z" />
<glyph unicode="&#x12b;" horiz-adv-x="300" d="M15 612v114h270v-114h-270zM60 0v526h180v-526h-180z" />
<glyph unicode="&#x12c;" horiz-adv-x="325" d="M-29 897h118q0 -43 73 -43t73 43h118q0 -80 -57.5 -120.5t-133.5 -40.5t-133.5 40.5t-57.5 120.5zM70 0v700h185v-700h-185z" />
<glyph unicode="&#x12d;" horiz-adv-x="300" d="M-31 754h118q0 -23 15 -43t48 -20t48 20t15 43h118q0 -48 -17 -85t-44.5 -57t-58 -29.5t-61.5 -9.5t-61.5 9.5t-58 29.5t-44.5 57t-17 85zM60 0v526h180v-526h-180z" />
<glyph unicode="&#x12e;" horiz-adv-x="325" d="M11 -143q0 81 104 143h-45v700h185v-700q-105 -57 -105 -116q0 -17 12 -26t26 -9q32 0 67 15v-88q-42 -24 -121 -24q-59 0 -91 30t-32 75z" />
<glyph unicode="&#x12f;" horiz-adv-x="300" d="M-4 -143q0 81 104 143h-30v526h180v-526h-10q-105 -57 -105 -116q0 -17 12 -26t26 -9q33 0 67 15v-88q-42 -24 -121 -24q-59 0 -91 30t-32 75zM60 667q0 43 28 71.5t72 28.5t72 -28.5t28 -71.5t-28 -71.5t-72 -28.5t-72 28.5t-28 71.5z" />
<glyph unicode="&#x130;" horiz-adv-x="325" d="M61 835q0 42 28 68.5t73 26.5t73 -26.5t28 -68.5t-28 -68.5t-73 -26.5t-73 26.5t-28 68.5zM70 0v700h185v-700h-185z" />
<glyph unicode="&#x131;" horiz-adv-x="300" d="M60 0v526h180v-526h-180z" />
<glyph unicode="&#x132;" horiz-adv-x="939" d="M70 0v700h185v-700h-185zM355 250h182q1 -73 21.5 -102.5t59.5 -29.5q76 0 76 99v483h185v-463q0 -128 -74.5 -190t-186.5 -62q-57 0 -101.5 12t-82 40.5t-58 82.5t-21.5 130z" />
<glyph unicode="&#x133;" d="M60 667q0 43 28 71.5t72 28.5t72 -28.5t28 -71.5t-28 -71.5t-72 -28.5t-72 28.5t-28 71.5zM70 0v526h180v-526h-180zM350 667q0 43 28 71.5t72 28.5t72 -28.5t28 -71.5t-28 -71.5t-72 -28.5t-72 28.5t-28 71.5zM360 -208v734h180v-734h-180z" />
<glyph unicode="&#x134;" horiz-adv-x="614" d="M30 250h182q1 -73 21.5 -102.5t59.5 -29.5q76 0 76 99v483h185v-463q0 -128 -74.5 -190t-186.5 -62q-57 0 -101.5 12t-82 40.5t-58 82.5t-21.5 130zM221 749l152 148h177l152 -148h-160l-81 57l-80 -57h-160z" />
<glyph unicode="&#x135;" horiz-adv-x="300" d="M-60 586l132 168h157l132 -168h-140l-71 64l-70 -64h-140zM60 -208v734h180v-734h-180z" />
<glyph unicode="&#x136;" horiz-adv-x="675" d="M70 0v700h185v-304l198 304h172l-206 -315l246 -385h-210l-200 332v-332h-185zM229 -248l20 200h157l-59 -200h-118z" />
<glyph unicode="&#x137;" horiz-adv-x="595" d="M60 0v744h180v-439l149 221h172l-163 -227l177 -299h-203l-132 239v-239h-180zM189 -248l20 200h157l-59 -200h-118z" />
<glyph unicode="&#x138;" horiz-adv-x="595" d="M60 0v526h180v-221l149 221h172l-163 -227l177 -299h-203l-132 239v-239h-180z" />
<glyph unicode="&#x139;" horiz-adv-x="525" d="M38 749l132 148h217l-209 -148h-140zM70 0v700h185v-561h240v-139h-425z" />
<glyph unicode="&#x13a;" horiz-adv-x="300" d="M16 779l132 148h217l-209 -148h-140zM60 0v744h180v-744h-180z" />
<glyph unicode="&#x13b;" horiz-adv-x="525" d="M70 0v700h185v-561h240v-139h-425zM184 -248l20 200h157l-59 -200h-118z" />
<glyph unicode="&#x13c;" horiz-adv-x="300" d="M52 -248l20 200h157l-59 -200h-118zM60 0v744h180v-744h-180z" />
<glyph unicode="&#x13d;" horiz-adv-x="525" d="M70 0v700h185v-561h240v-139h-425zM305 563v240h151l-31 -240h-120z" />
<glyph unicode="&#x13e;" horiz-adv-x="421" d="M60 0v744h180v-744h-180zM290 563v240h151l-31 -240h-120z" />
<glyph unicode="&#x13f;" horiz-adv-x="525" d="M70 0v700h185v-561h240v-139h-425zM295 365q0 43 28 71.5t72 28.5t72 -28.5t28 -71.5t-28 -71.5t-72 -28.5t-72 28.5t-28 71.5z" />
<glyph unicode="&#x140;" horiz-adv-x="460" d="M60 0v744h180v-744h-180zM280 365q0 43 28 71.5t72 28.5t72 -28.5t28 -71.5t-28 -71.5t-72 -28.5t-72 28.5t-28 71.5z" />
<glyph unicode="&#x141;" horiz-adv-x="525" d="M-10 174v149l80 47v330h185v-223l130 76v-149l-130 -76v-189h240v-139h-425v221z" />
<glyph unicode="&#x142;" horiz-adv-x="360" d="M10 219v124l80 47v354h180v-250l80 47v-124l-80 -47v-370h-180v266z" />
<glyph unicode="&#x143;" horiz-adv-x="733" d="M70 0v700h160l267 -418l-4 217v201h170v-700h-160l-267 417l4 -217v-200h-170zM232 749l132 148h217l-209 -148h-140z" />
<glyph unicode="&#x144;" horiz-adv-x="629" d="M60 0v526h180v-70q83 85 183 85q63 0 104.5 -39t41.5 -135v-367h-180v337q0 63 -67 63q-44 0 -82 -33v-367h-180zM170 586l102 168h207l-169 -168h-140z" />
<glyph unicode="&#x145;" horiz-adv-x="733" d="M70 0v700h160l267 -418l-4 217v201h170v-700h-160l-267 417l4 -217v-200h-170zM278 -248l20 200h157l-59 -200h-118z" />
<glyph unicode="&#x146;" horiz-adv-x="629" d="M60 0v526h180v-70q83 85 183 85q63 0 104.5 -39t41.5 -135v-367h-180v337q0 63 -67 63q-44 0 -82 -33v-367h-180zM216 -248l20 200h157l-59 -200h-118z" />
<glyph unicode="&#x147;" horiz-adv-x="733" d="M70 0v700h160l267 -418l-4 217v201h170v-700h-160l-267 417l4 -217v-200h-170zM126 897h160l80 -57l81 57h160l-152 -148h-177z" />
<glyph unicode="&#x148;" horiz-adv-x="629" d="M60 0v526h180v-70q83 85 183 85q63 0 104.5 -39t41.5 -135v-367h-180v337q0 63 -67 63q-44 0 -82 -33v-367h-180zM94 754h140l70 -64l71 64h140l-132 -168h-157z" />
<glyph unicode="&#x14a;" horiz-adv-x="733" d="M70 0v700h160l267 -418l-4 217v201h170v-700q0 -120 -65.5 -171.5t-167.5 -51.5q-54 0 -96 21v126q43 -14 96 -14q73 0 73 90l-267 417l4 -217v-200h-170z" />
<glyph unicode="&#x14b;" horiz-adv-x="629" d="M60 0v526h180v-70q83 85 183 85q63 0 104.5 -39t41.5 -135v-575h-180v545q0 63 -67 63q-44 0 -82 -33v-367h-180z" />
<glyph unicode="&#x14c;" horiz-adv-x="744" d="M40 350q0 167 89.5 266t242.5 99t242.5 -99t89.5 -266t-89.5 -266t-242.5 -99t-242.5 99t-89.5 266zM192 777v114h360v-114h-360zM235 350q0 -226 137 -226t137 226t-137 226t-137 -226z" />
<glyph unicode="&#x14d;" horiz-adv-x="604" d="M40 263q0 129 70 203.5t192 74.5t192 -74.5t70 -203.5t-70 -203.5t-192 -74.5t-192 74.5t-70 203.5zM137 612v114h330v-114h-330zM220 263q0 -83 19.5 -123t62.5 -40t62.5 40t19.5 123t-19.5 123t-62.5 40t-62.5 -40t-19.5 -123z" />
<glyph unicode="&#x14e;" horiz-adv-x="744" d="M40 350q0 167 89.5 266t242.5 99t242.5 -99t89.5 -266t-89.5 -266t-242.5 -99t-242.5 99t-89.5 266zM181 897h118q0 -43 73 -43t73 43h118q0 -80 -57.5 -120.5t-133.5 -40.5t-133.5 40.5t-57.5 120.5zM235 350q0 -226 137 -226t137 226t-137 226t-137 -226z" />
<glyph unicode="&#x14f;" horiz-adv-x="604" d="M40 263q0 129 70 203.5t192 74.5t192 -74.5t70 -203.5t-70 -203.5t-192 -74.5t-192 74.5t-70 203.5zM121 754h118q0 -23 15 -43t48 -20t48 20t15 43h118q0 -48 -17 -85t-44.5 -57t-58 -29.5t-61.5 -9.5t-61.5 9.5t-58 29.5t-44.5 57t-17 85zM220 263q0 -83 19.5 -123 t62.5 -40t62.5 40t19.5 123t-19.5 123t-62.5 40t-62.5 -40t-19.5 -123z" />
<glyph unicode="&#x150;" horiz-adv-x="744" d="M40 350q0 167 89.5 266t242.5 99t242.5 -99t89.5 -266t-89.5 -266t-242.5 -99t-242.5 99t-89.5 266zM149 749l102 148h197l-169 -148h-130zM235 350q0 -226 137 -226t137 226t-137 226t-137 -226zM376 749l102 148h197l-169 -148h-130z" />
<glyph unicode="&#x151;" horiz-adv-x="604" d="M40 263q0 129 70 203.5t192 74.5t192 -74.5t70 -203.5t-70 -203.5t-192 -74.5t-192 74.5t-70 203.5zM94 586l82 168h202l-154 -168h-130zM220 263q0 -83 19.5 -123t62.5 -40t62.5 40t19.5 123t-19.5 123t-62.5 40t-62.5 -40t-19.5 -123zM326 586l82 168h202l-154 -168 h-130z" />
<glyph unicode="&#x152;" horiz-adv-x="1009" d="M70 350q0 162 100 256t257 94h522v-139h-265v-123h245v-139h-245v-160h265v-139h-522q-157 0 -257 94t-100 256zM265 350q0 -98 42.5 -154.5t119.5 -56.5h72v422h-72q-77 0 -119.5 -56.5t-42.5 -154.5z" />
<glyph unicode="&#x153;" horiz-adv-x="919" d="M40 263q0 129 70 203.5t192 74.5q109 0 169 -68q63 68 163 68q120 0 187 -76.5t56 -240.5h-322q4 -70 24 -97t57 -27q59 0 67 65h171q-10 -86 -74.5 -133t-163.5 -47q-111 0 -169 64q-59 -64 -165 -64q-122 0 -192 74.5t-70 203.5zM220 263q0 -83 19.5 -123t62.5 -40 t62.5 40t19.5 123t-19.5 123t-62.5 40t-62.5 -40t-19.5 -123zM557 323h150q-3 59 -21.5 83t-51.5 24q-65 0 -77 -107z" />
<glyph unicode="&#x154;" horiz-adv-x="644" d="M70 0v700h253q53 0 100.5 -13t87.5 -39.5t63.5 -72.5t23.5 -105q0 -143 -129 -201l165 -269h-206l-129 240h-44v-240h-185zM148 749l132 148h217l-209 -148h-140zM255 368h68q36 0 63 25.5t27 76.5q0 48 -27 72t-63 24h-68v-198z" />
<glyph unicode="&#x155;" horiz-adv-x="455" d="M60 0v526h180v-100q25 55 64.5 85t76.5 30q35 0 64 -18v-159q-38 16 -78 16q-39 0 -74.5 -14.5t-52.5 -38.5v-327h-180zM98 586l102 168h207l-169 -168h-140z" />
<glyph unicode="&#x156;" horiz-adv-x="644" d="M70 0v700h253q53 0 100.5 -13t87.5 -39.5t63.5 -72.5t23.5 -105q0 -143 -129 -201l165 -269h-206l-129 240h-44v-240h-185zM234 -248l20 200h157l-59 -200h-118zM255 368h68q36 0 63 25.5t27 76.5q0 48 -27 72t-63 24h-68v-198z" />
<glyph unicode="&#x157;" horiz-adv-x="455" d="M54 -248l20 200h157l-59 -200h-118zM60 0v526h180v-100q25 55 64.5 85t76.5 30q35 0 64 -18v-159q-38 16 -78 16q-39 0 -74.5 -14.5t-52.5 -38.5v-327h-180z" />
<glyph unicode="&#x158;" horiz-adv-x="644" d="M62 897h160l80 -57l81 57h160l-152 -148h-177zM70 0v700h253q53 0 100.5 -13t87.5 -39.5t63.5 -72.5t23.5 -105q0 -143 -129 -201l165 -269h-206l-129 240h-44v-240h-185zM255 368h68q36 0 63 25.5t27 76.5q0 48 -27 72t-63 24h-68v-198z" />
<glyph unicode="&#x159;" horiz-adv-x="455" d="M32 754h140l70 -64l71 64h140l-132 -168h-157zM60 0v526h180v-100q25 55 64.5 85t76.5 30q35 0 64 -18v-159q-38 16 -78 16q-39 0 -74.5 -14.5t-52.5 -38.5v-327h-180z" />
<glyph unicode="&#x15a;" horiz-adv-x="645" d="M40 218h188q7 -99 106 -99q42 0 68.5 18t26.5 53q0 15 -4 26.5t-14 20t-19 14.5t-26.5 11t-29 7.5t-34.5 6.5t-35 7q-49 11 -80.5 22t-68 34t-55 62.5t-18.5 94.5q0 101 73.5 160t190.5 59q134 0 204.5 -55t80.5 -170h-188q-7 91 -97 91q-40 0 -64 -17.5t-24 -51.5 q0 -15 4 -27t14 -20.5t18.5 -14.5t27 -11t29 -7.5t35 -7.5t34.5 -7q31 -7 46 -10.5t43 -12.5t43 -18t35 -24.5t30 -33.5t17.5 -45t7.5 -59q0 -100 -80 -164.5t-191 -64.5q-284 0 -294 233zM168 749l132 148h217l-209 -148h-140z" />
<glyph unicode="&#x15b;" horiz-adv-x="523" d="M30 163h168q0 -35 19.5 -52.5t52.5 -17.5q67 0 67 48q0 24 -22 33.5t-72 18.5q-13 2 -19 3q-44 8 -71.5 17t-58.5 27t-46.5 50t-15.5 78q0 81 61.5 127t153.5 46q117 0 172.5 -40.5t60.5 -125.5h-168q-4 58 -65 58q-59 0 -59 -44q0 -30 33 -41q12 -4 78 -16q29 -5 42 -8 t38 -10t37.5 -14t30 -19.5t25.5 -27.5t14.5 -37.5t6.5 -49.5q0 -83 -63.5 -132t-159.5 -49q-231 0 -240 178zM117 586l102 168h207l-169 -168h-140z" />
<glyph unicode="&#x15c;" horiz-adv-x="645" d="M40 218h188q7 -99 106 -99q42 0 68.5 18t26.5 53q0 15 -4 26.5t-14 20t-19 14.5t-26.5 11t-29 7.5t-34.5 6.5t-35 7q-49 11 -80.5 22t-68 34t-55 62.5t-18.5 94.5q0 101 73.5 160t190.5 59q134 0 204.5 -55t80.5 -170h-188q-7 91 -97 91q-40 0 -64 -17.5t-24 -51.5 q0 -15 4 -27t14 -20.5t18.5 -14.5t27 -11t29 -7.5t35 -7.5t34.5 -7q31 -7 46 -10.5t43 -12.5t43 -18t35 -24.5t30 -33.5t17.5 -45t7.5 -59q0 -100 -80 -164.5t-191 -64.5q-284 0 -294 233zM82 749l152 148h177l152 -148h-160l-81 57l-80 -57h-160z" />
<glyph unicode="&#x15d;" horiz-adv-x="523" d="M30 163h168q0 -35 19.5 -52.5t52.5 -17.5q67 0 67 48q0 24 -22 33.5t-72 18.5q-13 2 -19 3q-44 8 -71.5 17t-58.5 27t-46.5 50t-15.5 78q0 81 61.5 127t153.5 46q117 0 172.5 -40.5t60.5 -125.5h-168q-4 58 -65 58q-59 0 -59 -44q0 -30 33 -41q12 -4 78 -16q29 -5 42 -8 t38 -10t37.5 -14t30 -19.5t25.5 -27.5t14.5 -37.5t6.5 -49.5q0 -83 -63.5 -132t-159.5 -49q-231 0 -240 178zM41 586l132 168h157l132 -168h-140l-71 64l-70 -64h-140z" />
<glyph unicode="&#x15e;" horiz-adv-x="645" d="M40 218h188q7 -99 106 -99q42 0 68.5 18t26.5 53q0 15 -4 26.5t-14 20t-19 14.5t-26.5 11t-29 7.5t-34.5 6.5t-35 7q-49 11 -80.5 22t-68 34t-55 62.5t-18.5 94.5q0 101 73.5 160t190.5 59q134 0 204.5 -55t80.5 -170h-188q-7 91 -97 91q-40 0 -64 -17.5t-24 -51.5 q0 -15 4 -27t14 -20.5t18.5 -14.5t27 -11t29 -7.5t35 -7.5t34.5 -7q31 -7 46 -10.5t43 -12.5t43 -18t35 -24.5t30 -33.5t17.5 -45t7.5 -59q0 -92 -69.5 -155t-170.5 -73l-35 -47q44 1 78 -20t34 -64q0 -51 -41.5 -77t-105.5 -26q-42 0 -73 15v68q27 -13 63 -13q37 0 37 26 q0 25 -37 25q-12 0 -32 -5l-28 48l54 71q-230 22 -239 231z" />
<glyph unicode="&#x15f;" horiz-adv-x="523" d="M30 163h168q0 -35 19.5 -52.5t52.5 -17.5q67 0 67 48q0 24 -22 33.5t-72 18.5q-13 2 -19 3q-44 8 -71.5 17t-58.5 27t-46.5 50t-15.5 78q0 81 61.5 127t153.5 46q117 0 172.5 -40.5t60.5 -125.5h-168q-4 58 -65 58q-59 0 -59 -44q0 -30 33 -41q12 -4 78 -16q29 -5 42 -8 t38 -10t37.5 -14t30 -19.5t25.5 -27.5t14.5 -37.5t6.5 -49.5q0 -77 -56 -125.5t-143 -54.5l-35 -47q44 1 78 -20t34 -64q0 -51 -41.5 -77t-105.5 -26q-42 0 -73 15v68q27 -13 63 -13q37 0 37 26q0 25 -37 25q-12 0 -32 -5l-28 48l55 73q-172 22 -179 174z" />
<glyph unicode="&#x160;" horiz-adv-x="645" d="M40 218h188q7 -99 106 -99q42 0 68.5 18t26.5 53q0 15 -4 26.5t-14 20t-19 14.5t-26.5 11t-29 7.5t-34.5 6.5t-35 7q-49 11 -80.5 22t-68 34t-55 62.5t-18.5 94.5q0 101 73.5 160t190.5 59q134 0 204.5 -55t80.5 -170h-188q-7 91 -97 91q-40 0 -64 -17.5t-24 -51.5 q0 -15 4 -27t14 -20.5t18.5 -14.5t27 -11t29 -7.5t35 -7.5t34.5 -7q31 -7 46 -10.5t43 -12.5t43 -18t35 -24.5t30 -33.5t17.5 -45t7.5 -59q0 -100 -80 -164.5t-191 -64.5q-284 0 -294 233zM72 897h160l80 -57l81 57h160l-152 -148h-177z" />
<glyph unicode="&#x161;" horiz-adv-x="523" d="M30 163h168q0 -35 19.5 -52.5t52.5 -17.5q67 0 67 48q0 24 -22 33.5t-72 18.5q-13 2 -19 3q-44 8 -71.5 17t-58.5 27t-46.5 50t-15.5 78q0 81 61.5 127t153.5 46q117 0 172.5 -40.5t60.5 -125.5h-168q-4 58 -65 58q-59 0 -59 -44q0 -30 33 -41q12 -4 78 -16q29 -5 42 -8 t38 -10t37.5 -14t30 -19.5t25.5 -27.5t14.5 -37.5t6.5 -49.5q0 -83 -63.5 -132t-159.5 -49q-231 0 -240 178zM41 754h140l70 -64l71 64h140l-132 -168h-157z" />
<glyph unicode="&#x162;" horiz-adv-x="577" d="M30 561v139h517v-139h-166v-561h-50l-45 -61q44 1 78 -20t34 -64q0 -51 -41.5 -77t-105.5 -26q-42 0 -73 15v68q27 -13 63 -13q37 0 37 26q0 25 -37 25q-12 0 -32 -5l-28 48l63 84h-48v561h-166z" />
<glyph unicode="&#x163;" horiz-adv-x="440" d="M20 406v120h80v134h180v-134h120v-120h-120v-219q0 -85 60 -85q18 0 60 10v-105q-64 -22 -123 -22h-5l-34 -46q44 1 78 -20t34 -64q0 -51 -41.5 -77t-105.5 -26q-42 0 -73 15v68q27 -13 63 -13q37 0 37 26q0 25 -37 25q-12 0 -32 -5l-28 48l62 82q-95 34 -95 166v242h-80 z" />
<glyph unicode="&#x164;" horiz-adv-x="577" d="M30 561v139h517v-139h-166v-561h-185v561h-166zM48 897h160l80 -57l81 57h160l-152 -148h-177z" />
<glyph unicode="&#x165;" horiz-adv-x="440" d="M20 406v120h80v134h180v-134h120v-120h-120v-219q0 -85 60 -85q18 0 60 10v-105q-64 -22 -123 -22q-177 0 -177 179v242h-80zM330 563v240h151l-31 -240h-120z" />
<glyph unicode="&#x166;" horiz-adv-x="577" d="M30 561v139h517v-139h-166v-143h110v-139h-110v-279h-185v279h-100v139h100v143h-166z" />
<glyph unicode="&#x167;" horiz-adv-x="440" d="M20 224v114h80v68h-80v120h80v134h180v-134h120v-120h-120v-68h70v-114h-70v-37q0 -85 60 -85q18 0 60 10v-105q-64 -22 -123 -22q-177 0 -177 179v60h-80z" />
<glyph unicode="&#x168;" horiz-adv-x="708" d="M60 237v463h185v-443q0 -133 117 -133q57 0 86.5 29.5t29.5 83.5v463h170v-443q0 -138 -77.5 -205t-208.5 -67q-135 0 -218.5 61.5t-83.5 190.5zM135 791q19 57 55 88.5t77 31.5q35 0 94 -20t71 -20q31 0 48 38l94 -42q-18 -57 -54 -88.5t-77 -31.5q-35 0 -94 20t-72 20 q-30 0 -48 -38z" />
<glyph unicode="&#x169;" horiz-adv-x="623" d="M60 159v367h180v-337q0 -63 64 -63q41 0 79 33v367h180v-526h-180v70q-83 -85 -180 -85q-143 0 -143 174zM102 627q19 57 52.5 88.5t74.5 31.5q35 0 89 -20t66 -20q26 0 43 38l94 -42q-19 -57 -52 -88.5t-74 -31.5q-35 0 -89 20t-67 20q-25 0 -43 -38z" />
<glyph unicode="&#x16a;" horiz-adv-x="708" d="M60 237v463h185v-443q0 -133 117 -133q57 0 86.5 29.5t29.5 83.5v463h170v-443q0 -138 -77.5 -205t-208.5 -67q-135 0 -218.5 61.5t-83.5 190.5zM174 777v114h360v-114h-360z" />
<glyph unicode="&#x16b;" horiz-adv-x="623" d="M60 159v367h180v-337q0 -63 64 -63q41 0 79 33v367h180v-526h-180v70q-83 -85 -180 -85q-143 0 -143 174zM146 612v114h330v-114h-330z" />
<glyph unicode="&#x16c;" horiz-adv-x="708" d="M60 237v463h185v-443q0 -133 117 -133q57 0 86.5 29.5t29.5 83.5v463h170v-443q0 -138 -77.5 -205t-208.5 -67q-135 0 -218.5 61.5t-83.5 190.5zM163 897h118q0 -43 73 -43t73 43h118q0 -80 -57.5 -120.5t-133.5 -40.5t-133.5 40.5t-57.5 120.5z" />
<glyph unicode="&#x16d;" horiz-adv-x="623" d="M60 159v367h180v-337q0 -63 64 -63q41 0 79 33v367h180v-526h-180v70q-83 -85 -180 -85q-143 0 -143 174zM130 754h118q0 -23 15 -43t48 -20t48 20t15 43h118q0 -48 -17 -85t-44.5 -57t-58 -29.5t-61.5 -9.5t-61.5 9.5t-58 29.5t-44.5 57t-17 85z" />
<glyph unicode="&#x16e;" horiz-adv-x="708" d="M60 237v463h185v-443q0 -133 117 -133q57 0 86.5 29.5t29.5 83.5v463h170v-443q0 -138 -77.5 -205t-208.5 -67q-135 0 -218.5 61.5t-83.5 190.5zM215 824q0 47 40 77.5t99 30.5t99 -30.5t40 -77.5t-40 -77.5t-99 -30.5t-99 30.5t-40 77.5zM312 824q0 -17 11.5 -28.5 t30.5 -11.5t30.5 11.5t11.5 28.5t-11.5 28.5t-30.5 11.5t-30.5 -11.5t-11.5 -28.5z" />
<glyph unicode="&#x16f;" horiz-adv-x="623" d="M60 159v367h180v-337q0 -63 64 -63q41 0 79 33v367h180v-526h-180v70q-83 -85 -180 -85q-143 0 -143 174zM172 667q0 47 39.5 75t99.5 28t99.5 -28t39.5 -75t-39.5 -75t-99.5 -28t-99.5 28t-39.5 75zM269 667q0 -15 11.5 -25t30.5 -10t30.5 10t11.5 25t-11.5 25t-30.5 10 t-30.5 -10t-11.5 -25z" />
<glyph unicode="&#x170;" horiz-adv-x="708" d="M60 237v463h185v-443q0 -133 117 -133q57 0 86.5 29.5t29.5 83.5v463h170v-443q0 -138 -77.5 -205t-208.5 -67q-135 0 -218.5 61.5t-83.5 190.5zM131 749l102 148h197l-169 -148h-130zM358 749l102 148h197l-169 -148h-130z" />
<glyph unicode="&#x171;" horiz-adv-x="623" d="M60 159v367h180v-337q0 -63 64 -63q41 0 79 33v367h180v-526h-180v70q-83 -85 -180 -85q-143 0 -143 174zM93 586l82 168h202l-154 -168h-130zM325 586l82 168h202l-154 -168h-130z" />
<glyph unicode="&#x172;" horiz-adv-x="708" d="M60 237v463h185v-443q0 -133 117 -133q57 0 86.5 29.5t29.5 83.5v463h170v-443q0 -111 -50.5 -176t-139.5 -86q-97 -54 -97 -111q0 -17 12 -26t26 -9q33 0 67 15v-88q-42 -24 -121 -24q-59 0 -91 30t-32 75q0 74 85 131q-112 11 -179.5 72.5t-67.5 176.5z" />
<glyph unicode="&#x173;" horiz-adv-x="623" d="M60 159v367h180v-337q0 -63 64 -63q41 0 79 33v367h180v-526q-105 -57 -105 -116q0 -17 12 -26t26 -9q32 0 67 15v-88q-42 -24 -121 -24q-59 0 -91 30t-32 75q0 81 104 143h-40v70q-83 -85 -180 -85q-143 0 -143 174z" />
<glyph unicode="&#x174;" horiz-adv-x="973" d="M10 700h193l55 -268l44 -230l46 230l59 268h179l58 -268l46 -230l44 230l56 268h173l-186 -700h-193l-50 225l-46 230l-48 -230l-51 -225h-193zM246 749l152 148h177l152 -148h-160l-81 57l-80 -57h-160z" />
<glyph unicode="&#x175;" horiz-adv-x="846" d="M10 526h181l25 -127l47 -220l58 220l34 127h155l34 -127l56 -221l49 221l26 126h161l-157 -526h-174l-27 112l-52 220l-57 -220l-30 -111h-174zM213 586l132 168h157l132 -168h-140l-71 64l-70 -64h-140z" />
<glyph unicode="&#x176;" horiz-adv-x="621" d="M10 700h194l124 -305l124 305h159l-208 -445v-255h-185v255zM70 749l152 148h177l152 -148h-160l-81 57l-80 -57h-160z" />
<glyph unicode="&#x177;" horiz-adv-x="554" d="M10 526h190l28 -105l59 -220l62 220l30 105h165l-251 -734h-156l71 208zM77 586l132 168h157l132 -168h-140l-71 64l-70 -64h-140z" />
<glyph unicode="&#x178;" horiz-adv-x="621" d="M10 700h194l124 -305l124 305h159l-208 -445v-255h-185v255zM100 836q0 40 26.5 65t68.5 25t68.5 -25t26.5 -65t-26.5 -65t-68.5 -25t-68.5 25t-26.5 65zM330 836q0 40 26.5 65t68.5 25t68.5 -25t26.5 -65t-26.5 -65t-68.5 -25t-68.5 25t-26.5 65z" />
<glyph unicode="&#x179;" horiz-adv-x="562" d="M40 0v139l270 422h-270v139h482v-139l-270 -422h270v-139h-482zM147 749l132 148h217l-209 -148h-140z" />
<glyph unicode="&#x17a;" horiz-adv-x="470" d="M30 0v120l218 286h-208v120h400v-120l-218 -286h218v-120h-410zM121 586l102 168h207l-169 -168h-140z" />
<glyph unicode="&#x17b;" horiz-adv-x="562" d="M40 0v139l270 422h-270v139h482v-139l-270 -422h270v-139h-482zM180 835q0 42 28 68.5t73 26.5t73 -26.5t28 -68.5t-28 -68.5t-73 -26.5t-73 26.5t-28 68.5z" />
<glyph unicode="&#x17c;" horiz-adv-x="470" d="M30 0v120l218 286h-208v120h400v-120l-218 -286h218v-120h-410zM135 667q0 43 28 71.5t72 28.5t72 -28.5t28 -71.5t-28 -71.5t-72 -28.5t-72 28.5t-28 71.5z" />
<glyph unicode="&#x17d;" horiz-adv-x="562" d="M40 0v139l270 422h-270v139h482v-139l-270 -422h270v-139h-482zM41 897h160l80 -57l81 57h160l-152 -148h-177z" />
<glyph unicode="&#x17e;" horiz-adv-x="470" d="M30 0v120l218 286h-208v120h400v-120l-218 -286h218v-120h-410zM35 754h140l70 -64l71 64h140l-132 -168h-157z" />
<glyph unicode="&#x17f;" horiz-adv-x="330" d="M60 0v566q0 97 54.5 145t142.5 48q72 0 113 -19v-115q-29 7 -65 7q-27 0 -46 -14.5t-19 -50.5v-567h-180z" />
<glyph unicode="&#x192;" horiz-adv-x="669" d="M-60 -18h188q4 -35 16.5 -53t41.5 -18q24 0 40 18t16 51v187h-150v139h150v190q0 101 66.5 160t174.5 59q231 0 246 -205h-188q-4 35 -16.5 53t-41.5 18q-24 0 -40 -18t-16 -51v-206h150v-139h-150v-171q0 -101 -66.5 -160t-174.5 -59q-231 0 -246 205z" />
<glyph unicode="&#x1fc;" horiz-adv-x="1001" d="M0 0l471 700h470v-139h-265v-123h245v-139h-245v-160h265v-139h-450v142h-202l-84 -142h-205zM370 278h121v202zM486 749l132 148h217l-209 -148h-140z" />
<glyph unicode="&#x1fd;" horiz-adv-x="889" d="M40 131q0 79 63 125.5t192 46.5q27 0 59 -3v50q0 76 -64 76q-33 0 -50.5 -18t-18.5 -62h-171q5 100 70.5 147.5t169.5 47.5q102 0 160 -54q65 54 154 54q120 0 187 -76.5t56 -240.5h-322q4 -69 23.5 -96.5t57.5 -27.5q59 0 67 65h171q-10 -86 -74.5 -133t-163.5 -47 q-130 0 -195 81q-99 -81 -212 -81q-79 0 -119 38.5t-40 107.5zM216 155q0 -52 62 -52q47 0 93 40q-10 31 -14 67q-34 4 -54 4q-35 0 -61 -13.5t-26 -45.5zM312 586l102 168h207l-169 -168h-140zM527 323h150q-3 59 -21.5 83t-51.5 24q-65 0 -77 -107z" />
<glyph unicode="&#x218;" horiz-adv-x="645" d="M40 218h188q7 -99 106 -99q42 0 68.5 18t26.5 53q0 15 -4 26.5t-14 20t-19 14.5t-26.5 11t-29 7.5t-34.5 6.5t-35 7q-49 11 -80.5 22t-68 34t-55 62.5t-18.5 94.5q0 101 73.5 160t190.5 59q134 0 204.5 -55t80.5 -170h-188q-7 91 -97 91q-40 0 -64 -17.5t-24 -51.5 q0 -15 4 -27t14 -20.5t18.5 -14.5t27 -11t29 -7.5t35 -7.5t34.5 -7q31 -7 46 -10.5t43 -12.5t43 -18t35 -24.5t30 -33.5t17.5 -45t7.5 -59q0 -100 -80 -164.5t-191 -64.5q-284 0 -294 233zM234 -248l20 200h157l-59 -200h-118z" />
<glyph unicode="&#x219;" horiz-adv-x="523" d="M30 163h168q0 -35 19.5 -52.5t52.5 -17.5q67 0 67 48q0 24 -22 33.5t-72 18.5q-13 2 -19 3q-44 8 -71.5 17t-58.5 27t-46.5 50t-15.5 78q0 81 61.5 127t153.5 46q117 0 172.5 -40.5t60.5 -125.5h-168q-4 58 -65 58q-59 0 -59 -44q0 -30 33 -41q12 -4 78 -16q29 -5 42 -8 t38 -10t37.5 -14t30 -19.5t25.5 -27.5t14.5 -37.5t6.5 -49.5q0 -83 -63.5 -132t-159.5 -49q-231 0 -240 178zM173 -248l20 200h157l-59 -200h-118z" />
<glyph unicode="&#x21a;" horiz-adv-x="577" d="M30 561v139h517v-139h-166v-561h-185v561h-166zM190 -248l20 200h157l-59 -200h-118z" />
<glyph unicode="&#x21b;" horiz-adv-x="440" d="M20 406v120h80v134h180v-134h120v-120h-120v-219q0 -85 60 -85q18 0 60 10v-105q-64 -22 -123 -22q-177 0 -177 179v242h-80zM142 -248l20 200h157l-59 -200h-118z" />
<glyph unicode="&#x2c6;" horiz-adv-x="521" d="M50 586l132 168h157l132 -168h-140l-71 64l-70 -64h-140z" />
<glyph unicode="&#x2c7;" horiz-adv-x="521" d="M50 754h140l70 -64l71 64h140l-132 -168h-157z" />
<glyph unicode="&#x2d8;" horiz-adv-x="462" d="M50 754h118q0 -23 15 -43t48 -20t48 20t15 43h118q0 -48 -17 -85t-44.5 -57t-58 -29.5t-61.5 -9.5t-61.5 9.5t-58 29.5t-44.5 57t-17 85z" />
<glyph unicode="&#x2d9;" horiz-adv-x="300" d="M50 667q0 43 28 71.5t72 28.5t72 -28.5t28 -71.5t-28 -71.5t-72 -28.5t-72 28.5t-28 71.5z" />
<glyph unicode="&#x2da;" horiz-adv-x="378" d="M50 667q0 47 39.5 75t99.5 28t99.5 -28t39.5 -75t-39.5 -75t-99.5 -28t-99.5 28t-39.5 75zM147 667q0 -15 11.5 -25t30.5 -10t30.5 10t11.5 25t-11.5 25t-30.5 10t-30.5 -10t-11.5 -25z" />
<glyph unicode="&#x2db;" horiz-adv-x="344" d="M50 -143q0 81 104 143h140q-105 -57 -105 -116q0 -17 12 -26t26 -9q33 0 67 15v-88q-42 -24 -121 -24q-59 0 -91 30t-32 75z" />
<glyph unicode="&#x2dc;" horiz-adv-x="519" d="M50 627q19 57 52.5 88.5t74.5 31.5q35 0 89 -20t66 -20q26 0 43 38l94 -42q-19 -57 -52 -88.5t-74 -31.5q-35 0 -89 20t-67 20q-25 0 -43 -38z" />
<glyph unicode="&#x2dd;" horiz-adv-x="611" d="M50 586l82 168h202l-154 -168h-130zM282 586l82 168h202l-154 -168h-130z" />
<glyph unicode="&#x326;" horiz-adv-x="0" d="M-227 -248l20 200h157l-59 -200h-118z" />
<glyph unicode="&#x3c0;" horiz-adv-x="629" d="M60 0v526h509v-526h-180v406h-149v-406h-180z" />
<glyph unicode="&#xe3f;" horiz-adv-x="663" d="M70 0v700h154v120h170v-124q203 -22 203 -176q0 -47 -25.5 -87.5t-74.5 -56.5q126 -39 126 -166q0 -96 -64.5 -147t-164.5 -61v-122h-170v120h-154zM255 134h93q38 0 64 17.5t26 58.5q0 44 -26 62.5t-64 18.5h-93v-157zM255 419h67q90 0 90 76q0 71 -90 71h-67v-147z" />
<glyph unicode="&#x1e80;" horiz-adv-x="973" d="M10 700h193l55 -268l44 -230l46 230l59 268h179l58 -268l46 -230l44 230l56 268h173l-186 -700h-193l-50 225l-46 230l-48 -230l-51 -225h-193zM272 897h217l132 -148h-140z" />
<glyph unicode="&#x1e81;" horiz-adv-x="846" d="M10 526h181l25 -127l47 -220l58 220l34 127h155l34 -127l56 -221l49 221l26 126h161l-157 -526h-174l-27 112l-52 220l-57 -220l-30 -111h-174zM219 754h207l102 -168h-140z" />
<glyph unicode="&#x1e82;" horiz-adv-x="973" d="M10 700h193l55 -268l44 -230l46 230l59 268h179l58 -268l46 -230l44 230l56 268h173l-186 -700h-193l-50 225l-46 230l-48 -230l-51 -225h-193zM352 749l132 148h217l-209 -148h-140z" />
<glyph unicode="&#x1e83;" horiz-adv-x="846" d="M10 526h181l25 -127l47 -220l58 220l34 127h155l34 -127l56 -221l49 221l26 126h161l-157 -526h-174l-27 112l-52 220l-57 -220l-30 -111h-174zM319 586l102 168h207l-169 -168h-140z" />
<glyph unicode="&#x1e84;" horiz-adv-x="973" d="M10 700h193l55 -268l44 -230l46 230l59 268h179l58 -268l46 -230l44 230l56 268h173l-186 -700h-193l-50 225l-46 230l-48 -230l-51 -225h-193zM276 836q0 40 26.5 65t68.5 25t68.5 -25t26.5 -65t-26.5 -65t-68.5 -25t-68.5 25t-26.5 65zM506 836q0 40 26.5 65t68.5 25 t68.5 -25t26.5 -65t-26.5 -65t-68.5 -25t-68.5 25t-26.5 65z" />
<glyph unicode="&#x1e85;" horiz-adv-x="846" d="M10 526h181l25 -127l47 -220l58 220l34 127h155l34 -127l56 -221l49 221l26 126h161l-157 -526h-174l-27 112l-52 220l-57 -220l-30 -111h-174zM215 667q0 41 26 67.5t68 26.5t68 -26.5t26 -67.5t-26 -67.5t-68 -26.5t-68 26.5t-26 67.5zM443 667q0 41 26 67.5t68 26.5 t68 -26.5t26 -67.5t-26 -67.5t-68 -26.5t-68 26.5t-26 67.5z" />
<glyph unicode="&#x1e9e;" horiz-adv-x="720" d="M70 0v392q0 323 304 323h262v-139l-114 -177q48 -17 81.5 -44.5t49 -60t21.5 -59t6 -53.5q0 -100 -58.5 -148.5t-149.5 -48.5q-98 0 -145.5 45.5t-51.5 139.5h168q2 -25 4 -37.5t8 -20.5t17 -8q14 0 18.5 14t4.5 44q0 53 -29.5 86t-89.5 33h-30v139l100 156h-72 q-60 0 -89.5 -40t-29.5 -134v-402h-185z" />
<glyph unicode="&#x1ef2;" horiz-adv-x="621" d="M10 700h194l124 -305l124 305h159l-208 -445v-255h-185v255zM86 897h217l132 -148h-140z" />
<glyph unicode="&#x1ef3;" horiz-adv-x="554" d="M10 526h190l28 -105l59 -220l62 220l30 105h165l-251 -734h-156l71 208zM73 754h207l102 -168h-140z" />
<glyph unicode="&#x2000;" horiz-adv-x="467" />
<glyph unicode="&#x2001;" horiz-adv-x="935" />
<glyph unicode="&#x2002;" horiz-adv-x="467" />
<glyph unicode="&#x2003;" horiz-adv-x="935" />
<glyph unicode="&#x2004;" horiz-adv-x="311" />
<glyph unicode="&#x2005;" horiz-adv-x="233" />
<glyph unicode="&#x2006;" horiz-adv-x="155" />
<glyph unicode="&#x2007;" horiz-adv-x="155" />
<glyph unicode="&#x2008;" horiz-adv-x="116" />
<glyph unicode="&#x2009;" horiz-adv-x="187" />
<glyph unicode="&#x200a;" horiz-adv-x="51" />
<glyph unicode="&#x2010;" horiz-adv-x="350" d="M50 207v139h250v-139h-250z" />
<glyph unicode="&#x2011;" horiz-adv-x="350" d="M50 207v139h250v-139h-250z" />
<glyph unicode="&#x2012;" horiz-adv-x="350" d="M50 207v139h250v-139h-250z" />
<glyph unicode="&#x2013;" horiz-adv-x="500" d="M40 207v139h420v-139h-420z" />
<glyph unicode="&#x2014;" horiz-adv-x="1000" d="M40 207v139h920v-139h-920z" />
<glyph unicode="&#x2018;" horiz-adv-x="275" d="M10 580l117 280h138l-80 -280h-175z" />
<glyph unicode="&#x2019;" horiz-adv-x="275" d="M10 580l80 280h175l-117 -280h-138z" />
<glyph unicode="&#x201a;" horiz-adv-x="275" d="M10 -160l80 280h175l-117 -280h-138z" />
<glyph unicode="&#x201c;" horiz-adv-x="495" d="M10 580l117 280h138l-80 -280h-175zM230 580l117 280h138l-80 -280h-175z" />
<glyph unicode="&#x201d;" horiz-adv-x="495" d="M10 580l80 280h175l-117 -280h-138zM230 580l80 280h175l-117 -280h-138z" />
<glyph unicode="&#x201e;" horiz-adv-x="495" d="M10 -160l80 280h175l-117 -280h-138zM230 -160l80 280h175l-117 -280h-138z" />
<glyph unicode="&#x2020;" horiz-adv-x="577" d="M70 391v139h126v170h185v-170h126v-139h-126v-391h-185v391h-126z" />
<glyph unicode="&#x2021;" horiz-adv-x="577" d="M70 170v139h126v82h-126v139h126v170h185v-170h126v-139h-126v-82h126v-139h-126v-170h-185v170h-126z" />
<glyph unicode="&#x2022;" horiz-adv-x="414" d="M50 350q0 67 46 112t111 45t111 -45t46 -112q0 -68 -46 -112.5t-111 -44.5t-111 44.5t-46 112.5z" />
<glyph unicode="&#x2026;" horiz-adv-x="797" d="M20 85q0 44 27.5 71.5t72.5 27.5t72 -27.5t27 -71.5q0 -45 -27 -72.5t-72 -27.5t-72.5 28t-27.5 72zM299 85q0 44 27.5 71.5t72.5 27.5t72 -27.5t27 -71.5q0 -45 -27 -72.5t-72 -27.5t-72.5 28t-27.5 72zM578 85q0 44 27.5 71.5t72.5 27.5t72 -27.5t27 -71.5 q0 -45 -27 -72.5t-72 -27.5t-72.5 28t-27.5 72z" />
<glyph unicode="&#x202f;" horiz-adv-x="187" />
<glyph unicode="&#x2030;" horiz-adv-x="1516" d="M50 490q0 100 55 159.5t147 59.5t147 -59.5t55 -159.5t-55 -159.5t-147 -59.5t-147 59.5t-55 159.5zM198 490q0 -56 11.5 -86t42.5 -30t42.5 30t11.5 86t-11.5 86t-42.5 30t-42.5 -30t-11.5 -86zM217 0l475 700h173l-475 -700h-173zM628 210q0 100 55 159.5t147 59.5 t147 -59.5t55 -159.5t-55 -159.5t-147 -59.5t-147 59.5t-55 159.5zM776 210q0 -56 11.5 -86t42.5 -30t42.5 30t11.5 86t-11.5 86t-42.5 30t-42.5 -30t-11.5 -86zM1062 210q0 100 55 159.5t147 59.5t147 -59.5t55 -159.5t-55 -159.5t-147 -59.5t-147 59.5t-55 159.5z M1210 210q0 -56 11.5 -86t42.5 -30t42.5 30t11.5 86t-11.5 86t-42.5 30t-42.5 -30t-11.5 -86z" />
<glyph unicode="&#x2039;" horiz-adv-x="340" d="M50 202v159l240 180v-184l-100 -71l100 -70v-194z" />
<glyph unicode="&#x203a;" horiz-adv-x="340" d="M50 22v184l100 71l-100 70v194l240 -180v-159z" />
<glyph unicode="&#x2044;" horiz-adv-x="348" d="M-150 0l475 700h173l-475 -700h-173z" />
<glyph unicode="&#x205f;" horiz-adv-x="233" />
<glyph unicode="&#x20a1;" horiz-adv-x="677" d="M-2 -120l76 275q-34 81 -34 195q0 121 47.5 209.5t132.5 127.5l37 133h170l-29 -107q30 -3 54 -9l32 116h170l-58 -210q48 -67 51 -170h-188q-4 69 -28.5 102.5t-76.5 33.5q-61 0 -90 -61.5t-29 -164.5q0 -226 119 -226q52 0 76.5 33.5t28.5 102.5h188 q-4 -116 -62.5 -184t-158.5 -85l-31 -111h-170l32 116q-27 7 -52 18l-37 -134h-170z" />
<glyph unicode="&#x20a5;" horiz-adv-x="946" d="M60 0v526h180v-65q83 85 180 85q58 0 92 -29l53 119h170l-43 -96q26 6 51 6q143 0 143 -174v-372h-180v342q0 63 -64 63q-7 0 -11 -1l-68 -151v-253h-114l-49 -110h-170l153 341v111q0 63 -64 63q-41 0 -79 -33v-372h-180z" />
<glyph unicode="&#x20a6;" horiz-adv-x="773" d="M20 174v139h90v70h-90v139h90v178h160l227 -408l-4 217v191h170v-178h90v-139h-90v-70h90v-139h-90v-174h-160l-227 407l4 -217v-190h-170v174h-90z" />
<glyph unicode="&#x20a8;" horiz-adv-x="608" d="M20 379v139h291q-21 43 -78 43h-213v139h73h495v-139h-124q18 -20 29 -43h95v-139h-89q-34 -129 -181 -161l236 -218h-216l-213 210v128h108q51 0 74 41h-287z" />
<glyph unicode="&#x20a9;" horiz-adv-x="993" d="M20 174v139h117l-17 70h-100v139h65l-45 178h193l48 -268l41 -230l42 230l53 268h179l52 -268l42 -230l41 230l49 268h173l-45 -178h65v-139h-100l-17 -70h117v-139h-152l-44 -174h-193l-46 225l-40 230l-42 -230l-47 -225h-193l-44 174h-152z" />
<glyph unicode="&#x20aa;" horiz-adv-x="881" d="M100 0v700h274q136 0 193 -63t57 -194q0 -86 -25 -234h-143q16 156 16 201q0 76 -24 113.5t-84 37.5h-114v-561h-150zM285 0v491h150v-352h99q64 0 91.5 56t27.5 163q0 111 -32 342h143q37 -203 37 -352q0 -167 -59 -257.5t-198 -90.5h-259z" />
<glyph unicode="&#x20ab;" horiz-adv-x="596" d="M40 0v113h536v-113h-536zM40 353q0 94 52 151t131 57q82 0 127 -56v74h-91v113h91v52h172v-52h54v-113h-54v-420h-172v43q-58 -57 -140 -57q-81 0 -125.5 55.5t-44.5 152.5zM205 353q0 -42 21 -68.5t57 -26.5q35 0 67 25v141q-31 23 -62 23q-37 0 -60 -26t-23 -68z" />
<glyph unicode="&#x20ac;" horiz-adv-x="707" d="M30 167v139h66q-1 14 -1 44q0 17 1 26h-66v139h91q33 95 102.5 147.5t165.5 52.5q125 0 204.5 -69.5t83.5 -205.5h-188q-8 136 -100 136q-58 0 -80 -61h118v-139h-137v-26v-44h137v-139h-113q24 -43 75 -43q92 0 100 136h188q-4 -136 -83.5 -205.5t-204.5 -69.5 q-206 0 -268 182h-91z" />
<glyph unicode="&#x20ad;" horiz-adv-x="685" d="M20 299v139h90v262h185v-262h5l174 262h172l-182 -262h179v-139h-162l194 -299h-210l-170 290v-290h-185v299h-90z" />
<glyph unicode="&#x20ae;" horiz-adv-x="577" d="M30 561v139h517v-139h-166v-60l110 38v-144l-110 -38v-51l110 38v-144l-110 -38v-162h-185v97l-110 -38v144l110 38v51l-110 -38v144l110 38v125h-166z" />
<glyph unicode="&#x20b1;" horiz-adv-x="713" d="M20 383v139h90v178h228q95 0 169.5 -45.5t97.5 -132.5h88v-139h-89q-24 -85 -98.5 -129t-167.5 -44h-43v-210h-185v383h-90zM295 344h43q35 0 62.5 29.5t27.5 81.5t-27.5 81.5t-62.5 29.5h-43v-222z" />
<glyph unicode="&#x20b4;" horiz-adv-x="659" d="M40 279v139h326q47 37 47 88q0 35 -20 55t-58 20q-90 0 -97 -91h-188q10 115 80.5 170t204.5 55q118 0 186 -46t68 -132q0 -70 -52 -119h82v-139h-340q-43 -36 -43 -85q0 -35 20 -55t58 -20q90 0 97 91h188q-10 -115 -80.5 -170t-204.5 -55q-118 0 -186 46t-68 132 q0 70 49 116h-69z" />
<glyph unicode="&#x20b5;" horiz-adv-x="677" d="M40 350q0 137 60 230.5t164 122.5v117h170v-112q97 -19 153 -86.5t60 -181.5h-188q-4 69 -28.5 102.5t-76.5 33.5q-61 0 -90 -61.5t-29 -164.5q0 -226 119 -226q52 0 76.5 33.5t28.5 102.5h188q-4 -114 -60 -181.5t-153 -86.5v-112h-170v114q-113 26 -168.5 118.5 t-55.5 237.5z" />
<glyph unicode="&#x2113;" horiz-adv-x="510" d="M40 146v105q54 22 80 34v144q0 140 53.5 213t153.5 73q75 0 119 -41t44 -130q0 -153 -200 -281v-76q0 -42 20.5 -63.5t49.5 -21.5q18 0 60 10v-105q-64 -22 -123 -22q-177 0 -177 179v13q-32 -14 -80 -31zM290 401q56 62 56 141q0 58 -26 58q-18 0 -24 -35.5t-6 -135.5 v-28z" />
<glyph unicode="&#x2117;" horiz-adv-x="830" d="M50 350q0 152 105 258.5t260 106.5t260 -106.5t105 -258.5t-105 -258.5t-260 -106.5t-260 106.5t-105 258.5zM144 350q0 -116 78 -196.5t193 -80.5t193 80.5t78 196.5t-78 196.5t-193 80.5t-193 -80.5t-78 -196.5zM287 143v413h148q66 0 116.5 -37.5t50.5 -107.5 t-50.5 -107t-116.5 -37h-28v-124h-120zM407 351h28q20 0 33.5 15t13.5 45q0 60 -47 60h-28v-120z" />
<glyph unicode="&#x2120;" horiz-adv-x="695" d="M50 495h92q4 -34 40 -34q35 0 35 25q0 5 -1.5 8.5t-5.5 6t-7.5 4t-10 3t-11.5 2t-13.5 2t-14.5 2.5q-29 5 -48 12t-36 28.5t-17 55.5q0 44 34 71t85 27q119 0 129 -97h-92q-4 29 -37 29t-33 -21q0 -5 1.5 -8.5t5.5 -6t7.5 -4t10 -3t11.5 -2t13.5 -2t14.5 -2.5 q29 -5 48 -12t36 -28.5t17 -55.5q0 -45 -34 -73.5t-87 -28.5q-122 0 -132 102zM338 401v299h97l58 -160l55 160h97v-299h-83v66l1 95l-38 -115h-67l-40 110l3 -94v-62h-83z" />
<glyph unicode="&#x2122;" horiz-adv-x="682" d="M50 632v68h234v-68h-73v-231h-90v231h-71zM325 401v299h97l58 -160l55 160h97v-299h-83v66l1 95l-38 -115h-67l-40 110l3 -94v-62h-83z" />
<glyph unicode="&#x2126;" horiz-adv-x="744" d="M40 0v139h159q-70 43 -114.5 116.5t-44.5 154.5q0 126 91.5 215.5t240.5 89.5t240.5 -89.5t91.5 -215.5q0 -81 -44.5 -154.5t-114.5 -116.5h159v-139h-282v139q38 26 62.5 88.5t24.5 132.5q0 216 -137 216t-137 -216q0 -70 24.5 -132.5t62.5 -88.5v-139h-282z" />
<glyph unicode="&#x212e;" horiz-adv-x="774" d="M50 321q0 144 98 241t239 97t239 -97t98 -241h-523v-239q79 -65 186 -65q75 0 138 34t104 93h47q-45 -74 -121.5 -117t-167.5 -43q-141 0 -239 96.5t-98 240.5zM201 354h373l-1 206q-80 66 -186 66t-186 -66v-206z" />
<glyph unicode="&#x2153;" horiz-adv-x="1011" d="M50 527v119l107 54h144v-420h-144v301zM161 0l475 700h173l-475 -700h-173zM593 120h142q3 -33 44 -33q22 0 32 10.5t10 24.5q0 20 -14.5 29.5t-53.5 9.5h-46v99h46q59 0 59 42q0 31 -32 31q-36 0 -39 -33h-142q5 61 54 95t127 34q76 0 124 -31t48 -89q0 -29 -18 -55 t-52 -37q79 -19 79 -96q0 -59 -52 -94.5t-130 -35.5q-177 0 -186 129z" />
<glyph unicode="&#x2154;" horiz-adv-x="1099" d="M50 568q5 69 53.5 105t128.5 36q81 0 127 -35t46 -96q0 -51 -29.5 -85.5t-124.5 -105.5h158v-107h-345v107q22 17 52 39t46 34t36 28t30 26t19.5 21.5t13.5 21.5t4 21q0 35 -33 35q-37 0 -40 -45h-142zM249 0l475 700h173l-475 -700h-173zM681 120h142q3 -33 44 -33 q22 0 32 10.5t10 24.5q0 20 -14.5 29.5t-53.5 9.5h-46v99h46q59 0 59 42q0 31 -32 31q-36 0 -39 -33h-142q5 61 54 95t127 34q76 0 124 -31t48 -89q0 -29 -18 -55t-52 -37q79 -19 79 -96q0 -59 -52 -94.5t-130 -35.5q-177 0 -186 129z" />
<glyph unicode="&#x215b;" horiz-adv-x="1032" d="M50 527v119l107 54h144v-420h-144v301zM161 0l475 700h173l-475 -700h-173zM594 114q0 34 20 62.5t63 40.5q-33 12 -52.5 37.5t-19.5 52.5q0 59 50.5 90.5t132.5 31.5t132.5 -31.5t50.5 -90.5q0 -27 -19.5 -52.5t-52.5 -37.5q43 -12 63 -40.5t20 -62.5q0 -60 -51.5 -91.5 t-142.5 -31.5t-142.5 31.5t-51.5 91.5zM736 126q0 -39 52 -39t52 39t-52 39t-52 -39zM745 295q0 -38 43 -38t43 38t-43 38t-43 -38z" />
<glyph unicode="&#x215c;" horiz-adv-x="1080" d="M50 400h142q3 -33 44 -33q22 0 32 10.5t10 24.5q0 20 -14.5 29.5t-53.5 9.5h-46v99h46q59 0 59 42q0 31 -32 31q-36 0 -39 -33h-142q5 61 54 95t127 34q76 0 124 -31t48 -89q0 -29 -18 -55t-52 -37q79 -19 79 -96q0 -59 -52 -94.5t-130 -35.5q-177 0 -186 129zM209 0 l475 700h173l-475 -700h-173zM642 114q0 34 20 62.5t63 40.5q-33 12 -52.5 37.5t-19.5 52.5q0 59 50.5 90.5t132.5 31.5t132.5 -31.5t50.5 -90.5q0 -27 -19.5 -52.5t-52.5 -37.5q43 -12 63 -40.5t20 -62.5q0 -60 -51.5 -91.5t-142.5 -31.5t-142.5 31.5t-51.5 91.5zM784 126 q0 -39 52 -39t52 39t-52 39t-52 -39zM793 295q0 -38 43 -38t43 38t-43 38t-43 -38z" />
<glyph unicode="&#x215d;" horiz-adv-x="1061" d="M50 400h142q4 -33 38 -33q35 0 35 54q0 51 -41 51q-26 0 -48 -20h-114v248h314v-107h-200v-62q39 33 93 33q63 0 99.5 -37t36.5 -106q0 -68 -50.5 -109t-124.5 -41q-81 0 -128 32.5t-52 96.5zM190 0l475 700h173l-475 -700h-173zM623 114q0 34 20 62.5t63 40.5 q-33 12 -52.5 37.5t-19.5 52.5q0 59 50.5 90.5t132.5 31.5t132.5 -31.5t50.5 -90.5q0 -27 -19.5 -52.5t-52.5 -37.5q43 -12 63 -40.5t20 -62.5q0 -60 -51.5 -91.5t-142.5 -31.5t-142.5 31.5t-51.5 91.5zM765 126q0 -39 52 -39t52 39t-52 39t-52 -39zM774 295q0 -38 43 -38 t43 38t-43 38t-43 -38z" />
<glyph unicode="&#x215e;" horiz-adv-x="969" d="M50 593v107h311v-107l-143 -313h-137l146 313h-177zM98 0l475 700h173l-475 -700h-173zM531 114q0 34 20 62.5t63 40.5q-33 12 -52.5 37.5t-19.5 52.5q0 59 50.5 90.5t132.5 31.5t132.5 -31.5t50.5 -90.5q0 -27 -19.5 -52.5t-52.5 -37.5q43 -12 63 -40.5t20 -62.5 q0 -60 -51.5 -91.5t-142.5 -31.5t-142.5 31.5t-51.5 91.5zM673 126q0 -39 52 -39t52 39t-52 39t-52 -39zM682 295q0 -38 43 -38t43 38t-43 38t-43 -38z" />
<glyph unicode="&#x2190;" horiz-adv-x="788" d="M40 251l319 318l98 -98l-151 -151h442v-138h-442l151 -151l-98 -98z" />
<glyph unicode="&#x2191;" horiz-adv-x="716" d="M40 286l318 319l318 -319l-98 -98l-151 151v-442h-138v442l-151 -151z" />
<glyph unicode="&#x2192;" horiz-adv-x="788" d="M40 182v138h442l-151 151l98 98l319 -318l-319 -318l-98 98l151 151h-442z" />
<glyph unicode="&#x2193;" horiz-adv-x="716" d="M40 216l98 98l151 -151v442h138v-442l151 151l98 -98l-318 -319z" />
<glyph unicode="&#x2196;" horiz-adv-x="670" d="M80 76v450h450v-139h-213l313 -312l-98 -98l-313 312v-213h-139z" />
<glyph unicode="&#x2197;" horiz-adv-x="670" d="M40 75l312 312h-212v139h450v-450h-139v213l-313 -312z" />
<glyph unicode="&#x2198;" horiz-adv-x="670" d="M40 428l98 98l313 -312v213h139v-450h-450v139h212z" />
<glyph unicode="&#x2199;" horiz-adv-x="670" d="M80 -23v450h139v-213l313 312l98 -98l-313 -312h213v-139h-450z" />
<glyph unicode="&#x2202;" horiz-adv-x="660" d="M40 187q0 119 65 192.5t177 73.5q40 0 80.5 -20t63.5 -51q10 62 10 110q0 62 -19 97.5t-52 35.5q-27 0 -42 -14.5t-25 -48.5h-188q27 98 100.5 147.5t177.5 49.5q103 0 167.5 -76.5t64.5 -210.5q0 -219 -98.5 -353t-261.5 -134q-98 0 -159 55t-61 147zM228 200 q0 -33 13.5 -57t42.5 -24q32 0 64 48t55 123q-32 26 -77 26q-29 0 -50 -12.5t-30.5 -32t-13.5 -37t-4 -34.5z" />
<glyph unicode="&#x2205;" horiz-adv-x="662" d="M50 366q0 121 81 201.5t200 80.5q47 0 91 -14l49 76l114 -72l-48 -76q75 -80 75 -196q0 -121 -81 -201.5t-200 -80.5q-45 0 -89 14l-49 -77l-114 73l48 75q-77 80 -77 197zM189 366q0 -40 18 -72l136 215h-12q-60 0 -101 -40t-41 -103zM322 223h9q60 0 101 40t41 103 q0 39 -17 70z" />
<glyph unicode="&#x2206;" horiz-adv-x="631" d="M30 0v139l189 561h193l189 -561v-139h-571zM197 139h217l-48 169l-60 230l-60 -230z" />
<glyph unicode="&#x220f;" horiz-adv-x="753" d="M70 0v700h613v-700h-185v561h-243v-561h-185z" />
<glyph unicode="&#x2211;" horiz-adv-x="580" d="M70 0v139l168 215l-168 207v139h450v-139h-246l108 -133v-139l-118 -150h256v-139h-450z" />
<glyph unicode="&#x2212;" horiz-adv-x="580" d="M50 297v139h480v-139h-480z" />
<glyph unicode="&#x221a;" horiz-adv-x="673" d="M20 406v120h240l36 -133l59 -220l58 220l85 307h165l-229 -700h-181l-142 406h-91z" />
<glyph unicode="&#x221e;" horiz-adv-x="926" d="M50 353q0 91 58 152.5t145 61.5q99 0 210 -109q111 109 210 109q87 0 145 -61.5t58 -152.5t-58 -152.5t-145 -61.5q-99 0 -210 109q-111 -109 -210 -109q-87 0 -145 61.5t-58 152.5zM211 353q0 -26 15.5 -44.5t43.5 -18.5q39 0 103 62q-62 64 -103 64q-28 0 -43.5 -18.5 t-15.5 -44.5zM553 352q64 -62 103 -62q28 0 43.5 18.5t15.5 44.5t-15.5 44.5t-43.5 18.5q-41 0 -103 -64z" />
<glyph unicode="&#x222b;" horiz-adv-x="457" d="M60 -89q76 0 76 69v516q0 102 69.5 160.5t191.5 58.5v-134q-76 0 -76 -69v-516q0 -102 -69.5 -160.5t-191.5 -58.5v134z" />
<glyph unicode="&#x2248;" horiz-adv-x="654" d="M50 216q26 77 74.5 109.5t98.5 32.5q53 0 115.5 -30.5t84.5 -30.5q37 0 65 55l116 -55q-26 -77 -74.5 -109.5t-98.5 -32.5q-41 0 -79.5 15.5t-68.5 31t-52 15.5q-36 0 -65 -56zM50 436q26 77 74.5 109.5t98.5 32.5q53 0 115.5 -30.5t84.5 -30.5q37 0 65 55l116 -55 q-26 -77 -74.5 -109.5t-98.5 -32.5q-41 0 -79.5 15.5t-68.5 31t-52 15.5q-36 0 -65 -56z" />
<glyph unicode="&#x2260;" horiz-adv-x="580" d="M50 187v139h151l31 81h-182v139h235l49 130h146l-49 -130h99v-139h-152l-31 -81h183v-139h-235l-50 -131h-146l50 131h-99z" />
<glyph unicode="&#x2264;" horiz-adv-x="580" d="M50 0v139h480v-139h-480zM50 367v139l480 190v-134l-305 -121l305 -120v-144z" />
<glyph unicode="&#x2265;" horiz-adv-x="580" d="M50 0v139h480v-139h-480zM50 177v134l305 121l-305 120v144l480 -190v-139z" />
<glyph unicode="&#x25ca;" horiz-adv-x="605" d="M50 350l160 350h185l160 -350l-160 -350h-185zM223 350l79 -173l80 173l-80 172z" />
<glyph unicode="&#x25fc;" horiz-adv-x="525" d="M0 0v525h525v-525h-525z" />
<glyph unicode="&#x27f5;" horiz-adv-x="1428" d="M40 251l319 318l98 -98l-151 -151h1082v-138h-1082l151 -151l-98 -98z" />
<glyph unicode="&#x27f6;" horiz-adv-x="1428" d="M40 182v138h1082l-151 151l98 98l319 -318l-319 -318l-98 98l151 151h-1082z" />
<glyph unicode="&#x301a;" horiz-adv-x="435" d="M120 -125v950h295v-119h-79v-712h79v-119h-295zM213 -6h30v712h-30v-712z" />
<glyph unicode="&#x301b;" horiz-adv-x="435" d="M20 -6h79v712h-79v119h295v-950h-295v119zM192 -6h30v712h-30v-712z" />
<glyph horiz-adv-x="744" d="M40 350q0 167 89.5 266t242.5 99t242.5 -99t89.5 -266t-89.5 -266t-242.5 -99t-242.5 99t-89.5 266zM235 350q0 -226 137 -226t137 226t-137 226t-137 -226zM242 -40h390v-139h-390v139z" />
<glyph horiz-adv-x="614" d="M40 263q0 116 58.5 197t149.5 81q76 0 126 -62v47h180v-526h-180v48q-35 -33 -66.5 -48t-73.5 -15q-94 0 -144 79t-50 199zM220 263q0 -153 85 -153q34 0 69 27v253q-34 26 -64 26q-90 0 -90 -153z" />
<glyph horiz-adv-x="629" d="M20 -83q0 68 84 117q-44 28 -44 86q0 64 51 117q-73 45 -73 131q0 85 69.5 129t179.5 44q64 0 115 -15h187v-120h-57q4 -16 4 -38q0 -85 -69.5 -129t-179.5 -44q-44 0 -87 8q-3 -9 -3 -19q0 -33 36 -33h159q94 0 140.5 -42t46.5 -115q0 -91 -88 -154t-223 -63 q-119 0 -183.5 36t-64.5 104zM175 -33q0 -38 28 -59.5t78 -21.5q64 0 96 20.5t32 56.5q0 21 -15.5 33t-35.5 12h-136q-16 0 -42 2q-5 -22 -5 -43zM200 368q0 -35 25 -52t62 -17t62 17t25 52t-25 52t-62 17t-62 -17t-25 -52z" />
<glyph horiz-adv-x="300" d="M-60 -99q29 -7 55 -7q65 0 65 75v557h180v-556q0 -97 -56 -145t-151 -48q-52 0 -93 19v105zM50 667q0 43 28 71.5t72 28.5t72 -28.5t28 -71.5t-28 -71.5t-72 -28.5t-72 28.5t-28 71.5z" />
<glyph horiz-adv-x="420" d="M20 406v120h100v134h180v-134h100v-120h-100v-406h-180v406h-100z" />
<glyph d="M60 667q0 43 28 71.5t72 28.5t72 -28.5t28 -71.5t-28 -71.5t-72 -28.5t-72 28.5t-28 71.5zM70 0v526h180v-526h-180zM240 -99q29 -7 55 -7q65 0 65 75v557h180v-556q0 -97 -56 -145t-151 -48q-52 0 -93 19v105zM350 667q0 43 28 71.5t72 28.5t72 -28.5t28 -71.5 t-28 -71.5t-72 -28.5t-72 28.5t-28 71.5z" />
<glyph horiz-adv-x="614" d="M40 263q0 116 58.5 197t149.5 81q76 0 126 -62v47h180v-526h-180v48q-35 -33 -66.5 -48t-73.5 -15q-94 0 -144 79t-50 199zM173 586l102 168h207l-169 -168h-140zM220 263q0 -153 85 -153q34 0 69 27v253q-34 26 -64 26q-90 0 -90 -153z" />
<glyph horiz-adv-x="614" d="M40 263q0 116 58.5 197t149.5 81q76 0 126 -62v47h180v-526h-180v48q-35 -33 -66.5 -48t-73.5 -15q-94 0 -144 79t-50 199zM136 754h118q0 -23 15 -43t48 -20t48 20t15 43h118q0 -48 -17 -85t-44.5 -57t-58 -29.5t-61.5 -9.5t-61.5 9.5t-58 29.5t-44.5 57t-17 85z M220 263q0 -153 85 -153q34 0 69 27v253q-34 26 -64 26q-90 0 -90 -153z" />
<glyph horiz-adv-x="614" d="M40 263q0 116 58.5 197t149.5 81q76 0 126 -62v47h180v-526h-180v48q-35 -33 -66.5 -48t-73.5 -15q-94 0 -144 79t-50 199zM107 586l132 168h157l132 -168h-140l-71 64l-70 -64h-140zM220 263q0 -153 85 -153q34 0 69 27v253q-34 26 -64 26q-90 0 -90 -153z" />
<glyph horiz-adv-x="614" d="M40 263q0 116 58.5 197t149.5 81q76 0 126 -62v47h180v-526h-180v48q-35 -33 -66.5 -48t-73.5 -15q-94 0 -144 79t-50 199zM119 667q0 41 26 67.5t68 26.5t68 -26.5t26 -67.5t-26 -67.5t-68 -26.5t-68 26.5t-26 67.5zM220 263q0 -153 85 -153q34 0 69 27v253 q-34 26 -64 26q-90 0 -90 -153zM347 667q0 41 26 67.5t68 26.5t68 -26.5t26 -67.5t-26 -67.5t-68 -26.5t-68 26.5t-26 67.5z" />
<glyph horiz-adv-x="614" d="M40 263q0 116 58.5 197t149.5 81q76 0 126 -62v47h180v-526h-180v48q-35 -33 -66.5 -48t-73.5 -15q-94 0 -144 79t-50 199zM113 754h207l102 -168h-140zM220 263q0 -153 85 -153q34 0 69 27v253q-34 26 -64 26q-90 0 -90 -153z" />
<glyph horiz-adv-x="614" d="M40 263q0 116 58.5 197t149.5 81q76 0 126 -62v47h180v-526h-180v48q-35 -33 -66.5 -48t-73.5 -15q-94 0 -144 79t-50 199zM152 612v114h330v-114h-330zM220 263q0 -153 85 -153q34 0 69 27v253q-34 26 -64 26q-90 0 -90 -153z" />
<glyph horiz-adv-x="614" d="M40 263q0 116 58.5 197t149.5 81q76 0 126 -62v47h180v-526q-105 -57 -105 -116q0 -17 12 -26t26 -9q33 0 67 15v-88q-42 -24 -121 -24q-59 0 -91 30t-32 75q0 81 104 143h-40v48q-35 -33 -66.5 -48t-73.5 -15q-94 0 -144 79t-50 199zM220 263q0 -153 85 -153q34 0 69 27 v253q-34 26 -64 26q-90 0 -90 -153z" />
<glyph horiz-adv-x="614" d="M40 263q0 116 58.5 197t149.5 81q76 0 126 -62v47h180v-526h-180v48q-35 -33 -66.5 -48t-73.5 -15q-94 0 -144 79t-50 199zM178 667q0 47 39.5 75t99.5 28t99.5 -28t39.5 -75t-39.5 -75t-99.5 -28t-99.5 28t-39.5 75zM220 263q0 -153 85 -153q34 0 69 27v253 q-34 26 -64 26q-90 0 -90 -153zM275 667q0 -15 11.5 -25t30.5 -10t30.5 10t11.5 25t-11.5 25t-30.5 10t-30.5 -10t-11.5 -25z" />
<glyph horiz-adv-x="614" d="M40 263q0 116 58.5 197t149.5 81q76 0 126 -62v47h180v-526h-180v48q-35 -33 -66.5 -48t-73.5 -15q-94 0 -144 79t-50 199zM108 627q19 57 52.5 88.5t74.5 31.5q35 0 89 -20t66 -20q26 0 43 38l94 -42q-19 -57 -52 -88.5t-74 -31.5q-35 0 -89 20t-67 20q-25 0 -43 -38z M220 263q0 -153 85 -153q34 0 69 27v253q-34 26 -64 26q-90 0 -90 -153z" />
<glyph horiz-adv-x="629" d="M20 -83q0 68 84 117q-44 28 -44 86q0 64 51 117q-73 45 -73 131q0 85 69.5 129t179.5 44q64 0 115 -15h187v-120h-57q4 -16 4 -38q0 -85 -69.5 -129t-179.5 -44q-44 0 -87 8q-3 -9 -3 -19q0 -33 36 -33h159q94 0 140.5 -42t46.5 -115q0 -91 -88 -154t-223 -63 q-119 0 -183.5 36t-64.5 104zM113 754h118q0 -23 15 -43t48 -20t48 20t15 43h118q0 -48 -17 -85t-44.5 -57t-58 -29.5t-61.5 -9.5t-61.5 9.5t-58 29.5t-44.5 57t-17 85zM175 -33q0 -38 28 -59.5t78 -21.5q64 0 96 20.5t32 56.5q0 21 -15.5 33t-35.5 12h-136q-16 0 -42 2 q-5 -22 -5 -43zM200 368q0 -35 25 -52t62 -17t62 17t25 52t-25 52t-62 17t-62 -17t-25 -52z" />
<glyph horiz-adv-x="629" d="M20 -83q0 68 84 117q-44 28 -44 86q0 64 51 117q-73 45 -73 131q0 85 69.5 129t179.5 44q64 0 115 -15h187v-120h-57q4 -16 4 -38q0 -85 -69.5 -129t-179.5 -44q-44 0 -87 8q-3 -9 -3 -19q0 -33 36 -33h159q94 0 140.5 -42t46.5 -115q0 -91 -88 -154t-223 -63 q-119 0 -183.5 36t-64.5 104zM84 586l132 168h157l132 -168h-140l-71 64l-70 -64h-140zM175 -33q0 -38 28 -59.5t78 -21.5q64 0 96 20.5t32 56.5q0 21 -15.5 33t-35.5 12h-136q-16 0 -42 2q-5 -22 -5 -43zM200 368q0 -35 25 -52t62 -17t62 17t25 52t-25 52t-62 17t-62 -17 t-25 -52z" />
<glyph horiz-adv-x="629" d="M20 -83q0 68 84 117q-44 28 -44 86q0 64 51 117q-73 45 -73 131q0 85 69.5 129t179.5 44q64 0 115 -15h187v-120h-57q4 -16 4 -38q0 -85 -69.5 -129t-179.5 -44q-44 0 -87 8q-3 -9 -3 -19q0 -33 36 -33h159q94 0 140.5 -42t46.5 -115q0 -91 -88 -154t-223 -63 q-119 0 -183.5 36t-64.5 104zM175 -33q0 -38 28 -59.5t78 -21.5q64 0 96 20.5t32 56.5q0 21 -15.5 33t-35.5 12h-136q-16 0 -42 2q-5 -22 -5 -43zM196 580l59 200h118l-20 -200h-157zM200 368q0 -35 25 -52t62 -17t62 17t25 52t-25 52t-62 17t-62 -17t-25 -52z" />
<glyph horiz-adv-x="629" d="M20 -83q0 68 84 117q-44 28 -44 86q0 64 51 117q-73 45 -73 131q0 85 69.5 129t179.5 44q64 0 115 -15h187v-120h-57q4 -16 4 -38q0 -85 -69.5 -129t-179.5 -44q-44 0 -87 8q-3 -9 -3 -19q0 -33 36 -33h159q94 0 140.5 -42t46.5 -115q0 -91 -88 -154t-223 -63 q-119 0 -183.5 36t-64.5 104zM175 -33q0 -38 28 -59.5t78 -21.5q64 0 96 20.5t32 56.5q0 21 -15.5 33t-35.5 12h-136q-16 0 -42 2q-5 -22 -5 -43zM194 667q0 43 28 71.5t72 28.5t72 -28.5t28 -71.5t-28 -71.5t-72 -28.5t-72 28.5t-28 71.5zM200 368q0 -35 25 -52t62 -17 t62 17t25 52t-25 52t-62 17t-62 -17t-25 -52z" />
<glyph horiz-adv-x="300" d="M50 667q0 43 28 71.5t72 28.5t72 -28.5t28 -71.5t-28 -71.5t-72 -28.5t-72 28.5t-28 71.5zM60 0v526h180v-526h-180z" />
<glyph horiz-adv-x="300" d="M-60 -99q29 -7 55 -7q65 0 65 75v557h180v-556q0 -97 -56 -145t-151 -48q-52 0 -93 19v105zM-60 586l132 168h157l132 -168h-140l-71 64l-70 -64h-140z" />
<glyph horiz-adv-x="420" d="M20 406v120h100v134h180v-134h100v-120h-100v-68h80v-114h-80v-224h-180v224h-80v114h80v68h-100z" />
<glyph horiz-adv-x="420" d="M20 406v120h100v134h180v-134h100v-120h-100v-406h-180v406h-100zM350 563v240h151l-31 -240h-120z" />
<glyph horiz-adv-x="420" d="M20 406v120h100v134h180v-134h100v-120h-100v-406h-37l-45 -61q44 1 78 -20t34 -64q0 -51 -41.5 -77t-105.5 -26q-42 0 -73 15v68q27 -13 63 -13q37 0 37 26q0 25 -37 25q-12 0 -32 -5l-28 48l63 84h-56v406h-100z" />
<glyph horiz-adv-x="420" d="M20 406v120h100v134h180v-134h100v-120h-100v-406h-180v406h-100zM112 -248l20 200h157l-59 -200h-118z" />
<glyph horiz-adv-x="580" d="M10 0l184 543h174l202 -543h-182l-28 100h-163l-27 -100h-160zM230 225h96l-6 21l-42 156l-42 -156z" />
<glyph horiz-adv-x="588" d="M70 0v543h230q44 0 81.5 -6.5t72 -21t54.5 -43.5t20 -69q0 -36 -20.5 -67.5t-59.5 -44.5q100 -29 100 -128q0 -83 -67.5 -123t-160.5 -40h-250zM246 113h74q22 0 39 12.5t17 40.5q0 30 -17 42.5t-39 12.5h-74v-108zM246 330h54q56 0 56 51q0 49 -56 49h-54v-100z" />
<glyph horiz-adv-x="592" d="M40 271q0 128 76 207t196 79q107 0 176.5 -55.5t73.5 -160.5h-170q-6 46 -24 68.5t-56 22.5q-88 0 -88 -161t88 -161q38 0 56 22.5t24 68.5h170q-4 -105 -73.5 -160.5t-176.5 -55.5q-120 0 -196 79t-76 207z" />
<glyph horiz-adv-x="629" d="M70 0v543h221q133 0 215.5 -72.5t82.5 -199.5t-82.5 -199t-215.5 -72h-221zM246 125h45q57 0 85.5 38.5t28.5 107.5q0 70 -28.5 108.5t-85.5 38.5h-45v-293z" />
<glyph horiz-adv-x="518" d="M70 0v543h388v-125h-212v-75h196v-125h-196v-93h212v-125h-388z" />
<glyph horiz-adv-x="478" d="M70 0v543h378v-125h-202v-85h186v-125h-186v-208h-176z" />
<glyph horiz-adv-x="615" d="M40 271q0 128 76 207t196 79q105 0 172 -50.5t71 -142.5h-170q-6 34 -21 51t-52 17q-88 0 -88 -161t100 -161q45 0 71 20v39h-81v115h241v-284h-160v43q-20 -25 -59.5 -41.5t-75.5 -16.5q-109 0 -164.5 76.5t-55.5 209.5z" />
<glyph horiz-adv-x="662" d="M70 0v543h176v-200h170v200h176v-543h-176v218h-170v-218h-176z" />
<glyph horiz-adv-x="316" d="M70 0v543h176v-543h-176z" />
<glyph horiz-adv-x="551" d="M30 204h174q1 -94 60 -94q51 0 51 68v365h176v-349q0 -54 -20 -96t-53 -65.5t-72 -35.5t-82 -12q-46 0 -84.5 10t-73.5 33.5t-55 68.5t-21 107z" />
<glyph horiz-adv-x="602" d="M70 0v543h176v-234l147 234h166l-157 -240l190 -303h-202l-144 255v-255h-176z" />
<glyph horiz-adv-x="480" d="M70 0v543h176v-418h192v-125h-368z" />
<glyph horiz-adv-x="739" d="M70 0v543h182l118 -295l117 295h182v-543h-160v121l3 168l-70 -187h-145l-70 187l3 -168v-121h-160z" />
<glyph horiz-adv-x="652" d="M70 0v543h152l203 -303l-3 168v135h160v-543h-152l-203 303l3 -168v-135h-160z" />
<glyph horiz-adv-x="636" d="M40 271q0 128 77 207t201 79t201 -79t77 -207t-77 -207t-201 -79t-201 79t-77 207zM224 271q0 -73 23 -117t71 -44t71 44t23 117t-23 117t-71 44t-71 -44t-23 -117z" />
<glyph horiz-adv-x="566" d="M70 0v543h222q99 0 166.5 -51t67.5 -144q0 -94 -67.5 -144.5t-166.5 -50.5h-46v-153h-176zM246 274h46q23 0 42.5 17.5t19.5 56.5t-19.5 56.5t-42.5 17.5h-46v-148z" />
<glyph horiz-adv-x="636" d="M40 271q0 128 77 207t201 79t201 -79t77 -207q0 -81 -32 -144t-90 -99l112 -145h-200l-73 102q-121 2 -197 80.5t-76 205.5zM224 271q0 -73 23 -117t71 -44t71 44t23 117t-23 117t-71 44t-71 -44t-23 -117z" />
<glyph horiz-adv-x="636" d="M40 271q0 128 77 207t201 79t201 -79t77 -207t-77 -207t-201 -79t-201 79t-77 207zM218 -33h320v-125h-320v125zM224 271q0 -73 23 -117t71 -44t71 44t23 117t-23 117t-71 44t-71 -44t-23 -117z" />
<glyph horiz-adv-x="575" d="M70 0v543h216q99 0 166.5 -49.5t67.5 -140.5q0 -104 -93 -151l128 -202h-193l-96 173h-20v-173h-176zM246 284h40q23 0 42.5 16.5t19.5 52.5t-19.5 52.5t-42.5 16.5h-40v-138z" />
<glyph horiz-adv-x="576" d="M52 169h170q6 -65 75 -65q68 0 68 47q0 25 -26 36t-79 19q-26 4 -40 7t-39 10t-39 14.5t-33 21t-29 30t-17 41t-7 54.5q0 78 63.5 125.5t157.5 47.5q221 0 238 -177h-170q-6 58 -68 58q-26 0 -44 -11t-18 -34q0 -25 26 -36t79 -19q94 -16 128 -34q76 -39 76 -138 q0 -77 -69 -129t-158 -52q-111 0 -176 46t-69 138z" />
<glyph horiz-adv-x="502" d="M30 418v125h442v-125h-133v-418h-176v418h-133z" />
<glyph horiz-adv-x="636" d="M60 199v344h176v-329q0 -104 90 -104t90 89v344h160v-329q0 -108 -72.5 -168.5t-177.5 -60.5q-120 0 -193 54.5t-73 159.5z" />
<glyph horiz-adv-x="580" d="M10 543h182l54 -176l56 -186l56 186l52 176h160l-184 -543h-174z" />
<glyph horiz-adv-x="821" d="M10 543h180l40 -156l43 -176l39 176l34 156h145l40 -156l45 -176l40 176l37 156h158l-151 -543h-158l-39 149l-44 176l-37 -176l-33 -149h-174z" />
<glyph horiz-adv-x="549" d="M10 543h186l81 -145l85 145h162l-165 -260l180 -283h-186l-86 153l-90 -153h-162l170 267z" />
<glyph horiz-adv-x="544" d="M10 543h182l95 -207l94 207h153l-174 -354v-189h-176v207z" />
<glyph horiz-adv-x="476" d="M40 0v125l202 293h-202v125h396v-125l-202 -293h202v-125h-396z" />
<glyph horiz-adv-x="845" d="M10 0l357 543h418v-125h-212v-75h196v-125h-196v-93h212v-125h-388v100h-146l-57 -100h-184zM323 225h74v134l-62 -113z" />
<glyph horiz-adv-x="629" d="M10 208v125h60v210h221q133 0 215.5 -72.5t82.5 -199.5t-82.5 -199t-215.5 -72h-221v208h-60zM246 125h45q57 0 85.5 38.5t28.5 107.5q0 70 -28.5 108.5t-85.5 38.5h-45v-85h90v-125h-90v-83z" />
<glyph horiz-adv-x="867" d="M70 0v543h176v-543h-176zM346 204h174q1 -94 60 -94q51 0 51 68v365h176v-349q0 -54 -20 -96t-53 -65.5t-72 -35.5t-82 -12q-46 0 -84.5 10t-73.5 33.5t-55 68.5t-21 107z" />
<glyph horiz-adv-x="652" d="M70 0v543h152l203 -303l-3 168v135h160v-543q0 -173 -190 -173q-63 0 -97 16v120q34 -11 77 -11q58 0 58 48l-203 303l3 -168v-135h-160z" />
<glyph horiz-adv-x="636" d="M39 -70l75 137q-74 79 -74 204q0 128 77 207t201 79q33 0 63 -6l34 61h181l-75 -136q75 -80 75 -205q0 -128 -77 -207t-201 -79q-34 0 -64 6l-34 -61h-181zM224 271q0 -73 23 -117t71 -44t71 44t23 117t-23 117t-71 44t-71 -44t-23 -117z" />
<glyph horiz-adv-x="843" d="M40 271q0 127 82.5 199.5t215.5 72.5h445v-125h-212v-75h196v-125h-196v-93h212v-125h-445q-133 0 -215.5 72t-82.5 199zM224 271q0 -69 28.5 -107.5t85.5 -38.5h57v293h-57q-57 0 -85.5 -38.5t-28.5 -108.5z" />
<glyph horiz-adv-x="566" d="M70 0v543h176v-69h46q99 0 166.5 -51t67.5 -144q0 -94 -67.5 -144.5t-166.5 -50.5h-46v-84h-176zM246 205h46q23 0 42.5 17.5t19.5 56.5t-19.5 56.5t-42.5 17.5h-46v-148z" />
<glyph horiz-adv-x="636" d="M58 0v288q0 123 80 189t201 66h226v-125l-86 -112q67 -27 93 -73.5t26 -91.5q0 -77 -53 -116.5t-127 -39.5q-162 0 -168 157h142q2 -27 7.5 -37.5t21.5 -10.5q25 0 25 42q0 33 -29.5 55.5t-85.5 22.5h-22v116l68 88h-46q-45 0 -71 -25.5t-26 -94.5v-298h-176z" />
<glyph horiz-adv-x="580" d="M10 0l184 543h174l202 -543h-182l-28 100h-163l-27 -100h-160zM173 580l106 115h189l-167 -115h-128zM230 225h96l-6 21l-42 156l-42 -156z" />
<glyph horiz-adv-x="580" d="M10 0l184 543h174l202 -543h-182l-28 100h-163l-27 -100h-160zM116 695h110q0 -29 54 -29q53 0 53 29h111q0 -62 -48 -92t-116 -30q-69 0 -116.5 29.5t-47.5 92.5zM230 225h96l-6 21l-42 156l-42 -156z" />
<glyph horiz-adv-x="580" d="M10 0l184 543h174l202 -543h-182l-28 100h-163l-27 -100h-160zM83 580l127 115h141l127 -115h-138l-60 34l-59 -34h-138zM230 225h96l-6 21l-42 156l-42 -156z" />
<glyph horiz-adv-x="580" d="M10 0l184 543h174l202 -543h-182l-28 100h-163l-27 -100h-160zM107 648q0 31 23 51.5t57 20.5t57 -20.5t23 -51.5t-23 -51t-57 -20t-57 20t-23 51zM230 225h96l-6 21l-42 156l-42 -156zM295 648q0 31 22.5 51.5t56.5 20.5q35 0 57.5 -20.5t22.5 -51.5t-22.5 -51 t-57.5 -20q-34 0 -56.5 20t-22.5 51z" />
<glyph horiz-adv-x="580" d="M10 0l184 543h174l202 -543h-182l-28 100h-163l-27 -100h-160zM113 695h190l105 -115h-128zM230 225h96l-6 21l-42 156l-42 -156z" />
<glyph horiz-adv-x="580" d="M10 0l184 543h174l202 -543h-182l-28 100h-163l-27 -100h-160zM138 590v101h288v-101h-288zM230 225h96l-6 21l-42 156l-42 -156z" />
<glyph horiz-adv-x="580" d="M10 0l184 543h174l202 -543q-105 -57 -105 -116q0 -17 12 -26t26 -9q33 0 67 15v-88q-42 -24 -121 -24q-59 0 -91 30t-32 75q0 81 104 143h-42l-28 100h-163l-27 -100h-160zM230 225h96l-6 21l-42 156l-42 -156z" />
<glyph horiz-adv-x="580" d="M10 0l184 543h174l202 -543h-182l-28 100h-163l-27 -100h-160zM164 639q0 37 32 60t84 23t84 -23t32 -60t-32 -60t-84 -23t-84 23t-32 60zM230 225h96l-6 21l-42 156l-42 -156zM250 639q0 -11 8.5 -18.5t21.5 -7.5t21.5 7.5t8.5 18.5t-8.5 18.5t-21.5 7.5t-21.5 -7.5 t-8.5 -18.5z" />
<glyph horiz-adv-x="580" d="M10 0l184 543h174l202 -543h-182l-28 100h-163l-27 -100h-160zM96 614q32 96 109 96q26 0 74 -13.5t64 -13.5q19 0 34 25l87 -38q-32 -96 -109 -96q-26 0 -74 13.5t-64 13.5q-19 0 -34 -25zM230 225h96l-6 21l-42 156l-42 -156z" />
<glyph horiz-adv-x="592" d="M40 271q0 128 76 207t196 79q107 0 176.5 -55.5t73.5 -160.5h-170q-6 46 -24 68.5t-56 22.5q-88 0 -88 -161t88 -161q38 0 56 22.5t24 68.5h170q-4 -105 -73.5 -160.5t-176.5 -55.5q-120 0 -196 79t-76 207zM184 580l106 115h189l-167 -115h-128z" />
<glyph horiz-adv-x="592" d="M40 271q0 128 76 207t196 79q107 0 176.5 -55.5t73.5 -160.5h-170q-6 46 -24 68.5t-56 22.5q-88 0 -88 -161t88 -161q38 0 56 22.5t24 68.5h170q-4 -105 -73.5 -160.5t-176.5 -55.5q-120 0 -196 79t-76 207zM104 695h138l59 -34l60 34h138l-127 -115h-141z" />
<glyph horiz-adv-x="592" d="M40 271q0 128 76 207t196 79q107 0 176.5 -55.5t73.5 -160.5h-170q-6 46 -24 68.5t-56 22.5q-88 0 -88 -161t88 -161q38 0 56 22.5t24 68.5h170q-4 -97 -63.5 -151.5t-154.5 -63.5l-35 -47q44 1 78 -20t34 -64q0 -51 -41.5 -77t-105.5 -26q-42 0 -73 15v68q27 -13 63 -13 q37 0 37 26q0 25 -37 25q-12 0 -32 -5l-28 48l55 73q-99 17 -159 93t-60 189z" />
<glyph horiz-adv-x="592" d="M40 271q0 128 76 207t196 79q107 0 176.5 -55.5t73.5 -160.5h-170q-6 46 -24 68.5t-56 22.5q-88 0 -88 -161t88 -161q38 0 56 22.5t24 68.5h170q-4 -105 -73.5 -160.5t-176.5 -55.5q-120 0 -196 79t-76 207zM104 580l127 115h141l127 -115h-138l-60 34l-59 -34h-138z" />
<glyph horiz-adv-x="592" d="M40 271q0 128 76 207t196 79q107 0 176.5 -55.5t73.5 -160.5h-170q-6 46 -24 68.5t-56 22.5q-88 0 -88 -161t88 -161q38 0 56 22.5t24 68.5h170q-4 -105 -73.5 -160.5t-176.5 -55.5q-120 0 -196 79t-76 207zM218 647q0 33 23.5 53.5t59.5 20.5t59.5 -20.5t23.5 -53.5 t-23.5 -53t-59.5 -20t-59.5 20t-23.5 53z" />
<glyph horiz-adv-x="629" d="M70 0v543h221q133 0 215.5 -72.5t82.5 -199.5t-82.5 -199t-215.5 -72h-221zM82 695h138l59 -34l60 34h138l-127 -115h-141zM246 125h45q57 0 85.5 38.5t28.5 107.5q0 70 -28.5 108.5t-85.5 38.5h-45v-293z" />
<glyph horiz-adv-x="629" d="M10 208v125h60v210h221q133 0 215.5 -72.5t82.5 -199.5t-82.5 -199t-215.5 -72h-221v208h-60zM246 125h45q57 0 85.5 38.5t28.5 107.5q0 70 -28.5 108.5t-85.5 38.5h-45v-85h90v-125h-90v-83z" />
<glyph horiz-adv-x="518" d="M70 0v543h388v-125h-212v-75h196v-125h-196v-93h212v-125h-388zM137 580l106 115h189l-167 -115h-128z" />
<glyph horiz-adv-x="518" d="M70 0v543h388v-125h-212v-75h196v-125h-196v-93h212v-125h-388zM95 695h110q0 -29 54 -29q53 0 53 29h111q0 -62 -48 -92t-116 -30q-69 0 -116.5 29.5t-47.5 92.5z" />
<glyph horiz-adv-x="518" d="M62 695h138l59 -34l60 34h138l-127 -115h-141zM70 0v543h388v-125h-212v-75h196v-125h-196v-93h212v-125h-388z" />
<glyph horiz-adv-x="518" d="M62 580l127 115h141l127 -115h-138l-60 34l-59 -34h-138zM70 0v543h388v-125h-212v-75h196v-125h-196v-93h212v-125h-388z" />
<glyph horiz-adv-x="518" d="M70 0v543h388v-125h-212v-75h196v-125h-196v-93h212v-125h-388zM86 648q0 31 23 51.5t57 20.5t57 -20.5t23 -51.5t-23 -51t-57 -20t-57 20t-23 51zM274 648q0 31 22.5 51.5t56.5 20.5q35 0 57.5 -20.5t22.5 -51.5t-22.5 -51t-57.5 -20q-34 0 -56.5 20t-22.5 51z" />
<glyph horiz-adv-x="518" d="M70 0v543h388v-125h-212v-75h196v-125h-196v-93h212v-125h-388zM176 647q0 33 23.5 53.5t59.5 20.5t59.5 -20.5t23.5 -53.5t-23.5 -53t-59.5 -20t-59.5 20t-23.5 53z" />
<glyph horiz-adv-x="518" d="M70 0v543h388v-125h-212v-75h196v-125h-196v-93h212v-125h-388zM87 695h190l105 -115h-128z" />
<glyph horiz-adv-x="518" d="M70 0v543h388v-125h-212v-75h196v-125h-196v-93h212v-125h-388zM115 590v101h288v-101h-288z" />
<glyph horiz-adv-x="518" d="M70 0v543h388v-125h-212v-75h196v-125h-196v-93h212v-125q-105 -57 -105 -116q0 -17 12 -26t26 -9q33 0 67 15v-88q-42 -24 -121 -24q-59 0 -91 30t-32 75q0 81 104 143h-248z" />
<glyph horiz-adv-x="615" d="M40 271q0 128 76 207t196 79q105 0 172 -50.5t71 -142.5h-170q-6 34 -21 51t-52 17q-88 0 -88 -161t100 -161q45 0 71 20v39h-81v115h241v-284h-160v43q-20 -25 -59.5 -41.5t-75.5 -16.5q-109 0 -164.5 76.5t-55.5 209.5zM143 695h110q0 -29 54 -29q53 0 53 29h111 q0 -62 -48 -92t-116 -30q-69 0 -116.5 29.5t-47.5 92.5z" />
<glyph horiz-adv-x="615" d="M40 271q0 128 76 207t196 79q105 0 172 -50.5t71 -142.5h-170q-6 34 -21 51t-52 17q-88 0 -88 -161t100 -161q45 0 71 20v39h-81v115h241v-284h-160v43q-20 -25 -59.5 -41.5t-75.5 -16.5q-109 0 -164.5 76.5t-55.5 209.5zM110 580l127 115h141l127 -115h-138l-60 34 l-59 -34h-138z" />
<glyph horiz-adv-x="615" d="M40 271q0 128 76 207t196 79q105 0 172 -50.5t71 -142.5h-170q-6 34 -21 51t-52 17q-88 0 -88 -161t100 -161q45 0 71 20v39h-81v115h241v-284h-160v43q-20 -25 -59.5 -41.5t-75.5 -16.5q-109 0 -164.5 76.5t-55.5 209.5zM219 -248l20 200h157l-59 -200h-118z" />
<glyph horiz-adv-x="615" d="M40 271q0 128 76 207t196 79q105 0 172 -50.5t71 -142.5h-170q-6 34 -21 51t-52 17q-88 0 -88 -161t100 -161q45 0 71 20v39h-81v115h241v-284h-160v43q-20 -25 -59.5 -41.5t-75.5 -16.5q-109 0 -164.5 76.5t-55.5 209.5zM224 647q0 33 23.5 53.5t59.5 20.5t59.5 -20.5 t23.5 -53.5t-23.5 -53t-59.5 -20t-59.5 20t-23.5 53z" />
<glyph horiz-adv-x="662" d="M30 353v125h40v65h176v-65h170v65h176v-65h40v-125h-40v-353h-176v178h-170v-178h-176v353h-40zM246 303h170v50h-170v-50z" />
<glyph horiz-adv-x="662" d="M70 0v543h176v-200h170v200h176v-543h-176v218h-170v-218h-176zM134 580l127 115h141l127 -115h-138l-60 34l-59 -34h-138z" />
<glyph horiz-adv-x="316" d="M61 580l106 115h189l-167 -115h-128zM70 0v543h176v-543h-176z" />
<glyph horiz-adv-x="316" d="M-6 695h110q0 -29 54 -29q53 0 53 29h111q0 -62 -48 -92t-116 -30q-69 0 -116.5 29.5t-47.5 92.5zM70 0v543h176v-543h-176z" />
<glyph horiz-adv-x="316" d="M-39 580l127 115h141l127 -115h-138l-60 34l-59 -34h-138zM70 0v543h176v-543h-176z" />
<glyph horiz-adv-x="316" d="M-9 648q0 31 23 51.5t57 20.5t57 -20.5t23 -51.5t-23 -51t-57 -20t-57 20t-23 51zM70 0v543h176v-543h-176zM167 648q0 31 22.5 51.5t56.5 20.5q35 0 57.5 -20.5t22.5 -51.5t-22.5 -51t-57.5 -20q-34 0 -56.5 20t-22.5 51z" />
<glyph horiz-adv-x="316" d="M-49 695h190l105 -115h-128zM70 0v543h176v-543h-176z" />
<glyph horiz-adv-x="316" d="M14 590v101h288v-101h-288zM70 0v543h176v-543h-176z" />
<glyph horiz-adv-x="316" d="M2 -143q0 81 104 143h-36v543h176v-543q-105 -57 -105 -116q0 -17 12 -26t26 -9q33 0 67 15v-88q-42 -24 -121 -24q-59 0 -91 30t-32 75z" />
<glyph horiz-adv-x="316" d="M-26 614q32 96 109 96q26 0 74 -13.5t64 -13.5q19 0 34 25l87 -38q-32 -96 -109 -96q-26 0 -74 13.5t-64 13.5q-19 0 -34 -25zM70 0v543h176v-543h-176z" />
<glyph horiz-adv-x="551" d="M30 204h174q1 -94 60 -94q51 0 51 68v365h176v-349q0 -54 -20 -96t-53 -65.5t-72 -35.5t-82 -12q-46 0 -84.5 10t-73.5 33.5t-55 68.5t-21 107zM206 580l127 115h141l127 -115h-138l-60 34l-59 -34h-138z" />
<glyph horiz-adv-x="602" d="M70 0v543h176v-234l147 234h166l-157 -240l190 -303h-202l-144 255v-255h-176zM203 -248l20 200h157l-59 -200h-118z" />
<glyph horiz-adv-x="480" d="M47 580l106 115h189l-167 -115h-128zM70 0v543h176v-418h192v-125h-368z" />
<glyph horiz-adv-x="480" d="M70 0v543h176v-418h192v-125h-368zM296 362v240h151l-31 -240h-120z" />
<glyph horiz-adv-x="480" d="M70 0v543h176v-418h192v-125h-368zM146 -248l20 200h157l-59 -200h-118z" />
<glyph horiz-adv-x="480" d="M70 0v543h176v-418h192v-125h-368zM266 302q0 33 23.5 53.5t59.5 20.5t59.5 -20.5t23.5 -53.5t-23.5 -53t-59.5 -20t-59.5 20t-23.5 53z" />
<glyph horiz-adv-x="480" d="M6 116v135l64 36v256h176v-156l104 59v-136l-104 -59v-126h192v-125h-368v152z" />
<glyph horiz-adv-x="652" d="M70 0v543h152l203 -303l-3 168v135h160v-543h-152l-203 303l3 -168v-135h-160zM199 580l106 115h189l-167 -115h-128z" />
<glyph horiz-adv-x="652" d="M70 0v543h152l203 -303l-3 168v135h160v-543h-152l-203 303l3 -168v-135h-160zM119 695h138l59 -34l60 34h138l-127 -115h-141z" />
<glyph horiz-adv-x="652" d="M70 0v543h152l203 -303l-3 168v135h160v-543h-152l-203 303l3 -168v-135h-160zM248 -248l20 200h157l-59 -200h-118z" />
<glyph horiz-adv-x="652" d="M70 0v543h152l203 -303l-3 168v135h160v-543h-152l-203 303l3 -168v-135h-160zM132 614q32 96 109 96q26 0 74 -13.5t64 -13.5q19 0 34 25l87 -38q-32 -96 -109 -96q-26 0 -74 13.5t-64 13.5q-19 0 -34 -25z" />
<glyph horiz-adv-x="636" d="M40 271q0 128 77 207t201 79t201 -79t77 -207t-77 -207t-201 -79t-201 79t-77 207zM191 580l106 115h189l-167 -115h-128zM224 271q0 -73 23 -117t71 -44t71 44t23 117t-23 117t-71 44t-71 -44t-23 -117z" />
<glyph horiz-adv-x="636" d="M40 271q0 128 77 207t201 79t201 -79t77 -207t-77 -207t-201 -79t-201 79t-77 207zM154 695h110q0 -29 54 -29q53 0 53 29h111q0 -62 -48 -92t-116 -30q-69 0 -116.5 29.5t-47.5 92.5zM224 271q0 -73 23 -117t71 -44t71 44t23 117t-23 117t-71 44t-71 -44t-23 -117z" />
<glyph horiz-adv-x="636" d="M40 271q0 128 77 207t201 79t201 -79t77 -207t-77 -207t-201 -79t-201 79t-77 207zM121 580l127 115h141l127 -115h-138l-60 34l-59 -34h-138zM224 271q0 -73 23 -117t71 -44t71 44t23 117t-23 117t-71 44t-71 -44t-23 -117z" />
<glyph horiz-adv-x="636" d="M40 271q0 128 77 207t201 79t201 -79t77 -207t-77 -207t-201 -79t-201 79t-77 207zM145 648q0 31 23 51.5t57 20.5t57 -20.5t23 -51.5t-23 -51t-57 -20t-57 20t-23 51zM224 271q0 -73 23 -117t71 -44t71 44t23 117t-23 117t-71 44t-71 -44t-23 -117zM333 648 q0 31 22.5 51.5t56.5 20.5q35 0 57.5 -20.5t22.5 -51.5t-22.5 -51t-57.5 -20q-34 0 -56.5 20t-22.5 51z" />
<glyph horiz-adv-x="636" d="M40 271q0 128 77 207t201 79t201 -79t77 -207t-77 -207t-201 -79t-201 79t-77 207zM151 695h190l105 -115h-128zM224 271q0 -73 23 -117t71 -44t71 44t23 117t-23 117t-71 44t-71 -44t-23 -117z" />
<glyph horiz-adv-x="636" d="M40 271q0 128 77 207t201 79t201 -79t77 -207t-77 -207t-201 -79t-201 79t-77 207zM122 580l82 115h173l-135 -115h-120zM224 271q0 -73 23 -117t71 -44t71 44t23 117t-23 117t-71 44t-71 -44t-23 -117zM320 580l81 115h174l-135 -115h-120z" />
<glyph horiz-adv-x="636" d="M40 271q0 128 77 207t201 79t201 -79t77 -207t-77 -207t-201 -79t-201 79t-77 207zM174 590v101h288v-101h-288zM224 271q0 -73 23 -117t71 -44t71 44t23 117t-23 117t-71 44t-71 -44t-23 -117z" />
<glyph horiz-adv-x="636" d="M40 271q0 128 77 207t201 79t201 -79t77 -207t-77 -207t-201 -79t-201 79t-77 207zM134 614q32 96 109 96q26 0 74 -13.5t64 -13.5q19 0 34 25l87 -38q-32 -96 -109 -96q-26 0 -74 13.5t-64 13.5q-19 0 -34 -25zM224 271q0 -73 23 -117t71 -44t71 44t23 117t-23 117 t-71 44t-71 -44t-23 -117z" />
<glyph horiz-adv-x="575" d="M70 0v543h216q99 0 166.5 -49.5t67.5 -140.5q0 -104 -93 -151l128 -202h-193l-96 173h-20v-173h-176zM145 580l106 115h189l-167 -115h-128zM246 284h40q23 0 42.5 16.5t19.5 52.5t-19.5 52.5t-42.5 16.5h-40v-138z" />
<glyph horiz-adv-x="575" d="M70 0v543h216q99 0 166.5 -49.5t67.5 -140.5q0 -104 -93 -151l128 -202h-193l-96 173h-20v-173h-176zM75 695h138l59 -34l60 34h138l-127 -115h-141zM246 284h40q23 0 42.5 16.5t19.5 52.5t-19.5 52.5t-42.5 16.5h-40v-138z" />
<glyph horiz-adv-x="575" d="M70 0v543h216q99 0 166.5 -49.5t67.5 -140.5q0 -104 -93 -151l128 -202h-193l-96 173h-20v-173h-176zM194 -248l20 200h157l-59 -200h-118zM246 284h40q23 0 42.5 16.5t19.5 52.5t-19.5 52.5t-42.5 16.5h-40v-138z" />
<glyph horiz-adv-x="576" d="M52 169h170q6 -65 75 -65q68 0 68 47q0 25 -26 36t-79 19q-26 4 -40 7t-39 10t-39 14.5t-33 21t-29 30t-17 41t-7 54.5q0 78 63.5 125.5t157.5 47.5q221 0 238 -177h-170q-6 58 -68 58q-26 0 -44 -11t-18 -34q0 -25 26 -36t79 -19q94 -16 128 -34q76 -39 76 -138 q0 -77 -69 -129t-158 -52q-111 0 -176 46t-69 138zM151 580l106 115h189l-167 -115h-128z" />
<glyph horiz-adv-x="576" d="M52 169h170q6 -65 75 -65q68 0 68 47q0 25 -26 36t-79 19q-26 4 -40 7t-39 10t-39 14.5t-33 21t-29 30t-17 41t-7 54.5q0 78 63.5 125.5t157.5 47.5q221 0 238 -177h-170q-6 58 -68 58q-26 0 -44 -11t-18 -34q0 -25 26 -36t79 -19q94 -16 128 -34q76 -39 76 -138 q0 -77 -69 -129t-158 -52q-111 0 -176 46t-69 138zM81 695h138l59 -34l60 34h138l-127 -115h-141z" />
<glyph horiz-adv-x="576" d="M52 169h170q6 -65 75 -65q68 0 68 47q0 25 -26 36t-79 19q-26 4 -40 7t-39 10t-39 14.5t-33 21t-29 30t-17 41t-7 54.5q0 78 63.5 125.5t157.5 47.5q221 0 238 -177h-170q-6 58 -68 58q-26 0 -44 -11t-18 -34q0 -25 26 -36t79 -19q94 -16 128 -34q76 -39 76 -138 q0 -77 -69 -129t-158 -52q-111 0 -176 46t-69 138zM190 -248l20 200h157l-59 -200h-118z" />
<glyph horiz-adv-x="576" d="M52 169h170q6 -65 75 -65q68 0 68 47q0 25 -26 36t-79 19q-26 4 -40 7t-39 10t-39 14.5t-33 21t-29 30t-17 41t-7 54.5q0 78 63.5 125.5t157.5 47.5q221 0 238 -177h-170q-6 58 -68 58q-26 0 -44 -11t-18 -34q0 -25 26 -36t79 -19q94 -16 128 -34q76 -39 76 -138 q0 -77 -69 -129t-158 -52q-111 0 -176 46t-69 138zM81 580l127 115h141l127 -115h-138l-60 34l-59 -34h-138z" />
<glyph horiz-adv-x="576" d="M52 169h170q6 -65 75 -65q68 0 68 47q0 25 -26 36t-79 19q-26 4 -40 7t-39 10t-39 14.5t-33 21t-29 30t-17 41t-7 54.5q0 78 63.5 125.5t157.5 47.5q221 0 238 -177h-170q-6 58 -68 58q-26 0 -44 -11t-18 -34q0 -25 26 -36t79 -19q94 -16 128 -34q76 -39 76 -138 q0 -69 -56.5 -119t-135.5 -60l-36 -48q44 1 78 -20t34 -64q0 -51 -41.5 -77t-105.5 -26q-42 0 -73 15v68q27 -13 63 -13q37 0 37 26q0 25 -37 25q-12 0 -32 -5l-28 48l54 72q-88 10 -138.5 55t-54.5 126z" />
<glyph horiz-adv-x="502" d="M30 418v125h442v-125h-133v-85h70v-125h-70v-208h-176v208h-70v125h70v85h-133z" />
<glyph horiz-adv-x="502" d="M30 418v125h442v-125h-133v-418h-176v418h-133zM54 695h138l59 -34l60 34h138l-127 -115h-141z" />
<glyph horiz-adv-x="502" d="M30 418v125h442v-125h-133v-418h-45l-45 -61q44 1 78 -20t34 -64q0 -51 -41.5 -77t-105.5 -26q-42 0 -73 15v68q27 -13 63 -13q37 0 37 26q0 25 -37 25q-12 0 -32 -5l-28 48l63 84h-44v418h-133z" />
<glyph horiz-adv-x="502" d="M30 418v125h442v-125h-133v-418h-176v418h-133zM153 -248l20 200h157l-59 -200h-118z" />
<glyph horiz-adv-x="636" d="M60 199v344h176v-329q0 -104 90 -104t90 89v344h160v-329q0 -108 -72.5 -168.5t-177.5 -60.5q-120 0 -193 54.5t-73 159.5zM201 580l106 115h189l-167 -115h-128z" />
<glyph horiz-adv-x="636" d="M60 199v344h176v-329q0 -104 90 -104t90 89v344h160v-329q0 -108 -72.5 -168.5t-177.5 -60.5q-120 0 -193 54.5t-73 159.5zM154 695h110q0 -29 54 -29q53 0 53 29h111q0 -62 -48 -92t-116 -30q-69 0 -116.5 29.5t-47.5 92.5z" />
<glyph horiz-adv-x="636" d="M60 199v344h176v-329q0 -104 90 -104t90 89v344h160v-329q0 -108 -72.5 -168.5t-177.5 -60.5q-120 0 -193 54.5t-73 159.5zM121 580l127 115h141l127 -115h-138l-60 34l-59 -34h-138z" />
<glyph horiz-adv-x="636" d="M60 199v344h176v-329q0 -104 90 -104t90 89v344h160v-329q0 -108 -72.5 -168.5t-177.5 -60.5q-120 0 -193 54.5t-73 159.5zM145 648q0 31 23 51.5t57 20.5t57 -20.5t23 -51.5t-23 -51t-57 -20t-57 20t-23 51zM333 648q0 31 22.5 51.5t56.5 20.5q35 0 57.5 -20.5 t22.5 -51.5t-22.5 -51t-57.5 -20q-34 0 -56.5 20t-22.5 51z" />
<glyph horiz-adv-x="636" d="M60 199v344h176v-329q0 -104 90 -104t90 89v344h160v-329q0 -108 -72.5 -168.5t-177.5 -60.5q-120 0 -193 54.5t-73 159.5zM141 695h190l105 -115h-128z" />
<glyph horiz-adv-x="636" d="M60 199v344h176v-329q0 -104 90 -104t90 89v344h160v-329q0 -108 -72.5 -168.5t-177.5 -60.5q-120 0 -193 54.5t-73 159.5zM122 580l82 115h173l-135 -115h-120zM320 580l81 115h174l-135 -115h-120z" />
<glyph horiz-adv-x="636" d="M60 199v344h176v-329q0 -104 90 -104t90 89v344h160v-329q0 -108 -72.5 -168.5t-177.5 -60.5q-120 0 -193 54.5t-73 159.5zM174 590v101h288v-101h-288z" />
<glyph horiz-adv-x="636" d="M60 199v344h176v-329q0 -104 90 -104t90 89v344h160v-329q0 -81 -42 -136t-112 -78q-105 -57 -105 -116q0 -17 12 -26t26 -9q33 0 67 15v-88q-42 -24 -121 -24q-59 0 -91 30t-32 75q0 75 86 132q-94 13 -149 66.5t-55 143.5z" />
<glyph horiz-adv-x="636" d="M60 199v344h176v-329q0 -104 90 -104t90 89v344h160v-329q0 -108 -72.5 -168.5t-177.5 -60.5q-120 0 -193 54.5t-73 159.5zM202 639q0 37 32 60t84 23t84 -23t32 -60t-32 -60t-84 -23t-84 23t-32 60zM288 639q0 -11 8.5 -18.5t21.5 -7.5t21.5 7.5t8.5 18.5t-8.5 18.5 t-21.5 7.5t-21.5 -7.5t-8.5 -18.5z" />
<glyph horiz-adv-x="636" d="M60 199v344h176v-329q0 -104 90 -104t90 89v344h160v-329q0 -108 -72.5 -168.5t-177.5 -60.5q-120 0 -193 54.5t-73 159.5zM134 614q32 96 109 96q26 0 74 -13.5t64 -13.5q19 0 34 25l87 -38q-32 -96 -109 -96q-26 0 -74 13.5t-64 13.5q-19 0 -34 -25z" />
<glyph horiz-adv-x="821" d="M10 543h180l40 -156l43 -176l39 176l34 156h145l40 -156l45 -176l40 176l37 156h158l-151 -543h-158l-39 149l-44 176l-37 -176l-33 -149h-174zM293 580l106 115h189l-167 -115h-128z" />
<glyph horiz-adv-x="821" d="M10 543h180l40 -156l43 -176l39 176l34 156h145l40 -156l45 -176l40 176l37 156h158l-151 -543h-158l-39 149l-44 176l-37 -176l-33 -149h-174zM213 580l127 115h141l127 -115h-138l-60 34l-59 -34h-138z" />
<glyph horiz-adv-x="821" d="M10 543h180l40 -156l43 -176l39 176l34 156h145l40 -156l45 -176l40 176l37 156h158l-151 -543h-158l-39 149l-44 176l-37 -176l-33 -149h-174zM237 648q0 31 23 51.5t57 20.5t57 -20.5t23 -51.5t-23 -51t-57 -20t-57 20t-23 51zM425 648q0 31 22.5 51.5t56.5 20.5 q35 0 57.5 -20.5t22.5 -51.5t-22.5 -51t-57.5 -20q-34 0 -56.5 20t-22.5 51z" />
<glyph horiz-adv-x="821" d="M10 543h180l40 -156l43 -176l39 176l34 156h145l40 -156l45 -176l40 176l37 156h158l-151 -543h-158l-39 149l-44 176l-37 -176l-33 -149h-174zM233 695h190l105 -115h-128z" />
<glyph horiz-adv-x="544" d="M10 543h182l95 -207l94 207h153l-174 -354v-189h-176v207zM165 580l106 115h189l-167 -115h-128z" />
<glyph horiz-adv-x="544" d="M10 543h182l95 -207l94 207h153l-174 -354v-189h-176v207zM80 580l127 115h141l127 -115h-138l-60 34l-59 -34h-138z" />
<glyph horiz-adv-x="544" d="M10 543h182l95 -207l94 207h153l-174 -354v-189h-176v207zM104 648q0 31 23 51.5t57 20.5t57 -20.5t23 -51.5t-23 -51t-57 -20t-57 20t-23 51zM292 648q0 31 22.5 51.5t56.5 20.5q35 0 57.5 -20.5t22.5 -51.5t-22.5 -51t-57.5 -20q-34 0 -56.5 20t-22.5 51z" />
<glyph horiz-adv-x="544" d="M10 543h182l95 -207l94 207h153l-174 -354v-189h-176v207zM85 695h190l105 -115h-128z" />
<glyph horiz-adv-x="476" d="M40 0v125l202 293h-202v125h396v-125l-202 -293h202v-125h-396zM121 580l106 115h189l-167 -115h-128z" />
<glyph horiz-adv-x="476" d="M40 0v125l202 293h-202v125h396v-125l-202 -293h202v-125h-396zM41 695h138l59 -34l60 34h138l-127 -115h-141z" />
<glyph horiz-adv-x="476" d="M40 0v125l202 293h-202v125h396v-125l-202 -293h202v-125h-396zM155 647q0 33 23.5 53.5t59.5 20.5t59.5 -20.5t23.5 -53.5t-23.5 -53t-59.5 -20t-59.5 20t-23.5 53z" />
<glyph horiz-adv-x="845" d="M10 0l357 543h418v-125h-212v-75h196v-125h-196v-93h212v-125h-388v100h-146l-57 -100h-184zM323 225h74v134l-62 -113zM380 580l106 115h189l-167 -115h-128z" />
<glyph horiz-adv-x="690" d="M20 406v120h80v40q0 97 54.5 145t142.5 48q62 0 103 -19v-105q-29 7 -55 7q-65 0 -65 -75v-41h350v-556q0 -97 -56 -145t-151 -48q-52 0 -93 19v105q29 -7 55 -7q65 0 65 75v437h-170v-406h-180v406h-80zM440 667q0 43 28 71.5t72 28.5t72 -28.5t28 -71.5t-28 -71.5 t-72 -28.5t-72 28.5t-28 71.5z" />
<glyph horiz-adv-x="750" d="M20 406v120h80v40q0 97 54.5 145t142.5 48q72 0 113 -19v-105q-29 7 -65 7q-65 0 -65 -75v-41h170v134h180v-134h100v-120h-100v-406h-180v406h-170v-406h-180v406h-80z" />
<glyph horiz-adv-x="1040" d="M20 406v120h80v40q0 97 54.5 145t142.5 48q72 0 113 -19v-105q-29 7 -65 7q-65 0 -65 -75v-41h170v40q0 97 54.5 145t142.5 48q62 0 103 -19v-105q-29 7 -55 7q-65 0 -65 -75v-41h350v-556q0 -97 -56 -145t-151 -48q-52 0 -93 19v105q29 -7 55 -7q65 0 65 75v437h-170 v-406h-180v406h-170v-406h-180v406h-80zM790 667q0 43 28 71.5t72 28.5t72 -28.5t28 -71.5t-28 -71.5t-72 -28.5t-72 28.5t-28 71.5z" />
<glyph horiz-adv-x="1100" d="M20 406v120h80v40q0 97 54.5 145t142.5 48q72 0 113 -19v-105q-29 7 -65 7q-65 0 -65 -75v-41h170v40q0 97 54.5 145t142.5 48q72 0 113 -19v-105q-29 7 -65 7q-65 0 -65 -75v-41h170v134h180v-134h100v-120h-100v-406h-180v406h-170v-406h-180v406h-170v-406h-180v406 h-80z" />
<glyph horiz-adv-x="770" d="M20 406v120h100v134h180v-134h170v134h180v-134h100v-120h-100v-406h-180v406h-170v-406h-180v406h-100z" />
<glyph horiz-adv-x="354" d="M10 515q0 45 41 71.5t126 26.5q11 0 35 -2v24q0 35 -38 35q-40 0 -41 -33h-117q3 56 48 84t110 28q37 0 70 -7t61.5 -31.5t28.5 -64.5v-206h-122v27q-40 -36 -96 -36q-106 0 -106 84zM131 529q0 -26 33 -26q28 0 48 17v36q-20 2 -30 2q-51 0 -51 -29z" />
<glyph horiz-adv-x="352" d="M20 440v424h122v-151q39 36 84 36q59 0 87.5 -44t28.5 -114q0 -69 -32 -114.5t-92 -45.5q-45 0 -76 35v-26h-122zM142 531q15 -15 33 -15q45 0 45 75q0 73 -42 73q-21 0 -36 -15v-118z" />
<glyph horiz-adv-x="334" d="M10 591q0 72 45 115t117 43q65 0 106.5 -32t45.5 -91h-116q-3 24 -11 34t-25 10q-40 0 -40 -79q0 -80 40 -80q26 0 34 37h116q-7 -55 -47.5 -86t-102.5 -31q-75 0 -118.5 43t-43.5 117z" />
<glyph horiz-adv-x="352" d="M10 591q0 69 32 113.5t93 44.5q44 0 75 -35v150h122v-424h-122v27q-39 -36 -84 -36q-59 0 -87.5 45t-28.5 115zM132 591q0 -75 42 -75q23 0 36 16v117q-13 15 -33 15q-45 0 -45 -73z" />
<glyph horiz-adv-x="339" d="M10 591q0 71 46.5 114.5t115.5 43.5q73 0 117.5 -44t38.5 -137h-195q5 -57 42 -57q28 0 32 23h117q-6 -49 -47.5 -76t-101.5 -27q-77 0 -121 43t-44 117zM134 624h76q-4 48 -38 48q-17 0 -26 -10.5t-12 -37.5z" />
<glyph horiz-adv-x="258" d="M5 657v83h48v17q0 61 35 88.5t90 27.5q48 0 75 -11v-74q-17 4 -39 4q-39 0 -39 -35v-17h78v-83h-78v-217h-122v217h-48z" />
<glyph horiz-adv-x="352" d="M10 596q0 68 32 110.5t93 42.5q44 0 75 -35v26h122v-300q0 -62 -49 -94.5t-111 -32.5q-152 0 -157 108h117q1 -29 40 -29q38 0 38 37v47q-39 -36 -84 -36q-60 0 -88 43t-28 113zM132 596q0 -71 42 -71q23 0 36 16v108q-13 15 -33 15q-45 0 -45 -68z" />
<glyph horiz-adv-x="365" d="M20 440v424h122v-163q49 48 106 48q39 0 68 -22.5t29 -76.5v-210h-122v179q0 36 -36 36q-21 0 -45 -19v-196h-122z" />
<glyph horiz-adv-x="162" d="M15 824q0 27 18 45t48 18t48 -18t18 -45t-18.5 -45t-47.5 -18t-47.5 18t-18.5 45zM20 440v300h122v-300h-122z" />
<glyph horiz-adv-x="162" d="M15 824q0 27 18 45t48 18t48 -18t18 -45t-18.5 -45t-47.5 -18t-47.5 18t-18.5 45zM20 321v419h122v-419h-122z" />
<glyph horiz-adv-x="339" d="M20 440v424h122v-249l81 125h118l-91 -130l99 -170h-136l-71 134v-134h-122z" />
<glyph horiz-adv-x="162" d="M20 440v424h122v-424h-122z" />
<glyph horiz-adv-x="560" d="M20 440v300h122v-39q49 48 104 48q64 0 86 -50q57 50 113 50q39 0 67 -22.5t28 -76.5v-210h-122v179q0 20 -8 28t-26 8q-22 0 -43 -19v-196h-122v179q0 20 -8 28t-26 8q-22 0 -43 -19v-196h-122z" />
<glyph horiz-adv-x="365" d="M20 440v300h122v-39q49 48 106 48q39 0 68 -22.5t29 -76.5v-210h-122v179q0 36 -36 36q-21 0 -45 -19v-196h-122z" />
<glyph horiz-adv-x="348" d="M10 591q0 72 45 115t119 43q75 0 119.5 -43t44.5 -115q0 -73 -44.5 -116.5t-119.5 -43.5q-74 0 -119 43.5t-45 116.5zM132 591q0 -45 10.5 -62.5t31.5 -17.5q22 0 32 17.5t10 62.5q0 44 -10.5 61.5t-31.5 17.5t-31.5 -17.5t-10.5 -61.5z" />
<glyph horiz-adv-x="352" d="M20 321v419h122v-27q39 36 84 36q59 0 87.5 -44t28.5 -114q0 -69 -32 -114.5t-92 -45.5q-45 0 -76 35v-145h-122zM142 531q15 -15 33 -15q45 0 45 75q0 73 -42 73q-21 0 -36 -15v-118z" />
<glyph horiz-adv-x="352" d="M10 591q0 69 32 113.5t93 44.5q44 0 75 -35v26h122v-419h-122v146q-39 -36 -84 -36q-59 0 -87.5 45t-28.5 115zM132 591q0 -75 42 -75q23 0 36 16v117q-13 15 -33 15q-45 0 -45 -73z" />
<glyph horiz-adv-x="275" d="M20 440v300h122v-56q15 31 38.5 48t46.5 17q22 0 38 -10v-105q-21 9 -47 9q-53 0 -76 -30v-173h-122z" />
<glyph horiz-adv-x="319" d="M10 651q0 48 41.5 73t98.5 25q143 0 149 -94h-115q-3 23 -34 23q-11 0 -19.5 -5t-8.5 -14q0 -11 11 -15t34 -7q6 -1 9 -1q4 -1 21 -3t23.5 -3t21.5 -4.5t21.5 -7.5t17.5 -11.5t15.5 -16.5t8.5 -22.5t4 -30.5q0 -49 -42 -77.5t-101 -28.5q-69 0 -110.5 26t-44.5 76h115 q0 -30 40 -30q33 0 33 21q0 12 -12.5 16.5t-41.5 8.5q-3 0 -16.5 2t-18.5 3t-18 3.5t-18.5 4.5t-16 6.5t-16 9.5t-12.5 12.5t-10.5 16t-6 20t-2.5 24.5z" />
<glyph horiz-adv-x="250" d="M5 657v83h48v76h122v-76h65v-83h-65v-100q0 -45 33 -45q12 0 32 6v-74q-43 -13 -74 -13q-113 0 -113 112v114h-48z" />
<glyph horiz-adv-x="362" d="M20 528v212h122v-181q0 -20 8.5 -28t26.5 -8q24 0 43 19v198h122v-300h-122v37q-50 -48 -103 -48q-39 0 -68 22.5t-29 76.5z" />
<glyph horiz-adv-x="352" d="M5 740h128l15 -54l36 -129l35 129l15 54h113l-112 -300h-116z" />
<glyph horiz-adv-x="534" d="M5 740h123l13 -49l30 -125l36 125l15 49h101l15 -49l35 -126l32 126l13 48h111l-105 -300h-108l-14 50l-33 126l-37 -126l-16 -49h-108z" />
<glyph horiz-adv-x="360" d="M5 440l111 150l-110 150h128l46 -69l47 69h117l-105 -143l116 -157h-127l-53 77l-52 -77h-118z" />
<glyph horiz-adv-x="352" d="M5 740h128l15 -54l36 -129l35 129l15 54h113l-154 -419h-117l43 119z" />
<glyph horiz-adv-x="280" d="M10 440v82l127 135h-121v83h254v-83l-127 -135h127v-82h-260z" />
<glyph horiz-adv-x="354" d="M10 -45q0 45 41 71.5t126 26.5q11 0 35 -2v24q0 35 -38 35q-40 0 -41 -33h-117q3 56 48 84t110 28q37 0 70 -7t61.5 -31.5t28.5 -64.5v-206h-122v27q-40 -36 -96 -36q-106 0 -106 84zM131 -31q0 -26 33 -26q28 0 48 17v36q-20 2 -30 2q-51 0 -51 -29z" />
<glyph horiz-adv-x="352" d="M20 -120v424h122v-151q39 36 84 36q59 0 87.5 -44t28.5 -114q0 -69 -32 -114.5t-92 -45.5q-45 0 -76 35v-26h-122zM142 -29q15 -15 33 -15q45 0 45 75q0 73 -42 73q-21 0 -36 -15v-118z" />
<glyph horiz-adv-x="334" d="M10 31q0 72 45 115t117 43q65 0 106.5 -32t45.5 -91h-116q-3 24 -11 34t-25 10q-40 0 -40 -79q0 -80 40 -80q26 0 34 37h116q-7 -55 -47.5 -86t-102.5 -31q-75 0 -118.5 43t-43.5 117z" />
<glyph horiz-adv-x="352" d="M10 31q0 69 32 113.5t93 44.5q44 0 75 -35v150h122v-424h-122v27q-39 -36 -84 -36q-59 0 -87.5 45t-28.5 115zM132 31q0 -75 42 -75q23 0 36 16v117q-13 15 -33 15q-45 0 -45 -73z" />
<glyph horiz-adv-x="339" d="M10 31q0 71 46.5 114.5t115.5 43.5q73 0 117.5 -44t38.5 -137h-195q5 -57 42 -57q28 0 32 23h117q-6 -49 -47.5 -76t-101.5 -27q-77 0 -121 43t-44 117zM134 64h76q-4 48 -38 48q-17 0 -26 -10.5t-12 -37.5z" />
<glyph horiz-adv-x="258" d="M5 97v83h48v17q0 61 35 88.5t90 27.5q48 0 75 -11v-74q-17 4 -39 4q-39 0 -39 -35v-17h78v-83h-78v-217h-122v217h-48z" />
<glyph horiz-adv-x="352" d="M10 36q0 68 32 110.5t93 42.5q44 0 75 -35v26h122v-300q0 -62 -49 -94.5t-111 -32.5q-152 0 -157 108h117q1 -29 40 -29q38 0 38 37v47q-39 -36 -84 -36q-60 0 -88 43t-28 113zM132 36q0 -71 42 -71q23 0 36 16v108q-13 15 -33 15q-45 0 -45 -68z" />
<glyph horiz-adv-x="365" d="M20 -120v424h122v-163q50 48 106 48q39 0 68 -22.5t29 -76.5v-210h-122v179q0 36 -36 36q-21 0 -45 -19v-196h-122z" />
<glyph horiz-adv-x="162" d="M15 264q0 27 18 45t48 18t48 -18t18 -45t-18.5 -45t-47.5 -18t-47.5 18t-18.5 45zM20 -120v300h122v-300h-122z" />
<glyph horiz-adv-x="162" d="M15 264q0 27 18 45t48 18t48 -18t18 -45t-18.5 -45t-47.5 -18t-47.5 18t-18.5 45zM20 180h122v-419h-122v419z" />
<glyph horiz-adv-x="339" d="M20 -120v424h122v-249l81 125h118l-91 -130l99 -170h-136l-71 134v-134h-122z" />
<glyph horiz-adv-x="162" d="M20 -120v424h122v-424h-122z" />
<glyph horiz-adv-x="560" d="M20 -120v300h122v-39q50 48 104 48q64 0 86 -50q57 50 113 50q39 0 67 -22.5t28 -76.5v-210h-122v179q0 20 -8 28t-26 8q-22 0 -43 -19v-196h-122v179q0 20 -8 28t-26 8q-22 0 -43 -19v-196h-122z" />
<glyph horiz-adv-x="365" d="M20 -120v300h122v-39q50 48 106 48q39 0 68 -22.5t29 -76.5v-210h-122v179q0 36 -36 36q-21 0 -45 -19v-196h-122z" />
<glyph horiz-adv-x="348" d="M10 31q0 72 45 115t119 43q75 0 119.5 -43t44.5 -115q0 -73 -44.5 -116.5t-119.5 -43.5q-74 0 -119 43.5t-45 116.5zM132 31q0 -45 10.5 -62.5t31.5 -17.5q22 0 32 17.5t10 62.5q0 44 -10.5 61.5t-31.5 17.5t-31.5 -17.5t-10.5 -61.5z" />
<glyph horiz-adv-x="352" d="M20 180h122v-27q39 36 84 36q59 0 87.5 -44t28.5 -114q0 -69 -32 -114.5t-92 -45.5q-45 0 -76 35v-145h-122v419zM142 -29q15 -15 33 -15q45 0 45 75q0 73 -42 73q-21 0 -36 -15v-118z" />
<glyph horiz-adv-x="352" d="M10 31q0 69 32 113.5t93 44.5q44 0 75 -35v26h122v-419h-122v146q-39 -36 -84 -36q-59 0 -87.5 45t-28.5 115zM132 31q0 -75 42 -75q23 0 36 16v117q-13 15 -33 15q-45 0 -45 -73z" />
<glyph horiz-adv-x="275" d="M20 -120v300h122v-56q15 31 38.5 48t46.5 17q22 0 38 -10v-105q-21 9 -47 9q-53 0 -76 -30v-173h-122z" />
<glyph horiz-adv-x="319" d="M10 91q0 48 41.5 73t98.5 25q143 0 149 -94h-115q-3 23 -34 23q-11 0 -19.5 -5t-8.5 -14q0 -11 11 -15t34 -7q6 -1 9 -1q4 -1 21 -3t23.5 -3t21.5 -4.5t21.5 -7.5t17.5 -11.5t15.5 -16.5t8.5 -22.5t4 -30.5q0 -49 -42 -77.5t-101 -28.5q-69 0 -110.5 26t-44.5 76h115 q0 -30 40 -30q33 0 33 21q0 12 -12.5 16.5t-41.5 8.5q-3 0 -16.5 2t-18.5 3t-18 3.5t-18.5 4.5t-16 6.5t-16 9.5t-12.5 12.5t-10.5 16t-6 20t-2.5 24.5z" />
<glyph horiz-adv-x="250" d="M5 97v83h48v76h122v-76h65v-83h-65v-100q0 -45 33 -45q12 0 32 6v-74q-43 -13 -74 -13q-113 0 -113 112v114h-48z" />
<glyph horiz-adv-x="362" d="M20 -32v212h122v-181q0 -20 8.5 -28t26.5 -8q24 0 43 19v198h122v-300h-122v37q-50 -48 -103 -48q-39 0 -68 22.5t-29 76.5z" />
<glyph horiz-adv-x="352" d="M5 180h128l15 -54l36 -129l35 129l15 54h113l-112 -300h-116z" />
<glyph horiz-adv-x="534" d="M5 180h123l13 -49l30 -125l36 125l15 49h101l15 -49l35 -126l32 126l13 48h111l-105 -300h-108l-14 50l-33 126l-37 -126l-16 -49h-108z" />
<glyph horiz-adv-x="360" d="M5 -120l111 150l-110 150h128l46 -69l47 69h117l-105 -143l116 -157h-127l-53 77l-52 -77h-118z" />
<glyph horiz-adv-x="352" d="M5 180h128l15 -54l36 -129l35 129l15 54h113l-154 -419h-117l43 119z" />
<glyph horiz-adv-x="280" d="M10 -38l127 135h-121v83h254v-83l-127 -135h127v-82h-260v82z" />
<glyph d="M17 218h188q7 -99 106 -99q42 0 68.5 18t26.5 53q0 15 -4 26.5t-14 20t-19 14.5t-26.5 11t-29 7.5t-34.5 6.5t-35 7q-49 11 -80.5 22t-68 34t-55 62.5t-18.5 94.5q0 84 52.5 140t141.5 73v111h170v-114q169 -35 185 -216h-188q-7 91 -97 91q-40 0 -64 -17.5t-24 -51.5 q0 -15 4 -27t14 -20.5t18.5 -14.5t27 -11t29 -7.5t35 -7.5t34.5 -7q31 -7 46 -10.5t43 -12.5t43 -18t35 -24.5t30 -33.5t17.5 -45t7.5 -59q0 -81 -55 -140.5t-141 -79.5v-114h-170v113q-190 34 -199 225z" />
<glyph d="M50 263q0 101 44.5 170.5t123.5 94.5v118h170v-115q145 -37 159 -205h-171q-5 54 -20 77t-50 23q-76 0 -76 -163q0 -80 20 -121.5t56 -41.5q55 0 67 90h171q-18 -156 -156 -195v-115h-170v117q-82 24 -125 93t-43 173z" />
<glyph d="M20 0v139h69v147h-69v139h69v71q0 101 67 160t179 59q123 0 185 -55t70 -170h-188q-4 48 -19.5 69.5t-47.5 21.5q-26 0 -43.5 -18t-17.5 -51v-87h181v-139h-181v-147h280v-139h-534z" />
<glyph d="M10 700h194l115 -235l112 235h159l-148 -275h102v-139h-150v-70h150v-139h-150v-77h-185v77h-150v139h150v70h-150v139h101z" />
<glyph d="M0 -48h154q4 -23 10.5 -32t18.5 -9q24 0 24 39v217h-150v139h150v210q0 99 52.5 149t146.5 50q85 0 136 -43t58 -132h-154q-6 41 -30 41t-24 -39v-236h150v-139h-150v-191q0 -99 -52.5 -149t-146.5 -50q-179 0 -193 175z" />
<glyph d="M20 167v139h56q-1 14 -1 44v26h-55v139h75q27 95 85.5 147.5t143.5 52.5q115 0 182 -69t71 -206h-188q-4 74 -16.5 105t-48.5 31q-44 0 -60 -61h83v-139h-97v-26v-44h97v-139h-80q16 -43 57 -43q36 0 48.5 31t16.5 105h188q-4 -137 -71 -206t-182 -69q-181 0 -229 182 h-75z" />
<glyph d="M30 0v700h194q114 0 161.5 -63t47.5 -194q0 -86 -25 -234h-103q16 156 16 201q0 87 -24 134t-83 47h-74v-591h-110zM175 0v491h110v-382h58q66 0 92.5 57.5t26.5 191.5q0 111 -32 342h103q37 -203 37 -352q0 -167 -50 -257.5t-167 -90.5h-178z" />
<glyph d="M45 350q0 181 82 282l20 188h170l-11 -105q27 0 57 -5l11 110h170l-22 -213q42 -65 45 -167h-188q-4 70 -21 103t-54 33q-84 0 -84 -226q0 -53 3 -90.5t11.5 -70t26 -49t43.5 -16.5q37 0 54 33t21 103h188q-6 -163 -107 -231l-15 -149h-170l11 105q-31 2 -56 9l-12 -114 h-170l27 262q-30 81 -30 208z" />
<glyph d="M30 0v516h140v-50q20 33 49.5 49t53.5 16q41 0 66 -28l60 133h170l-52 -115q53 -28 53 -119v-402h-140v326l-60 -133v-193h-87l-49 -110h-170l49 110h-83zM170 126l60 134v107q0 37 -24 37q-20 0 -36 -24v-254z" />
<glyph d="M13 174v139h50v70h-50v139h50v178h150l167 -378l-4 217v161h160v-178h50v-139h-50v-70h50v-139h-50v-174h-150l-167 377l4 -217v-160h-160v174h-50z" />
<glyph d="M45 379v139h261q-21 43 -78 43h-183v139h43h465v-139h-94q18 -20 29 -43h65v-139h-59q-34 -129 -181 -161l236 -218h-216l-213 210v128h108q51 0 74 41h-257z" />
<glyph d="M13 174v139h68l-9 70h-59v139h42l-22 178h143l11 -238l8 -230l21 230l24 238h139l23 -238l21 -230l9 230l12 238h123l-22 -178h42v-139h-59l-9 -70h68v-139h-85l-21 -174h-144l-18 195l-18 230l-20 -230l-19 -195h-143l-21 174h-85z" />
<glyph d="M32 0v113h536v-113h-536zM32 353q0 94 52 151t131 57q82 0 127 -56v74h-91v113h91v52h172v-52h54v-113h-54v-420h-172v43q-58 -57 -140 -57q-81 0 -125.5 55.5t-44.5 152.5zM197 353q0 -42 21 -68.5t57 -26.5q35 0 67 25v141q-31 23 -62 23q-37 0 -60 -26t-23 -68z" />
<glyph d="M20 299v139h60v262h185v-250l129 250h172l-146 -262h133v-139h-119l141 -299h-200l-110 261v-261h-185v299h-60z" />
<glyph d="M41 561v139h517v-139h-166v-60l110 38v-144l-110 -38v-51l110 38v-144l-110 -38v-162h-185v97l-110 -38v144l110 38v51l-110 -38v144l110 38v125h-166z" />
<glyph d="M13 383v139h67v178h198q93 0 161 -45t87 -133h61v-139h-62q-21 -85 -88.5 -129t-158.5 -44h-13v-210h-185v383h-67zM265 344h13q32 0 51 28t19 83t-19 83t-51 28h-13v-222z" />
<glyph d="M20 279v139h309q45 37 45 88q0 35 -18.5 55t-49.5 20q-80 0 -87 -91h-188q21 225 275 225q111 0 177.5 -46.5t66.5 -131.5q0 -72 -49 -119h79v-139h-322q-41 -36 -41 -85q0 -35 18.5 -55t49.5 -20q80 0 87 91h188q-21 -225 -275 -225q-111 0 -177.5 46.5t-66.5 131.5 q0 70 46 116h-67z" />
<glyph d="M45 350q0 132 44.5 223t124.5 124v123h170v-115q82 -21 130.5 -87.5t52.5 -177.5h-188q-4 70 -21 103t-54 33q-84 0 -84 -226q0 -53 3 -90.5t11.5 -70t26 -49t43.5 -16.5q37 0 54 33t21 103h188q-4 -111 -52.5 -177.5t-130.5 -87.5v-115h-170v118q-169 57 -169 352z" />
<glyph d="M30 0v700h164v120h170v-125q193 -26 193 -175q0 -47 -25.5 -87.5t-74.5 -56.5q126 -39 126 -166q0 -94 -61.5 -144.5t-157.5 -62.5v-123h-170v120h-164zM215 134h93q38 0 64 17.5t26 58.5q0 44 -26 62.5t-64 18.5h-93v-157zM215 419h67q90 0 90 76q0 71 -90 71h-67v-147z " />
<glyph d="M10 571l98 98l69 -69q53 25 123 25t123 -25l69 69l98 -98l-68 -68q30 -60 30 -143q0 -85 -31 -144l68 -68l-98 -98l-69 69q-53 -25 -122 -25t-122 25l-69 -69l-98 98l68 68q-31 59 -31 144q0 83 30 143zM228 360q0 -79 15 -115t57 -36t57 36t15 115t-15 114.5t-57 35.5 t-57 -35.5t-15 -114.5z" />
<glyph d="M30 0l46 177h-38v139h73l23 90h-46v139h82l40 155h150l-40 -155h60l40 155h150l-40 -155h37v-139h-73l-23 -90h46v-139h-81l-46 -177h-150l46 177h-60l-46 -177h-150zM261 316h60l23 90h-60z" />
<glyph horiz-adv-x="576" d="M52 169h170q6 -65 75 -65q68 0 68 47q0 25 -26 36t-79 19q-26 4 -40 7t-39 10t-39 14.5t-33 21t-29 30t-17 41t-7 54.5q0 63 43 107t112 59v86h156v-89q136 -32 148 -167h-170q-6 58 -68 58q-26 0 -44 -11t-18 -34q0 -25 26 -36t79 -19q94 -16 128 -34q76 -39 76 -138 q0 -61 -44.5 -107.5t-112.5 -64.5v-87h-156v86q-152 32 -159 176z" />
<glyph horiz-adv-x="514" d="M52 204q0 77 35 131t99 75v91h156v-88q117 -32 128 -160h-153q-4 35 -13.5 48t-36.5 13q-55 0 -55 -110t55 -110q22 0 32 12.5t15 40.5h153q-14 -120 -125 -152v-88h-156v89q-66 20 -100 74t-34 134z" />
<glyph horiz-adv-x="544" d="M40 0v125h55v88h-55v125h55v36q0 80 61.5 131.5t157.5 51.5q100 0 157 -45t63 -132h-170q-6 58 -50 58q-43 0 -43 -51v-49h135v-125h-135v-88h214v-125h-445z" />
<glyph horiz-adv-x="544" d="M10 543h182l95 -187l94 187h153l-109 -196h61v-125h-126v-37h126v-125h-126v-60h-176v60h-126v125h126v37h-126v125h67z" />
<glyph horiz-adv-x="602" d="M-40 -11h170q6 -43 41 -43q42 0 42 51v124h-105v125h105v128q0 78 63.5 130.5t154.5 52.5q93 0 149 -41.5t62 -120.5h-170q-6 43 -41 43q-42 0 -42 -51v-141h107v-125h-107v-111q0 -78 -63.5 -130.5t-154.5 -52.5q-93 0 -149 41.5t-62 120.5z" />
<glyph horiz-adv-x="598" d="M30 131v115h47q-1 8 -1 25v12h-46v115h66q27 75 87 117t145 42q100 0 168 -56t72 -160h-170q-11 91 -70 91q-36 0 -56 -34h76v-115h-98v-12v-25h98v-115h-67q18 -21 47 -21q59 0 70 91h170q-4 -104 -72 -160t-168 -56q-81 0 -139.5 38.5t-87.5 107.5h-71z" />
<glyph horiz-adv-x="761" d="M70 0v543h259q220 0 220 -200q0 -66 -20 -181h-134q13 130 13 156q0 50 -19.5 73.5t-67.5 23.5h-111v-415h-140zM238 0v381h140v-253h79q65 0 90 36.5t25 112.5q0 86 -25 266h134q30 -159 30 -273q0 -127 -59.5 -198.5t-186.5 -71.5h-227z" />
<glyph horiz-adv-x="592" d="M4 -93l65 226q-29 61 -29 138q0 88 37.5 155t103.5 100l31 110h156l-23 -80q30 -4 44 -7l24 87h156l-47 -169q37 -51 40 -126h-170q-6 46 -24 68.5t-56 22.5q-88 0 -88 -161t88 -161q38 0 56 22.5t24 68.5h170q-3 -85 -50.5 -138.5t-125.5 -69.5l-24 -86h-156l25 89 q-22 6 -41 15l-30 -104h-156z" />
<glyph horiz-adv-x="817" d="M70 0v408h160v-51q66 66 136 66q41 0 67 -14l39 84h156l-34 -73q16 3 30 3q52 0 87.5 -30.5t35.5 -104.5v-288h-160v249q0 49 -43 49h-7l-49 -107v-191h-89l-39 -85h-156l124 267v67q0 49 -43 49q-32 0 -55 -26v-272h-160z" />
<glyph horiz-adv-x="652" d="M28 131v115h62v37h-62v115h62v145h152l163 -303l-3 168v135h160v-145h62v-115h-62v-37h62v-115h-62v-131h-152l-163 303l3 -168v-135h-160v131h-62z" />
<glyph horiz-adv-x="494" d="M20 276v115h231q-20 37 -81 37h-150v115h58h396v-115h-70q11 -15 21 -37h49v-115h-48q-26 -99 -137 -135l158 -141h-203l-140 124v115h66q55 0 78 37h-228z" />
<glyph horiz-adv-x="821" d="M20 131v115h89l-10 37h-79v115h49l-39 145h180l31 -156l32 -176l39 176l34 156h145l40 -156l45 -176l29 176l28 156h158l-35 -145h45v-115h-73l-9 -37h82v-115h-109l-32 -131h-158l-39 149l-43 176l-38 -176l-33 -149h-174l-35 131h-120z" />
<glyph horiz-adv-x="491" d="M40 0v115h431v-115h-431zM40 284q0 65 42 108t104 43q67 0 102 -44v55h-73v97h73v34h140v-34h43v-97h-43v-303h-140v34q-46 -45 -112 -45q-65 0 -100.5 42t-35.5 110zM192 284q0 -27 12.5 -40.5t31.5 -13.5q28 0 52 19v70q-23 17 -48 17q-21 0 -34.5 -13t-13.5 -39z" />
<glyph horiz-adv-x="562" d="M8 228v115h62v200h176v-171l107 171h166l-131 -200h144v-115h-123l143 -228h-202l-104 184v-184h-176v228h-62z" />
<glyph horiz-adv-x="502" d="M30 418v125h442v-125h-133v-42l94 28v-122l-94 -28v-35l94 28v-122l-94 -28v-97h-176v44l-94 -28v121l94 28v36l-94 -28v121l94 28v96h-133z" />
<glyph horiz-adv-x="566" d="M8 294v115h62v134h192q80 0 142 -34.5t83 -99.5h69v-115h-67q-19 -68 -81.5 -104.5t-145.5 -36.5h-16v-153h-176v294h-62zM246 274h16q23 0 42.5 17.5t19.5 56.5t-19.5 56.5t-42.5 17.5h-16v-148z" />
<glyph horiz-adv-x="587" d="M40 213v115h281q39 26 39 65q0 23 -18 34t-44 11q-62 0 -68 -58h-170q8 88 69 132.5t169 44.5q97 0 159 -36t62 -105q0 -52 -31 -88h50v-115h-282q-37 -27 -37 -64q0 -23 18 -34t44 -11q62 0 68 58h170q-17 -177 -238 -177q-97 0 -159 36t-62 105q0 50 30 87h-50z" />
<glyph horiz-adv-x="592" d="M40 271q0 104 52 177.5t139 97.5v90h156v-87q78 -17 125 -70t50 -138h-170q-6 46 -24 68.5t-56 22.5q-88 0 -88 -161t88 -161q38 0 56 22.5t24 68.5h170q-3 -85 -50 -138t-125 -70v-86h-156v89q-87 24 -139 97.5t-52 177.5z" />
<glyph horiz-adv-x="588" d="M70 0v543h129v93h156v-96q173 -17 173 -137q0 -36 -20.5 -67.5t-59.5 -44.5q100 -29 100 -128q0 -75 -55.5 -114.5t-137.5 -46.5v-95h-156v93h-129zM246 113h74q22 0 39 12.5t17 40.5q0 30 -17 42.5t-39 12.5h-74v-108zM246 330h54q56 0 56 51q0 49 -56 49h-54v-100z" />
<glyph horiz-adv-x="556" d="M20 433l98 95l63 -61q45 17 97 17t97 -17l63 61l98 -95l-59 -58q21 -40 21 -96q0 -53 -22 -97l59 -57l-98 -96l-63 61q-43 -17 -96 -17t-96 17l-63 -61l-98 96l59 57q-22 44 -22 97q0 55 21 96zM218 279q0 -98 60 -98t60 98q0 97 -60 97t-60 -97z" />
<glyph horiz-adv-x="587" d="M20 133v116h84l16 62h-60v115h91l31 117h152l-31 -117h60l31 117h152l-31 -117h52v-115h-83l-16 -62h59v-116h-90l-35 -133h-152l35 133h-60l-35 -133h-152l35 133h-53zM256 249h60l16 62h-60z" />
<glyph horiz-adv-x="664" d="M40 350q0 165 80 265t212 100t212 -100t80 -265t-80 -265t-212 -100t-212 100t-80 265zM205 350q0 -64 8 -105l154 327q-13 4 -35 4q-61 0 -94 -62.5t-33 -163.5zM297 128q13 -4 35 -4q61 0 94 62.5t33 163.5q0 64 -8 105z" />
<glyph horiz-adv-x="594" d="M40 289q0 138 68 220t189 82t189 -82t68 -220t-68 -221t-189 -83t-189 83t-68 221zM220 289q0 -94 17.5 -141.5t59.5 -47.5t59.5 47.5t17.5 141.5t-17.5 140.5t-59.5 46.5t-59.5 -46.5t-17.5 -140.5z" />
<glyph horiz-adv-x="594" d="M40 289q0 138 68 220t189 82t189 -82t68 -220t-68 -221t-189 -83t-189 83t-68 221zM195 289q0 -37 5 -74l127 256q-15 5 -30 5q-102 0 -102 -187zM267 105q15 -5 30 -5q102 0 102 189q0 37 -5 74z" />
<glyph horiz-adv-x="435" d="M30 327v159l165 90h180v-576h-180v417z" />
<glyph horiz-adv-x="581" d="M40 356q15 235 255 235q115 0 178 -49.5t63 -143.5q0 -27 -6 -50t-22 -46t-30.5 -39.5t-46.5 -40.5t-53.5 -38.5t-66.5 -44.5h230v-139h-479v139q175 102 237 152.5t62 106.5q0 29 -17 48.5t-49 19.5q-38 0 -60 -29t-24 -81h-171z" />
<glyph horiz-adv-x="596" d="M20 66h181q2 -40 26 -65t65 -25q42 0 65.5 24t23.5 66q0 91 -120 91h-80v129h80q53 0 79.5 29t26.5 74q0 36 -21.5 56.5t-57.5 20.5q-81 0 -87 -90h-171q8 104 76 159.5t187 55.5q114 0 181.5 -52.5t67.5 -151.5q0 -44 -29 -89t-73 -66q58 -18 87 -63.5t29 -100.5 q0 -101 -73 -159t-192 -58q-256 0 -271 215z" />
<glyph horiz-adv-x="601" d="M50 0v139l175 437h170l-180 -437h121v150h159v-150h86v-139h-86v-134h-159v134h-286z" />
<glyph horiz-adv-x="596" d="M40 76h181q2 -42 22.5 -71t57.5 -29q44 0 62 34t18 96q0 106 -88 106q-40 0 -75 -33h-159v397h452v-139h-293v-159q20 28 61 49.5t82 21.5q94 0 144.5 -63t50.5 -180q0 -115 -72 -185t-183 -70q-121 0 -187 58.5t-74 166.5z" />
<glyph horiz-adv-x="620" d="M40 342q0 204 76.5 310.5t203.5 106.5q105 0 169.5 -53t74.5 -164h-171q-4 46 -24 69t-49 23q-94 0 -100 -258q27 33 73.5 55t88.5 22q95 0 146.5 -59.5t51.5 -168.5q0 -108 -73.5 -174t-184.5 -66q-133 0 -207.5 92.5t-74.5 264.5zM222 287q11 -177 100 -177q38 0 58 30 t20 75q0 41 -20 71t-66 30q-20 0 -48 -8t-44 -21z" />
<glyph horiz-adv-x="509" d="M30 437v139h449v-139l-220 -571h-175l225 571h-279z" />
<glyph horiz-adv-x="630" d="M40 202q0 57 29.5 107t96.5 76q-53 20 -81.5 63.5t-28.5 96.5q0 101 72.5 157.5t186.5 56.5t186.5 -56.5t72.5 -157.5q0 -53 -28.5 -96.5t-81.5 -63.5q67 -26 96.5 -76t29.5 -107q0 -101 -74.5 -159t-200.5 -58t-200.5 58t-74.5 159zM215 207q0 -43 26 -70t74 -27t74 27 t26 70q0 44 -26 71t-74 27t-74 -27t-26 -71zM231 540q0 -46 23 -70.5t61 -24.5t61 24.5t23 70.5t-23 70t-61 24t-61 -24t-23 -70z" />
<glyph horiz-adv-x="620" d="M40 351q0 108 73.5 174t184.5 66q134 0 208 -88.5t74 -258.5q0 -201 -75.5 -297t-204.5 -96q-236 0 -255 207h171q3 -44 27.5 -63t56.5 -19q49 0 72.5 53t26.5 170q-27 -32 -73.5 -54t-87.5 -22q-95 0 -146.5 59.5t-51.5 168.5zM220 361q0 -41 20 -71t66 -30q20 0 48.5 8 t44.5 21q-9 177 -101 177q-38 0 -58 -30t-20 -75z" />
<glyph d="M28 350q0 168 71.5 266.5t200.5 98.5t200.5 -98.5t71.5 -266.5t-71.5 -266.5t-200.5 -98.5t-200.5 98.5t-71.5 266.5zM218 350q0 -226 82 -226t82 226t-82 226t-82 -226z" />
<glyph d="M28 350q0 168 71.5 266.5t200.5 98.5t200.5 -98.5t71.5 -266.5t-71.5 -266.5t-200.5 -98.5t-200.5 98.5t-71.5 266.5zM184 350q0 -54 4 -89l147 310q-18 5 -35 5q-58 0 -87 -62t-29 -164zM265 129q18 -5 35 -5q58 0 87 62t29 164q0 54 -4 89z" />
<glyph d="M50 0v139h165v402l-165 -90v159l165 90h185v-561h156v-139h-341h-165z" />
<glyph d="M42 480q7 117 75.5 176t189.5 59q116 0 183.5 -54.5t67.5 -154.5q0 -44 -14.5 -83.5t-52 -85.5t-79 -87t-119.5 -111h270v-139h-499v139q22 20 62.5 56.5t58 52.5t48 44.5t43.5 42.5t33 36.5t28.5 36.5t18 32t13 33.5t3.5 32.5q0 75 -65 75q-38 0 -56.5 -24.5 t-20.5 -76.5h-188z" />
<glyph d="M32 200h188q5 -81 83 -81q41 0 60.5 23t19.5 60q0 79 -120 79h-70v139h70q53 0 79.5 26.5t26.5 64.5q0 70 -64 70q-70 0 -75 -81h-188q8 104 76 159.5t187 55.5q114 0 181.5 -52.5t67.5 -151.5q0 -44 -28.5 -86.5t-73.5 -63.5q59 -18 87.5 -61.5t28.5 -97.5 q0 -101 -73 -159t-192 -58q-256 0 -271 215z" />
<glyph d="M40 101v139l175 460h170l-180 -460h121v150h165v-150h80v-139h-80v-101h-165v101h-286z" />
<glyph d="M42 200h188q2 -41 18.5 -61t54.5 -20q37 0 53 33.5t16 82.5q0 101 -77 101q-40 0 -75 -33h-159v397h452v-139h-293v-159q20 28 61 49.5t82 21.5q95 0 145 -60.5t50 -177.5q0 -115 -71.5 -182.5t-183.5 -67.5q-246 0 -261 215z" />
<glyph d="M36 320q0 190 77 292.5t203 102.5q104 0 169 -49.5t75 -147.5h-188q-4 34 -16.5 48.5t-39.5 14.5q-46 0 -66 -50t-23 -154q27 33 69 54.5t82 21.5q95 0 146.5 -59.5t51.5 -168.5q0 -108 -73.5 -174t-184.5 -66q-132 0 -207 88.5t-75 246.5zM227 286q2 -81 23 -124t68 -43 q36 0 54 32.5t18 73.5q0 36 -17.5 63.5t-62.5 27.5q-48 0 -83 -30z" />
<glyph d="M60 561v139h470v-139l-241 -561h-175l246 561h-300z" />
<glyph d="M25 190q0 57 30 104.5t96 66.5q-52 20 -81 62t-29 88q0 100 71.5 152t187.5 52t187.5 -52t71.5 -152q0 -46 -29 -88t-81 -62q66 -19 96 -66.5t30 -104.5q0 -100 -73.5 -152.5t-201.5 -52.5t-201.5 52.5t-73.5 152.5zM205 200q0 -36 25 -58.5t70 -22.5t70 22.5t25 58.5 t-25 58.5t-70 22.5t-70 -22.5t-25 -58.5zM218 501q0 -39 22.5 -59.5t59.5 -20.5t59.5 20.5t22.5 59.5t-22.5 59.5t-59.5 20.5t-59.5 -20.5t-22.5 -59.5z" />
<glyph d="M36 475q0 111 73 175.5t186 64.5q132 0 206.5 -88.5t74.5 -246.5q0 -190 -77 -292.5t-203 -102.5q-112 0 -179.5 52t-74.5 155h188q8 -73 66 -73q49 0 68.5 51.5t21.5 163.5q-28 -34 -69.5 -55.5t-82.5 -21.5q-96 0 -147 55t-51 163zM218 475q0 -33 19.5 -57t64.5 -24 q46 0 83 30q-3 77 -23.5 117t-66.5 40q-39 0 -58 -29.5t-19 -76.5z" />
<glyph d="M43 289q0 138 68 220t189 82t189 -82t68 -220t-68 -221t-189 -83t-189 83t-68 221zM223 289q0 -94 17.5 -141.5t59.5 -47.5t59.5 47.5t17.5 141.5t-17.5 140.5t-59.5 46.5t-59.5 -46.5t-17.5 -140.5z" />
<glyph d="M43 289q0 138 68 220t189 82t189 -82t68 -220t-68 -221t-189 -83t-189 83t-68 221zM198 289q0 -37 5 -74l127 256q-15 5 -30 5q-102 0 -102 -187zM270 105q15 -5 30 -5q102 0 102 189q0 37 -5 74z" />
<glyph d="M54 0v139h165v278l-165 -90v159l165 90h180v-437h154v-139h-334h-165z" />
<glyph d="M50 356q15 235 255 235q115 0 178 -49.5t63 -143.5q0 -27 -6 -50t-22 -46t-30.5 -39.5t-46.5 -40.5t-53.5 -38.5t-66.5 -44.5h230v-139h-479v139q175 102 237 152.5t62 106.5q0 29 -17 48.5t-49 19.5q-38 0 -60 -29t-24 -81h-171z" />
<glyph d="M30 66h181q2 -40 26 -65t65 -25q42 0 65.5 24t23.5 66q0 91 -120 91h-80v129h80q53 0 79.5 29t26.5 74q0 36 -21.5 56.5t-57.5 20.5q-81 0 -87 -90h-171q8 104 76 159.5t187 55.5q114 0 181.5 -52.5t67.5 -151.5q0 -44 -29 -89t-73 -66q58 -18 87 -63.5t29 -100.5 q0 -101 -73 -159t-192 -58q-256 0 -271 215z" />
<glyph d="M40 0v139l175 437h170l-180 -437h121v150h159v-150h86v-139h-86v-134h-159v134h-286z" />
<glyph d="M42 76h181q2 -42 22.5 -71t57.5 -29q44 0 62 34t18 96q0 106 -88 106q-40 0 -75 -33h-159v397h452v-139h-293v-159q20 28 61 49.5t82 21.5q94 0 144.5 -63t50.5 -180q0 -115 -72 -185t-183 -70q-121 0 -187 58.5t-74 166.5z" />
<glyph d="M35 342q0 204 76.5 310.5t203.5 106.5q105 0 169.5 -53t74.5 -164h-171q-4 46 -24 69t-49 23q-91 0 -99 -237q27 32 73.5 54t87.5 22q95 0 146.5 -61t51.5 -177q0 -114 -73 -182t-185 -68q-133 0 -207.5 92.5t-74.5 264.5zM216 306q7 -196 101 -196q38 0 58 31.5t20 83.5 q0 111 -86 111q-20 0 -48.5 -8.5t-44.5 -21.5z" />
<glyph d="M70 437v139h470v-139l-241 -571h-175l246 571h-300z" />
<glyph d="M25 202q0 57 29.5 107t96.5 76q-53 20 -81.5 63.5t-28.5 96.5q0 101 72.5 157.5t186.5 56.5t186.5 -56.5t72.5 -157.5q0 -53 -28.5 -96.5t-81.5 -63.5q67 -26 96.5 -76t29.5 -107q0 -101 -74.5 -159t-200.5 -58t-200.5 58t-74.5 159zM200 207q0 -43 26 -70t74 -27t74 27 t26 70q0 44 -26 71t-74 27t-74 -27t-26 -71zM216 540q0 -46 23 -70.5t61 -24.5t61 24.5t23 70.5t-23 70t-61 24t-61 -24t-23 -70z" />
<glyph d="M35 351q0 108 73.5 174t184.5 66q134 0 208 -88.5t74 -258.5q0 -201 -75.5 -297t-204.5 -96q-236 0 -255 207h171q3 -44 27.5 -63t56.5 -19q49 0 72.5 53t26.5 170q-27 -32 -73.5 -54t-87.5 -22q-95 0 -146.5 59.5t-51.5 168.5zM215 361q0 -41 20 -71t66 -30q20 0 48.5 8 t44.5 21q-9 177 -101 177q-38 0 -58 -30t-20 -75z" />
<glyph horiz-adv-x="583" d="M40 271q0 129 69.5 207.5t182.5 78.5t182 -78.5t69 -207.5q0 -128 -69 -207t-182 -79t-182.5 79t-69.5 207zM218 271q0 -76 19 -118.5t55 -42.5t54.5 42.5t18.5 118.5t-18.5 118.5t-54.5 42.5t-55 -42.5t-19 -118.5z" />
<glyph horiz-adv-x="583" d="M40 271q0 129 69 207.5t183 78.5t182.5 -78.5t68.5 -207.5t-68.5 -207.5t-182.5 -78.5t-183 78.5t-69 207.5zM194 271q0 -33 5 -65l114 233q-11 3 -21 3q-44 0 -71 -42.5t-27 -128.5zM267 104q11 -4 25 -4q43 0 70 42.5t27 128.5q0 41 -6 71z" />
<glyph horiz-adv-x="408" d="M30 334v139l132 70h176v-543h-176v403z" />
<glyph horiz-adv-x="517" d="M40 372q6 89 67.5 137t159.5 48q94 0 155 -45t61 -122q0 -60 -45.5 -117t-158.5 -148h208v-125h-429v125q33 27 86 69t75 60.5t49 45.5t36.5 47.5t9.5 42.5q0 21 -12 34.5t-36 13.5q-51 0 -56 -66h-170z" />
<glyph horiz-adv-x="539" d="M30 155h170q5 -52 67 -52q31 0 45 16t14 39q0 56 -91 56h-56v116h56q80 0 80 61q0 48 -47 48q-54 0 -60 -51h-170q6 78 69.5 123.5t160.5 45.5q105 0 162.5 -39.5t57.5 -116.5q0 -41 -24.5 -73t-67.5 -48q53 -14 78 -47t25 -75q0 -80 -62 -126.5t-170 -46.5 q-106 0 -168.5 44t-68.5 126z" />
<glyph horiz-adv-x="527" d="M50 70v125l140 348h168l-144 -348h75v107h164v-107h54v-125h-54v-70h-164v70h-239z" />
<glyph horiz-adv-x="523" d="M40 155h170q4 -52 51 -52q23 0 36 21.5t13 54.5q0 71 -54 71q-32 0 -54 -25h-149v318h394v-125h-245v-100q19 21 51 35t66 14q76 0 120 -49.5t44 -132.5q0 -97 -59 -148.5t-163 -51.5q-99 0 -157 44t-64 126z" />
<glyph horiz-adv-x="543" d="M40 248q0 149 65.5 229t179.5 80q84 0 140.5 -40.5t64.5 -115.5h-170q-7 38 -45 38q-34 0 -46.5 -30t-14.5 -100q54 42 125 42q76 0 120 -46.5t44 -130.5t-63 -136.5t-163 -52.5q-112 0 -174.5 70t-62.5 193zM213 228q1 -67 13 -96t51 -29q29 0 43 20.5t14 50.5 q0 71 -64 71q-31 0 -57 -17z" />
<glyph horiz-adv-x="439" d="M30 418v125h379v-125l-176 -418h-170l180 418h-213z" />
<glyph horiz-adv-x="560" d="M40 147q0 43 24.5 79.5t74.5 53.5q-41 15 -64.5 50t-23.5 71q0 77 63.5 116.5t165.5 39.5t165.5 -39.5t63.5 -116.5q0 -36 -23.5 -71t-64.5 -50q50 -17 74.5 -53.5t24.5 -79.5q0 -77 -65 -119.5t-175 -42.5t-175 42.5t-65 119.5zM216 155q0 -56 64 -56t64 56 q0 27 -16.5 42t-47.5 15t-47.5 -15t-16.5 -42zM224 388q0 -56 56 -56t56 56q0 55 -56 55t-56 -55z" />
<glyph horiz-adv-x="543" d="M40 373q0 84 63 134t163 50q112 0 174.5 -70t62.5 -193q0 -149 -65.5 -229t-179.5 -80q-88 0 -146 39.5t-69 126.5h170q8 -48 55 -48q35 0 47.5 32t14.5 108q-56 -42 -126 -42q-77 0 -120.5 44t-43.5 128zM209 373q0 -66 64 -66q31 0 57 17q-2 61 -14.5 88t-49.5 27 q-57 0 -57 -66z" />
<glyph horiz-adv-x="444" d="M20 650q0 100 55 159.5t147 59.5t147 -59.5t55 -159.5t-55 -159.5t-147 -59.5t-147 59.5t-55 159.5zM168 650q0 -56 11.5 -86t42.5 -30t42.5 30t11.5 86t-11.5 86t-42.5 30t-42.5 -30t-11.5 -86z" />
<glyph horiz-adv-x="281" d="M10 687v119l107 54h144v-420h-144v301z" />
<glyph horiz-adv-x="389" d="M20 728q5 69 53.5 105t128.5 36q81 0 127 -35t46 -96q0 -51 -29.5 -85.5t-124.5 -105.5h158v-107h-345v107q22 17 52 39t46 34t36 28t30 26t19.5 21.5t13.5 21.5t4 21q0 35 -33 35q-37 0 -40 -45h-142z" />
<glyph horiz-adv-x="408" d="M20 560h142q3 -33 44 -33q22 0 32 10.5t10 24.5q0 20 -14.5 29.5t-53.5 9.5h-46v99h46q59 0 59 42q0 31 -32 31q-36 0 -39 -33h-142q5 61 54 95t127 34q76 0 124 -31t48 -89q0 -29 -18 -55t-52 -37q79 -19 79 -96q0 -59 -52 -94.5t-130 -35.5q-177 0 -186 129z" />
<glyph horiz-adv-x="389" d="M10 491v107l113 262h135l-117 -262h58v76h128v-76h52v-107h-52v-51h-128v51h-189z" />
<glyph horiz-adv-x="385" d="M20 560h142q4 -33 38 -33q35 0 35 54q0 51 -41 51q-26 0 -48 -20h-114v248h314v-107h-200v-62q39 33 93 33q63 0 99.5 -37t36.5 -106q0 -68 -50.5 -109t-124.5 -41q-81 0 -128 32.5t-52 96.5z" />
<glyph horiz-adv-x="395" d="M10 632q0 114 54 175.5t139 61.5q74 0 119.5 -32t52.5 -91h-143q-7 27 -29 27t-32 -22t-12 -73q34 34 87 34q68 0 103.5 -35t35.5 -102q0 -64 -51.5 -104t-126.5 -40q-93 0 -145 53t-52 148zM158 608q1 -41 10.5 -61t38.5 -20q18 0 27.5 13.5t9.5 34.5q0 45 -42 45 q-23 0 -44 -12z" />
<glyph horiz-adv-x="331" d="M10 753v107h311v-107l-143 -313h-137l146 313h-177z" />
<glyph horiz-adv-x="408" d="M10 554q0 34 20 62.5t63 40.5q-33 12 -52.5 37.5t-19.5 52.5q0 59 50.5 90.5t132.5 31.5t132.5 -31.5t50.5 -90.5q0 -27 -19.5 -52.5t-52.5 -37.5q43 -12 63 -40.5t20 -62.5q0 -60 -51.5 -91.5t-142.5 -31.5t-142.5 31.5t-51.5 91.5zM152 566q0 -39 52 -39t52 39t-52 39 t-52 -39zM161 735q0 -38 43 -38t43 38t-43 38t-43 -38z" />
<glyph horiz-adv-x="395" d="M10 725q0 64 51.5 104t126.5 40q93 0 145 -53t52 -148q0 -114 -54 -175.5t-139 -61.5q-74 0 -119.5 32t-52.5 91h143q7 -27 29 -27t32 22t12 73q-34 -34 -87 -34q-69 0 -104 35t-35 102zM151 725q0 -45 42 -45q23 0 44 12q-1 41 -10.5 61t-38.5 20q-18 0 -27.5 -13.5 t-9.5 -34.5z" />
<glyph horiz-adv-x="372" d="M20 605v109h112v112h108v-112h112v-109h-112v-111h-108v111h-112z" />
<glyph horiz-adv-x="372" d="M20 606v108h332v-108h-332z" />
<glyph horiz-adv-x="372" d="M20 526v108h332v-108h-332zM20 686v108h332v-108h-332z" />
<glyph horiz-adv-x="181" d="M20 344l13 198h128l-32 -198h-109z" />
<glyph horiz-adv-x="196" d="M20 510q0 35 21 56.5t58 21.5q36 0 56.5 -21.5t20.5 -56.5t-20.5 -57t-56.5 -22q-37 0 -58 22t-21 57z" />
<glyph horiz-adv-x="268" d="M20 650q0 165 135 285h133q-53 -50 -85 -128t-32 -157t32 -157t85 -128h-133q-135 120 -135 285z" />
<glyph horiz-adv-x="268" d="M-20 365q54 50 86 128t32 157t-32 157t-86 128h134q134 -121 134 -285t-134 -285h-134z" />
<glyph horiz-adv-x="444" d="M20 90q0 100 55 159.5t147 59.5t147 -59.5t55 -159.5t-55 -159.5t-147 -59.5t-147 59.5t-55 159.5zM168 90q0 -56 11.5 -86t42.5 -30t42.5 30t11.5 86t-11.5 86t-42.5 30t-42.5 -30t-11.5 -86z" />
<glyph horiz-adv-x="281" d="M10 127v119l107 54h144v-420h-144v301z" />
<glyph horiz-adv-x="389" d="M20 168q5 69 53.5 105t128.5 36q81 0 127 -35t46 -96q0 -51 -29.5 -85.5t-124.5 -105.5h158v-107h-345v107q22 17 52 39t46 34t36 28t30 26t19.5 21.5t13.5 21.5t4 21q0 35 -33 35q-37 0 -40 -45h-142z" />
<glyph horiz-adv-x="408" d="M20 0h142q3 -33 44 -33q22 0 32 10.5t10 24.5q0 20 -14.5 29.5t-53.5 9.5h-46v99h46q59 0 59 42q0 31 -32 31q-36 0 -39 -33h-142q5 61 54 95t127 34q76 0 124 -31t48 -89q0 -29 -18 -55t-52 -37q79 -19 79 -96q0 -59 -52 -94.5t-130 -35.5q-177 0 -186 129z" />
<glyph horiz-adv-x="389" d="M10 38l113 262h135l-117 -262h58v76h128v-76h52v-107h-52v-51h-128v51h-189v107z" />
<glyph horiz-adv-x="385" d="M20 0h142q4 -33 38 -33q35 0 35 54q0 51 -41 51q-26 0 -48 -20h-114v248h314v-107h-200v-62q39 33 93 33q63 0 99.5 -37t36.5 -106q0 -68 -50.5 -109t-124.5 -41q-81 0 -128 32.5t-52 96.5z" />
<glyph horiz-adv-x="395" d="M10 72q0 114 54 175.5t139 61.5q74 0 119.5 -32t52.5 -91h-143q-7 27 -29 27t-32 -22t-12 -73q34 34 87 34q68 0 103.5 -35t35.5 -102q0 -64 -51.5 -104t-126.5 -40q-93 0 -145 53t-52 148zM158 48q1 -41 10.5 -61t38.5 -20q18 0 27.5 13.5t9.5 34.5q0 45 -42 45 q-23 0 -44 -12z" />
<glyph horiz-adv-x="331" d="M10 193v107h311v-107l-143 -313h-137l146 313h-177z" />
<glyph horiz-adv-x="408" d="M10 -6q0 34 20 62.5t63 40.5q-33 12 -52.5 37.5t-19.5 52.5q0 59 50.5 90.5t132.5 31.5t132.5 -31.5t50.5 -90.5q0 -27 -19.5 -52.5t-52.5 -37.5q43 -12 63 -40.5t20 -62.5q0 -60 -51.5 -91.5t-142.5 -31.5t-142.5 31.5t-51.5 91.5zM152 6q0 -39 52 -39t52 39t-52 39 t-52 -39zM161 175q0 -38 43 -38t43 38t-43 38t-43 -38z" />
<glyph horiz-adv-x="395" d="M10 165q0 64 51.5 104t126.5 40q93 0 145 -53t52 -148q0 -114 -54 -175.5t-139 -61.5q-74 0 -119.5 32t-52.5 91h143q7 -27 29 -27t32 22t12 73q-34 -34 -87 -34q-69 0 -104 35t-35 102zM151 165q0 -45 42 -45q23 0 44 12q-1 41 -10.5 61t-38.5 20q-18 0 -27.5 -13.5 t-9.5 -34.5z" />
<glyph horiz-adv-x="372" d="M20 45v109h112v112h108v-112h112v-109h-112v-111h-108v111h-112z" />
<glyph horiz-adv-x="372" d="M20 46v108h332v-108h-332z" />
<glyph horiz-adv-x="372" d="M20 -34v108h332v-108h-332zM20 126v108h332v-108h-332z" />
<glyph horiz-adv-x="181" d="M20 -216l13 198h128l-32 -198h-109z" />
<glyph horiz-adv-x="212" d="M20 -50q0 35 21 56.5t58 21.5q36 0 56.5 -21.5t20.5 -56.5t-20.5 -57t-56.5 -22q-37 0 -58 22t-21 57z" />
<glyph horiz-adv-x="268" d="M20 90q0 165 135 285h133q-53 -50 -85 -128t-32 -157t32 -157t85 -128h-133q-135 120 -135 285z" />
<glyph horiz-adv-x="268" d="M-20 -195q54 50 86 128t32 157t-32 157t-86 128h134q134 -121 134 -285t-134 -285h-134z" />
<glyph horiz-adv-x="444" d="M20 490q0 100 55 159.5t147 59.5t147 -59.5t55 -159.5t-55 -159.5t-147 -59.5t-147 59.5t-55 159.5zM168 490q0 -56 11.5 -86t42.5 -30t42.5 30t11.5 86t-11.5 86t-42.5 30t-42.5 -30t-11.5 -86z" />
<glyph horiz-adv-x="281" d="M10 527v119l107 54h144v-420h-144v301z" />
<glyph horiz-adv-x="389" d="M20 568q5 69 53.5 105t128.5 36q81 0 127 -35t46 -96q0 -51 -29.5 -85.5t-124.5 -105.5h158v-107h-345v107q22 17 52 39t46 34t36 28t30 26t19.5 21.5t13.5 21.5t4 21q0 35 -33 35q-37 0 -40 -45h-142z" />
<glyph horiz-adv-x="408" d="M20 400h142q3 -33 44 -33q22 0 32 10.5t10 24.5q0 20 -14.5 29.5t-53.5 9.5h-46v99h46q59 0 59 42q0 31 -32 31q-36 0 -39 -33h-142q5 61 54 95t127 34q76 0 124 -31t48 -89q0 -29 -18 -55t-52 -37q79 -19 79 -96q0 -59 -52 -94.5t-130 -35.5q-177 0 -186 129z" />
<glyph horiz-adv-x="389" d="M10 331v107l113 262h135l-117 -262h58v76h128v-76h52v-107h-52v-51h-128v51h-189z" />
<glyph horiz-adv-x="385" d="M20 400h142q4 -33 38 -33q35 0 35 54q0 51 -41 51q-26 0 -48 -20h-114v248h314v-107h-200v-62q39 33 93 33q63 0 99.5 -37t36.5 -106q0 -68 -50.5 -109t-124.5 -41q-81 0 -128 32.5t-52 96.5z" />
<glyph horiz-adv-x="395" d="M10 472q0 114 54 175.5t139 61.5q74 0 119.5 -32t52.5 -91h-143q-7 27 -29 27t-32 -22t-12 -73q34 34 87 34q68 0 103.5 -35t35.5 -102q0 -64 -51.5 -104t-126.5 -40q-93 0 -145 53t-52 148zM158 448q1 -41 10.5 -61t38.5 -20q18 0 27.5 13.5t9.5 34.5q0 45 -42 45 q-23 0 -44 -12z" />
<glyph horiz-adv-x="331" d="M10 593v107h311v-107l-143 -313h-137l146 313h-177z" />
<glyph horiz-adv-x="408" d="M10 394q0 34 20 62.5t63 40.5q-33 12 -52.5 37.5t-19.5 52.5q0 59 50.5 90.5t132.5 31.5t132.5 -31.5t50.5 -90.5q0 -27 -19.5 -52.5t-52.5 -37.5q43 -12 63 -40.5t20 -62.5q0 -60 -51.5 -91.5t-142.5 -31.5t-142.5 31.5t-51.5 91.5zM152 406q0 -39 52 -39t52 39t-52 39 t-52 -39zM161 575q0 -38 43 -38t43 38t-43 38t-43 -38z" />
<glyph horiz-adv-x="395" d="M10 565q0 64 51.5 104t126.5 40q93 0 145 -53t52 -148q0 -114 -54 -175.5t-139 -61.5q-74 0 -119.5 32t-52.5 91h143q7 -27 29 -27t32 22t12 73q-34 -34 -87 -34q-69 0 -104 35t-35 102zM151 565q0 -45 42 -45q23 0 44 12q-1 41 -10.5 61t-38.5 20q-18 0 -27.5 -13.5 t-9.5 -34.5z" />
<glyph horiz-adv-x="444" d="M20 210q0 100 55 159.5t147 59.5t147 -59.5t55 -159.5t-55 -159.5t-147 -59.5t-147 59.5t-55 159.5zM168 210q0 -56 11.5 -86t42.5 -30t42.5 30t11.5 86t-11.5 86t-42.5 30t-42.5 -30t-11.5 -86z" />
<glyph horiz-adv-x="281" d="M10 247v119l107 54h144v-420h-144v301z" />
<glyph horiz-adv-x="389" d="M20 288q5 69 53.5 105t128.5 36q81 0 127 -35t46 -96q0 -51 -29.5 -85.5t-124.5 -105.5h158v-107h-345v107q22 17 52 39t46 34t36 28t30 26t19.5 21.5t13.5 21.5t4 21q0 35 -33 35q-37 0 -40 -45h-142z" />
<glyph horiz-adv-x="408" d="M20 120h142q3 -33 44 -33q22 0 32 10.5t10 24.5q0 20 -14.5 29.5t-53.5 9.5h-46v99h46q59 0 59 42q0 31 -32 31q-36 0 -39 -33h-142q5 61 54 95t127 34q76 0 124 -31t48 -89q0 -29 -18 -55t-52 -37q79 -19 79 -96q0 -59 -52 -94.5t-130 -35.5q-177 0 -186 129z" />
<glyph horiz-adv-x="389" d="M10 51v107l113 262h135l-117 -262h58v76h128v-76h52v-107h-52v-51h-128v51h-189z" />
<glyph horiz-adv-x="385" d="M20 120h142q4 -33 38 -33q35 0 35 54q0 51 -41 51q-26 0 -48 -20h-114v248h314v-107h-200v-62q39 33 93 33q63 0 99.5 -37t36.5 -106q0 -68 -50.5 -109t-124.5 -41q-81 0 -128 32.5t-52 96.5z" />
<glyph horiz-adv-x="395" d="M10 192q0 114 54 175.5t139 61.5q74 0 119.5 -32t52.5 -91h-143q-7 27 -29 27t-32 -22t-12 -73q34 34 87 34q68 0 103.5 -35t35.5 -102q0 -64 -51.5 -104t-126.5 -40q-93 0 -145 53t-52 148zM158 168q1 -41 10.5 -61t38.5 -20q18 0 27.5 13.5t9.5 34.5q0 45 -42 45 q-23 0 -44 -12z" />
<glyph horiz-adv-x="331" d="M10 313v107h311v-107l-143 -313h-137l146 313h-177z" />
<glyph horiz-adv-x="408" d="M10 114q0 34 20 62.5t63 40.5q-33 12 -52.5 37.5t-19.5 52.5q0 59 50.5 90.5t132.5 31.5t132.5 -31.5t50.5 -90.5q0 -27 -19.5 -52.5t-52.5 -37.5q43 -12 63 -40.5t20 -62.5q0 -60 -51.5 -91.5t-142.5 -31.5t-142.5 31.5t-51.5 91.5zM152 126q0 -39 52 -39t52 39t-52 39 t-52 -39zM161 295q0 -38 43 -38t43 38t-43 38t-43 -38z" />
<glyph horiz-adv-x="395" d="M10 285q0 64 51.5 104t126.5 40q93 0 145 -53t52 -148q0 -114 -54 -175.5t-139 -61.5q-74 0 -119.5 32t-52.5 91h143q7 -27 29 -27t32 22t12 73q-34 -34 -87 -34q-69 0 -104 35t-35 102zM151 285q0 -45 42 -45q23 0 44 12q-1 41 -10.5 61t-38.5 20q-18 0 -27.5 -13.5 t-9.5 -34.5z" />
<glyph horiz-adv-x="786" d="M50 122l244 244l-244 244l98 99l244 -245l245 245l99 -98l-245 -245l245 -245l-99 -98l-245 244l-244 -244z" />
<glyph horiz-adv-x="1000" d="M40 297v139h920v-139h-920z" />
<glyph horiz-adv-x="500" d="M40 297v139h420v-139h-420z" />
<glyph horiz-adv-x="350" d="M50 297v139h250v-139h-250z" />
<glyph horiz-adv-x="340" d="M50 292v159l240 180v-184l-100 -71l100 -70v-194z" />
<glyph horiz-adv-x="340" d="M50 112v184l100 71l-100 70v194l240 -180v-159z" />
<glyph horiz-adv-x="610" d="M50 292v159l240 180v-184l-100 -71l100 -70v-194zM320 292v159l240 180v-184l-100 -71l100 -70v-194z" />
<glyph horiz-adv-x="610" d="M50 112v184l100 71l-100 70v194l240 -180v-159zM320 112v184l100 71l-100 70v194l240 -180v-159z" />
<glyph horiz-adv-x="576" d="M40 184q0 39 12 69t30 46.5t40 31.5t41.5 24t35 24.5t20.5 32t-3 46.5h176q11 -56 -2 -93.5t-39.5 -56t-54.5 -33t-49 -36.5t-21 -55q0 -65 62 -65q65 0 70 77h188q-7 -103 -74.5 -157t-183.5 -54q-115 0 -181.5 52t-66.5 147zM200 615q0 45 27 72.5t72 27.5t72.5 -28 t27.5 -72t-27.5 -71.5t-72.5 -27.5t-72 27.5t-27 71.5z" />
<glyph horiz-adv-x="320" d="M60 615q0 44 27.5 72t72.5 28t72 -27.5t27 -72.5q0 -44 -27 -71.5t-72 -27.5t-72.5 27.5t-27.5 71.5zM61 0l27 458h145l27 -458h-199z" />
<glyph horiz-adv-x="1092" d="M60 263q0 230 163 381t415 151q168 0 276 -94.5t108 -251.5q0 -94 -30 -170t-78.5 -121.5t-104.5 -69t-112 -23.5q-44 0 -82 17t-51 55q-45 -41 -80.5 -57t-77.5 -16q-69 0 -105.5 59.5t-36.5 151.5q0 142 76.5 246.5t183.5 104.5q62 0 101 -61l7 41h180l-66 -373 q-9 -53 28 -53t74.5 78.5t37.5 179.5q0 122 -67.5 185.5t-197.5 63.5q-84 0 -160 -26.5t-135 -76.5t-94 -129t-35 -176q0 -313 328 -313q55 0 131 13t118 29l-18 -108q-46 -17 -121 -30t-143 -13q-82 0 -158 25.5t-138 74t-99 128t-37 178.5zM445 290q0 -45 14 -73t40 -28 q32 0 64 27l46 259q-19 26 -45 26q-54 0 -86.5 -64.5t-32.5 -146.5z" />
<glyph horiz-adv-x="836" d="M50 218v125h736v-125h-736z" />
<glyph horiz-adv-x="436" d="M50 218v125h336v-125h-336z" />
<glyph horiz-adv-x="300" d="M50 218v125h200v-125h-200z" />
<glyph horiz-adv-x="495" d="M30 391q6 79 64.5 122.5t152.5 43.5q93 0 150.5 -42t57.5 -115q0 -38 -17.5 -65t-41.5 -40.5t-46.5 -25t-33.5 -29t-2 -42.5h-161q-9 43 1.5 71t31.5 40.5t43.5 22.5t39.5 26t17 42q0 38 -39 38q-43 0 -47 -47h-170zM150 73q0 39 24 63.5t64 24.5t64 -24.5t24 -63.5 t-24 -63.5t-64 -24.5t-64 24.5t-24 63.5z" />
<glyph horiz-adv-x="495" d="M40 142q0 38 17.5 65t41.5 40.5t46.5 25t33.5 29t2 42.5h161q9 -43 -1.5 -71t-31.5 -40.5t-43.5 -22.5t-39.5 -26t-17 -42q0 -38 39 -38q43 0 47 47h170q-6 -79 -64.5 -122.5t-152.5 -43.5q-93 0 -150.5 42t-57.5 115zM169 469q0 39 24 63.5t64 24.5t64 -24.5t24 -63.5 t-24 -63.5t-64 -24.5t-64 24.5t-24 63.5z" />
<glyph horiz-adv-x="299" d="M60 543h179l-22 -345h-136zM61 73q0 39 24 63.5t64 24.5t64 -24.5t24 -63.5t-24 -63.5t-64 -24.5t-64 24.5t-24 63.5z" />
<glyph horiz-adv-x="299" d="M60 0l21 345h136l22 -345h-179zM61 470q0 39 24 63.5t64 24.5t64 -24.5t24 -63.5t-24 -63.5t-64 -24.5t-64 24.5t-24 63.5z" />
<glyph horiz-adv-x="362" d="M50 430q0 55 37.5 91t93.5 36t93.5 -36t37.5 -91t-37.5 -91t-93.5 -36t-93.5 36t-37.5 91zM140 430q0 -18 11.5 -30t29.5 -12t29.5 12t11.5 30t-11.5 30t-29.5 12t-29.5 -12t-11.5 -30z" />
<glyph horiz-adv-x="244" d="M50 543h144l-15 -233h-114z" />
<glyph horiz-adv-x="420" d="M50 543h144l-15 -233h-114zM226 543h144l-15 -233h-114z" />
<glyph horiz-adv-x="244" d="M10 450l64 217h160l-94 -217h-130z" />
<glyph horiz-adv-x="440" d="M10 450l64 217h160l-94 -217h-130zM206 450l64 217h160l-94 -217h-130z" />
<glyph horiz-adv-x="244" d="M10 450l94 217h130l-64 -217h-160z" />
<glyph horiz-adv-x="440" d="M10 450l94 217h130l-64 -217h-160zM206 450l94 217h130l-64 -217h-160z" />
<glyph horiz-adv-x="484" d="M50 218v125h129v129h125v-129h130v-125h-130v-130h-125v130h-129z" />
<glyph horiz-adv-x="484" d="M50 218v125h384v-125h-384z" />
<glyph horiz-adv-x="484" d="M50 128v125h384v-125h-384zM50 308v125h384v-125h-384z" />
<glyph horiz-adv-x="369" d="M60 271q0 215 166 368h163q-66 -64 -105.5 -165t-39.5 -203t39.5 -203t105.5 -165h-163q-166 155 -166 368z" />
<glyph horiz-adv-x="369" d="M-20 -97q66 64 105.5 165t39.5 203t-39.5 203t-105.5 165h163q166 -153 166 -368q0 -213 -166 -368h-163z" />
<glyph horiz-adv-x="388" d="M120 -97v736h248v-110h-72v-516h72v-110h-248z" />
<glyph horiz-adv-x="388" d="M20 13h72v516h-72v110h248v-736h-248v110z" />
<glyph horiz-adv-x="368" d="M20 214v116q43 0 61.5 9t18.5 41v84q0 89 63 132t165 43h20v-110h-20q-31 0 -41.5 -13.5t-10.5 -44.5v-85q0 -45 -22.5 -75.5t-55.5 -39.5q33 -9 55.5 -39.5t22.5 -75.5v-85q0 -31 10.5 -44.5t41.5 -13.5h20v-110h-20q-102 0 -165 43t-63 132v85q0 32 -18.5 41.5 t-61.5 9.5z" />
<glyph horiz-adv-x="368" d="M20 13h20q31 0 41.5 13.5t10.5 44.5v85q0 45 22.5 75.5t55.5 39.5q-33 9 -55.5 39.5t-22.5 75.5v85q0 31 -10.5 44.5t-41.5 13.5h-20v110h20q102 0 165 -43t63 -132v-84q0 -32 18.5 -41t61.5 -9v-116q-43 0 -61.5 -9.5t-18.5 -41.5v-85q0 -89 -63 -132t-165 -43h-20v110z " />
<glyph horiz-adv-x="466" d="M20 -31l252 605h174l-252 -605h-174z" />
<glyph horiz-adv-x="466" d="M20 574h174l252 -605h-174z" />
<glyph horiz-adv-x="610" d="M30 153q0 42 23 77.5t64 57.5q-47 56 -47 107q0 71 58 116.5t145 45.5q197 0 215 -164h-171q-3 23 -13 34t-31 11q-14 0 -24 -9t-10 -23q0 -28 44 -72l103 -102q5 35 5 66h162q0 -91 -58 -174l125 -124h-216l-22 22q-69 -37 -145 -37q-89 0 -148 44t-59 124zM183 166 q0 -33 23.5 -48t58.5 -15q19 0 31 4l-100 100q-13 -18 -13 -41z" />
<glyph horiz-adv-x="901" d="M40 369l375 375l98 -98l-208 -208h556v-138h-556l208 -207l-98 -99z" />
<glyph horiz-adv-x="901" d="M40 300v138h556l-208 208l98 98l375 -375l-375 -375l-98 99l207 207h-555z" />
<glyph horiz-adv-x="830" d="M40 404l375 375l375 -375l-99 -98l-207 207v-555h-138v556l-208 -208z" />
<glyph horiz-adv-x="830" d="M40 333l98 98l208 -208v556h138v-556l207 208l99 -98l-375 -375z" />
<glyph horiz-adv-x="749" d="M80 128v531h530v-140h-294l393 -392l-98 -98l-393 394v-295h-138z" />
<glyph horiz-adv-x="749" d="M40 127l392 392h-293v140h530v-531h-138v295l-393 -394z" />
<glyph horiz-adv-x="749" d="M40 561l98 98l393 -394v295h138v-531h-530v140l293 -1z" />
<glyph horiz-adv-x="749" d="M80 29v531h138v-295l393 394l98 -98l-393 -393l294 1v-140h-530z" />
<glyph horiz-adv-x="1727" d="M40 369l375 375l98 -98l-208 -208h1382v-138h-1382l208 -207l-98 -99z" />
<glyph horiz-adv-x="1727" d="M40 300v138h1382l-208 208l98 98l375 -375l-375 -375l-98 99l207 207h-1381z" />
<glyph horiz-adv-x="251" d="M50 563v240h151l-31 -240h-120z" />
<glyph horiz-adv-x="449" d="M50 749l132 148h217l-209 -148h-140z" />
<glyph horiz-adv-x="482" d="M50 897h118q0 -43 73 -43t73 43h118q0 -80 -57.5 -120.5t-133.5 -40.5t-133.5 40.5t-57.5 120.5z" />
<glyph horiz-adv-x="581" d="M50 897h160l80 -57l81 57h160l-152 -148h-177z" />
<glyph horiz-adv-x="581" d="M50 749l152 148h177l152 -148h-160l-81 57l-80 -57h-160z" />
<glyph horiz-adv-x="520" d="M50 836q0 40 26.5 65t68.5 25t68.5 -25t26.5 -65t-26.5 -65t-68.5 -25t-68.5 25t-26.5 65zM280 836q0 40 26.5 65t68.5 25t68.5 -25t26.5 -65t-26.5 -65t-68.5 -25t-68.5 25t-26.5 65z" />
<glyph horiz-adv-x="302" d="M50 835q0 42 28 68.5t73 26.5t73 -26.5t28 -68.5t-28 -68.5t-73 -26.5t-73 26.5t-28 68.5z" />
<glyph horiz-adv-x="449" d="M50 897h217l132 -148h-140z" />
<glyph horiz-adv-x="626" d="M50 749l102 148h197l-169 -148h-130zM277 749l102 148h197l-169 -148h-130z" />
<glyph horiz-adv-x="460" d="M50 777v114h360v-114h-360z" />
<glyph horiz-adv-x="378" d="M50 824q0 47 40 77.5t99 30.5t99 -30.5t40 -77.5t-40 -77.5t-99 -30.5t-99 30.5t-40 77.5zM147 824q0 -17 11.5 -28.5t30.5 -11.5t30.5 11.5t11.5 28.5t-11.5 28.5t-30.5 11.5t-30.5 -11.5t-11.5 -28.5z" />
<glyph horiz-adv-x="539" d="M50 791q19 57 55 88.5t77 31.5q35 0 94 -20t71 -20q31 0 48 38l94 -42q-18 -57 -54 -88.5t-77 -31.5q-35 0 -94 20t-72 20q-30 0 -48 -38z" />
<glyph horiz-adv-x="395" d="M50 580l106 115h189l-167 -115h-128z" />
<glyph horiz-adv-x="428" d="M50 695h110q0 -29 54 -29q53 0 53 29h111q0 -62 -48 -92t-116 -30q-69 0 -116.5 29.5t-47.5 92.5z" />
<glyph horiz-adv-x="495" d="M50 695h138l59 -34l60 34h138l-127 -115h-141z" />
<glyph horiz-adv-x="495" d="M50 580l127 115h141l127 -115h-138l-60 34l-59 -34h-138z" />
<glyph horiz-adv-x="447" d="M50 648q0 31 23 51.5t57 20.5t57 -20.5t23 -51.5t-23 -51t-57 -20t-57 20t-23 51zM238 648q0 31 22.5 51.5t56.5 20.5q35 0 57.5 -20.5t22.5 -51.5t-22.5 -51t-57.5 -20q-34 0 -56.5 20t-22.5 51z" />
<glyph horiz-adv-x="266" d="M50 647q0 33 23.5 53.5t59.5 20.5t59.5 -20.5t23.5 -53.5t-23.5 -53t-59.5 -20t-59.5 20t-23.5 53z" />
<glyph horiz-adv-x="395" d="M50 695h190l105 -115h-128z" />
<glyph horiz-adv-x="553" d="M50 580l82 115h173l-135 -115h-120zM248 580l81 115h174l-135 -115h-120z" />
<glyph horiz-adv-x="388" d="M50 590v101h288v-101h-288z" />
<glyph horiz-adv-x="332" d="M50 639q0 37 32 60t84 23t84 -23t32 -60t-32 -60t-84 -23t-84 23t-32 60zM136 639q0 -11 8.5 -18.5t21.5 -7.5t21.5 7.5t8.5 18.5t-8.5 18.5t-21.5 7.5t-21.5 -7.5t-8.5 -18.5z" />
<glyph horiz-adv-x="468" d="M50 614q32 96 109 96q26 0 74 -13.5t64 -13.5q19 0 34 25l87 -38q-32 -96 -109 -96q-26 0 -74 13.5t-64 13.5q-19 0 -34 -25z" />
</font>
</defs>
</svg>
