<?xml version="1.0" standalone="no"?>
<!DOCTYPE svg PUBLIC "-//W3C//DTD SVG 1.1//EN" "http://www.w3.org/Graphics/SVG/1.1/DTD/svg11.dtd" >
<svg xmlns="http://www.w3.org/2000/svg">
<metadata></metadata>
<defs>
<font id="vegan_sans_premium_bold_italic" horiz-adv-x="600" >
<font-face units-per-em="1000" ascent="800" descent="-200" />
<missing-glyph horiz-adv-x="300" />
<glyph unicode="fb" horiz-adv-x="948" d="M70 426l17 97h82l4 23q19 105 104 159t206 54q125 0 205 -35l-44 -250q77 64 158 64q73 0 110 -56t37 -152q0 -148 -78 -246.5t-185 -98.5q-77 0 -118 62l-8 -47h-147l116 658q-30 7 -62 7q-125 0 -146 -119l-4 -23h105l-17 -97h-106l-75 -426h-147l75 426h-82zM581 121 q33 -33 76 -33q64 0 103 64.5t39 163.5q0 119 -74 119q-46 0 -94 -34z" />
<glyph unicode="ff" horiz-adv-x="727" d="M70 426l17 97h82l10 55q16 90 73.5 135.5t137.5 45.5q64 0 100 -18l-15 -86q-34 8 -64 8q-69 0 -85 -84l-10 -56h195l10 55q17 90 74 135.5t137 45.5q66 0 100 -18l-14 -86q-34 8 -64 8q-70 0 -85 -84l-10 -56h135l-16 -97h-136l-75 -426h-148l75 426h-195l-75 -426h-147 l75 426h-82z" />
<glyph unicode="fh" horiz-adv-x="966" d="M70 426l17 97h82l4 23q19 105 104 159t206 54q125 0 205 -35l-48 -269q97 83 196 83q61 0 95.5 -39.5t18.5 -132.5l-65 -366h-147l60 346q14 77 -63 77q-55 0 -108 -41l-68 -382h-147l117 658q-30 7 -62 7q-125 0 -146 -119l-4 -23h105l-17 -97h-106l-75 -426h-147 l75 426h-82z" />
<glyph unicode="fi" horiz-adv-x="642" d="M70 426l17 97h82l10 55q16 90 73.5 135.5t137.5 45.5q58 0 92 -18l-14 -86q-34 8 -57 8q-69 0 -85 -84l-9 -56h335l-93 -523h-147l75 426h-188l-75 -426h-147l75 426h-82zM516 651q0 42 30.5 72.5t71.5 30.5q34 0 52.5 -21t18.5 -54q0 -42 -30 -72.5t-72 -30.5 q-33 0 -52 21t-19 54z" />
<glyph unicode="fj" horiz-adv-x="642" d="M70 426l17 97h82l10 55q16 90 73.5 135.5t137.5 45.5q58 0 92 -18l-14 -86q-34 8 -57 8q-69 0 -85 -84l-9 -56h335l-130 -731h-147l112 634h-188l-75 -426h-147l75 426h-82zM516 651q0 42 30.5 72.5t71.5 30.5q34 0 52.5 -21t18.5 -54q0 -42 -30 -72.5t-72 -30.5 q-33 0 -52 21t-19 54z" />
<glyph unicode="fk" horiz-adv-x="909" d="M70 426l17 97h82l4 23q19 105 104 159t206 54q125 0 205 -35l-76 -426l198 225h153l-221 -240l145 -283h-162l-121 251l-45 -251h-147l117 659q-30 7 -62 7q-125 0 -146 -120l-4 -23h105l-17 -97h-106l-75 -426h-147l75 426h-82z" />
<glyph unicode="fl" horiz-adv-x="639" d="M70 426l17 97h82l4 23q19 105 104 159t206 54q125 0 205 -35l-129 -724h-147l117 658q-30 7 -62 7q-125 0 -146 -119l-4 -23h105l-17 -97h-106l-75 -426h-147l75 426h-82z" />
<glyph unicode="ft" horiz-adv-x="729" d="M70 426l17 97h82l10 55q16 90 73.5 135.5t137.5 45.5q64 0 100 -18l-15 -86q-34 8 -64 8q-69 0 -85 -84l-10 -56h188l24 137h147l-24 -137h128l-16 -97h-129l-45 -260q-16 -85 47 -85q27 0 70 12l-16 -86q-51 -22 -117 -22q-75 0 -112.5 39.5t-21.5 126.5l48 275h-188 l-75 -426h-147l75 426h-82z" />
<glyph unicode="ffb" horiz-adv-x="1291" d="M70 426l17 97h82l10 55q16 90 73.5 135.5t137.5 45.5q64 0 100 -18l-15 -86q-34 8 -64 8q-69 0 -85 -84l-9 -56h195l4 23q19 106 103.5 159.5t206.5 53.5q124 0 204 -35l-46 -262l2 11q78 65 158 65q74 0 111 -56t37 -152q0 -148 -78 -246.5t-185 -98.5q-77 0 -118 62 l-8 -47h-148l116 658q-28 7 -62 7q-125 0 -146 -119l-4 -23h105l-16 -97h-106l-75 -426h-148l75 426h-195l-75 -426h-147l75 426h-82zM924 121q31 -33 75 -33q64 0 103.5 64.5t39.5 163.5q0 119 -75 119q-49 0 -94 -35z" />
<glyph unicode="ffh" horiz-adv-x="1316" d="M70 426l17 97h82l10 55q16 90 73.5 135.5t137.5 45.5q64 0 100 -18l-15 -86q-34 8 -64 8q-69 0 -85 -84l-9 -56h202l4 23q19 105 104 159t206 54q125 0 205 -35l-48 -269q97 83 196 83q61 0 95.5 -39.5t18.5 -132.5l-65 -366h-147l60 346q14 77 -63 77q-55 0 -108 -41 l-68 -382h-147l117 658q-30 7 -62 7q-125 0 -146 -119l-4 -23h105l-17 -97h-106l-75 -426h-147l75 426h-203l-75 -426h-147l75 426h-82z" />
<glyph unicode="ffi" horiz-adv-x="984" d="M70 426l17 97h82l10 55q16 90 73.5 135.5t137.5 45.5q64 0 100 -18l-15 -86q-34 8 -64 8q-69 0 -85 -84l-10 -56h196l9 55q17 90 74 135.5t137 45.5q57 0 93 -18l-15 -86q-34 8 -56 8q-70 0 -85 -84l-10 -56h335l-92 -523h-148l75 426h-187l-75 -426h-148l75 426h-195 l-75 -426h-147l75 426h-82zM859 651q0 43 30.5 73t71.5 30q34 0 52.5 -21t18.5 -54q0 -42 -30.5 -72.5t-71.5 -30.5q-34 0 -52.5 21t-18.5 54z" />
<glyph unicode="ffj" horiz-adv-x="984" d="M70 426l17 97h82l10 55q16 90 73.5 135.5t137.5 45.5q64 0 100 -18l-15 -86q-34 8 -64 8q-69 0 -85 -84l-10 -56h196l9 55q17 90 74 135.5t137 45.5q57 0 93 -18l-15 -86q-34 8 -56 8q-70 0 -85 -84l-10 -56h335l-129 -731h-148l112 634h-187l-75 -426h-148l75 426h-195 l-75 -426h-147l75 426h-82zM859 651q0 43 30.5 73t71.5 30q34 0 52.5 -21t18.5 -54q0 -42 -30.5 -72.5t-71.5 -30.5q-34 0 -52.5 21t-18.5 54z" />
<glyph unicode="ffk" horiz-adv-x="1251" d="M70 426l17 97h82l10 55q16 90 73.5 135.5t137.5 45.5q64 0 100 -18l-15 -86q-34 8 -64 8q-69 0 -85 -84l-9 -56h195l4 23q19 106 103.5 159.5t206.5 53.5q124 0 204 -35l-75 -427l198 226h153l-222 -240l145 -283h-161l-122 251l-44 -251h-148l117 658q-28 7 -62 7 q-125 0 -146 -119l-4 -23h105l-16 -97h-106l-75 -426h-148l75 426h-195l-75 -426h-147l75 426h-82z" />
<glyph unicode="ffl" horiz-adv-x="989" d="M70 426l17 97h82l10 55q16 90 73.5 135.5t137.5 45.5q64 0 100 -18l-15 -86q-34 8 -64 8q-69 0 -85 -84l-10 -56h196l4 23q19 106 103.5 159.5t206.5 53.5q124 0 204 -35l-128 -724h-148l117 657q-28 7 -61 7q-126 0 -147 -118l-4 -23h105l-16 -97h-106l-75 -426h-148 l76 426h-196l-75 -426h-147l75 426h-82z" />
<glyph unicode="fft" horiz-adv-x="1072" d="M70 426l17 97h82l10 55q16 90 73.5 135.5t137.5 45.5q64 0 100 -18l-15 -86q-34 8 -64 8q-69 0 -85 -84l-9 -56h195l9 55q17 90 74 135.5t137 45.5q66 0 100 -18l-14 -86q-34 8 -64 8q-70 0 -85 -84l-10 -56h187l24 137h148l-24 -137h128l-17 -97h-128l-46 -260 q-16 -85 48 -85q28 0 69 12l-15 -86q-51 -22 -117 -22q-76 0 -113.5 39.5t-21.5 126.5l48 275h-187l-75 -426h-148l75 426h-195l-75 -426h-147l75 426h-82z" />
<glyph unicode="tt" horiz-adv-x="749" d="M70 426l17 97h82l24 137h147l-24 -137h208l24 137h147l-24 -137h128l-16 -97h-129l-45 -260q-16 -85 47 -85q27 0 70 12l-16 -86q-51 -22 -117 -22q-75 0 -112.5 39.5t-21.5 126.5l48 275h-208l-45 -260q-16 -85 47 -85q27 0 70 12l-16 -86q-51 -22 -117 -22 q-75 0 -112.5 39.5t-21.5 126.5l48 275h-82z" />
<glyph unicode="&#xd;" horiz-adv-x="0" />
<glyph unicode=" "  horiz-adv-x="300" />
<glyph unicode="&#x09;" horiz-adv-x="300" />
<glyph unicode="&#xa0;" horiz-adv-x="300" />
<glyph unicode="!" horiz-adv-x="309" d="M57 60q0 45 31 74.5t76 29.5q35 0 55 -20.5t20 -53.5q0 -45 -30.5 -75t-76.5 -30q-34 0 -54.5 21t-20.5 54zM118 233l58 467h165l-106 -467h-117z" />
<glyph unicode="&#x22;" horiz-adv-x="415" d="M141 412l32 288h135l-68 -288h-99zM321 412l32 288h135l-68 -288h-99z" />
<glyph unicode="#" horiz-adv-x="686" d="M40 0l78 181h-75l21 121h107l48 111h-85l21 121h116l72 166h144l-72 -166h121l72 166h144l-72 -166h76l-21 -121h-107l-48 -111h85l-22 -121h-116l-78 -181h-144l78 181h-121l-78 -181h-144zM315 302h121l48 111h-121z" />
<glyph unicode="$" horiz-adv-x="605" d="M69 215h156q-6 -63 23 -91.5t78 -28.5q57 0 92.5 26.5t35.5 78.5q0 19 -9 33.5t-19.5 23t-35.5 17.5t-38 12t-46 11q-39 9 -68.5 21.5t-58.5 33t-45 53t-16 74.5q0 94 65.5 155.5t171.5 76.5l19 109h140l-20 -114q77 -18 116.5 -71.5t31.5 -140.5h-157q5 57 -20.5 84 t-72.5 27q-55 0 -87.5 -25t-32.5 -75q0 -18 8 -32t19.5 -23t31.5 -16.5t37 -12t43 -10.5q6 -1 9 -2q40 -10 69 -21t59 -31t46 -51.5t16 -73.5q0 -92 -70 -158t-173 -84l-19 -110h-140l20 112q-84 17 -127.5 73.5t-31.5 149.5z" />
<glyph unicode="%" horiz-adv-x="1055" d="M131 447q0 114 68.5 188t171.5 74q77 0 120.5 -47.5t43.5 -128.5q0 -115 -68.5 -188.5t-172.5 -73.5q-75 0 -119 47.5t-44 128.5zM215 0l588 700h159l-588 -700h-159zM260 442q0 -79 50 -79q39 0 67 50t28 124q0 80 -50 80q-39 0 -67 -50t-28 -125zM642 167 q0 114 68.5 188t171.5 74q77 0 120.5 -47.5t43.5 -128.5q0 -115 -68.5 -188.5t-172.5 -73.5q-75 0 -119 47.5t-44 128.5zM771 162q0 -79 50 -79q39 0 67 50t28 124q0 80 -50 80q-39 0 -67 -50t-28 -125z" />
<glyph unicode="&#x26;" horiz-adv-x="694" d="M45 164q0 67 40 124.5t108 90.5q-42 62 -42 115q0 94 75.5 157.5t188.5 63.5q109 0 166.5 -49t50.5 -145h-157q5 84 -79 84q-38 0 -67 -23t-29 -67q0 -41 44 -92l151 -181q35 63 47 138h147q-24 -130 -112 -237l120 -143h-188l-39 46q-93 -61 -196 -61q-99 0 -164 47 t-65 132zM190 193q0 -48 31.5 -71.5t79.5 -23.5q51 0 99 32l-144 171q-66 -41 -66 -108z" />
<glyph unicode="'" horiz-adv-x="235" d="M141 412l32 288h135l-68 -288h-99z" />
<glyph unicode="(" horiz-adv-x="400" d="M103 255q0 97 27 187.5t74 162t94 123.5t102 97h139q-120 -102 -197.5 -260t-77.5 -316q0 -107 28.5 -209.5t79.5 -164.5h-139q-55 63 -92.5 162t-37.5 218z" />
<glyph unicode=")" horiz-adv-x="401" d="M-48 -125q120 102 197.5 260t77.5 316q0 107 -28.5 209.5t-79.5 164.5h138q55 -63 93.5 -162.5t38.5 -218.5q0 -97 -27.5 -187.5t-74.5 -161.5t-94.5 -123t-102.5 -97h-138z" />
<glyph unicode="*" horiz-adv-x="459" d="M100 479l139 43l-123 43l86 113l88 -93l-5 135h132l-51 -134l119 92l47 -113l-139 -43l124 -43l-86 -114l-88 92l4 -134h-132l52 135l-120 -93z" />
<glyph unicode="+" horiz-adv-x="562" d="M87 309l20 114h180l32 180h114l-32 -180h181l-20 -114h-181l-32 -181h-114l32 181h-180z" />
<glyph unicode="," horiz-adv-x="219" d="M-6 -160l75 310h147l-100 -310h-122z" />
<glyph unicode="-" horiz-adv-x="312" d="M63 220l20 113h248l-21 -113h-247z" />
<glyph unicode="." horiz-adv-x="239" d="M41 60q0 45 31 74.5t77 29.5q35 0 55 -20.5t20 -53.5q0 -45 -30.5 -75t-76.5 -30q-34 0 -55 21t-21 54z" />
<glyph unicode="/" horiz-adv-x="530" d="M18 -40l452 780h163l-452 -780h-163z" />
<glyph unicode="0" horiz-adv-x="629" d="M78 260q0 195 98.5 325t251.5 130q107 0 164 -72.5t57 -202.5q0 -195 -98.5 -325t-251.5 -130q-107 0 -164 72.5t-57 202.5zM234 262q0 -164 85 -164q56 0 96.5 52t58.5 127.5t18 160.5q0 163 -84 163q-56 0 -96.5 -52t-59 -127t-18.5 -160z" />
<glyph unicode="1" horiz-adv-x="420" d="M93 472l25 138l180 90h153l-123 -700h-153l99 561z" />
<glyph unicode="2" horiz-adv-x="571" d="M46 0l22 121q212 169 237 190q111 96 135 162q10 26 10 53q0 76 -68 76q-39 0 -70 -29t-44 -91h-157q26 114 103 173.5t187 59.5q94 0 149.5 -44.5t55.5 -126.5q0 -42 -14 -80.5t-36.5 -73t-69.5 -79.5t-94.5 -85t-130.5 -105h280l-21 -121h-474z" />
<glyph unicode="3" horiz-adv-x="579" d="M52 196h157q-5 -50 19.5 -74t68.5 -24q53 0 85.5 32t32.5 78q0 89 -117 89h-70l19 113h70q65 0 101.5 36t36.5 88q0 32 -17.5 50t-49.5 18q-41 0 -72 -26.5t-44 -71.5h-157q25 99 104.5 155t189.5 56q92 0 147 -43.5t55 -123.5q0 -60 -39.5 -111.5t-99.5 -74.5 q50 -13 74 -49.5t24 -83.5q0 -108 -84.5 -176t-206.5 -68q-121 0 -179.5 54t-47.5 157z" />
<glyph unicode="4" horiz-adv-x="561" d="M44 115l19 114l268 471h152l-271 -471h142l28 161h137l-28 -161h84l-19 -114h-86l-20 -115h-137l20 115h-289z" />
<glyph unicode="5" horiz-adv-x="556" d="M59 191h156q-4 -47 18 -70t60 -23q55 0 85.5 48.5t30.5 120.5q0 92 -72 92q-65 0 -109 -51h-130l69 392h430l-19 -114h-300l-33 -187q26 30 74 51t91 21q73 0 114 -46.5t41 -133.5q0 -140 -85 -223t-205 -83q-113 0 -170 53t-46 153z" />
<glyph unicode="6" horiz-adv-x="587" d="M76 240q0 209 99.5 342t246.5 133q95 0 148 -48.5t46 -139.5h-157q1 42 -12.5 60t-45.5 18q-50 0 -92.5 -64.5t-63.5 -165.5q35 34 85.5 56t95.5 22q75 0 117.5 -46.5t42.5 -131.5q0 -130 -87.5 -210t-206.5 -80q-101 0 -158.5 68t-57.5 187zM232 234q0 -136 79 -136 q52 0 84.5 45.5t32.5 105.5q0 92 -77 92q-29 0 -62 -13t-55 -34q-2 -38 -2 -60z" />
<glyph unicode="7" horiz-adv-x="471" d="M73 0l337 586h-292l19 114h433l-20 -114l-331 -586h-146z" />
<glyph unicode="8" horiz-adv-x="590" d="M65 156q0 69 41 126t123 79q-42 18 -65.5 53.5t-23.5 77.5q0 104 80.5 163.5t201.5 59.5q95 0 153.5 -44t58.5 -125q0 -62 -39 -111.5t-104 -73.5q52 -15 77 -54t25 -89q0 -112 -83.5 -172.5t-216.5 -60.5q-104 0 -166 44t-62 127zM218 179q0 -38 25.5 -59.5t70.5 -21.5 q58 0 93.5 30.5t35.5 81.5q0 37 -24.5 60.5t-71.5 23.5q-60 0 -94.5 -33.5t-34.5 -81.5zM287 491q0 -37 21.5 -58t59.5 -21q53 0 84 32t31 83q0 36 -22 55.5t-60 19.5q-50 0 -82 -29.5t-32 -81.5z" />
<glyph unicode="9" horiz-adv-x="593" d="M68 185h157q-5 -90 65 -90q52 0 96 69t63 176q-34 -35 -85.5 -58t-96.5 -23q-76 0 -118 45.5t-42 130.5q0 128 86.5 204t206.5 76q102 0 159 -67.5t57 -187.5q0 -209 -99 -342t-248 -133q-97 0 -153 50.5t-48 149.5zM262 461q0 -90 80 -90q29 0 62 13.5t55 34.5 q1 15 1 46q0 137 -80 137q-53 0 -85.5 -41.5t-32.5 -99.5z" />
<glyph unicode=":" horiz-adv-x="239" d="M41 60q0 45 31 74.5t77 29.5q35 0 55 -20.5t20 -53.5q0 -45 -30.5 -75t-76.5 -30q-34 0 -55 21t-21 54zM106 427q0 45 31 74.5t77 29.5q34 0 54.5 -20.5t20.5 -53.5q0 -45 -31 -75t-76 -30q-35 0 -55.5 20.5t-20.5 54.5z" />
<glyph unicode=";" horiz-adv-x="239" d="M3 -155l73 305h147l-99 -305h-121zM106 427q0 45 31 74.5t77 29.5q34 0 54.5 -20.5t20.5 -53.5q0 -45 -31 -75t-76 -30q-35 0 -55.5 20.5t-20.5 54.5z" />
<glyph unicode="&#x3c;" horiz-adv-x="543" d="M72 306l22 122l508 192l-21 -123l-347 -132l301 -131l-22 -121z" />
<glyph unicode="=" horiz-adv-x="562" d="M68 202l20 113h475l-20 -113h-475zM106 417l20 113h475l-20 -113h-475z" />
<glyph unicode="&#x3e;" horiz-adv-x="543" d="M48 113l21 123l348 132l-301 131l21 121l442 -192l-22 -122z" />
<glyph unicode="?" horiz-adv-x="508" d="M93 508q24 100 95.5 153.5t182.5 53.5q93 0 148.5 -41t55.5 -115q0 -54 -25 -95t-60 -65.5t-69.5 -47t-57 -51.5t-19.5 -67h-146q-2 56 19.5 94t54.5 58.5t66.5 38.5t57 46.5t23.5 69.5q0 28 -18.5 45t-50.5 17q-79 0 -101 -94h-156zM156 60q0 45 31 74.5t76 29.5 q35 0 55 -20.5t20 -53.5q0 -45 -30.5 -75t-76.5 -30q-34 0 -54.5 21t-20.5 54z" />
<glyph unicode="@" horiz-adv-x="994" d="M60 183q0 230 160.5 381t412.5 151q165 0 273 -95t108 -251q0 -94 -29.5 -170t-77 -121t-101.5 -69t-108 -24q-103 0 -124 73q-44 -41 -81 -57.5t-81 -16.5q-66 0 -105 58t-39 152q0 148 79 248t186 100q64 0 105 -61l7 42h155l-68 -382q-9 -55 29 -55q47 0 88.5 81.5 t41.5 190.5q0 123 -71 192t-205 69q-86 0 -164 -28.5t-137.5 -81t-94.5 -133t-35 -177.5q0 -170 90 -248t244 -78q56 0 131.5 13t117.5 29l-16 -95q-46 -17 -121 -30t-143 -13q-82 0 -157 25.5t-136 74t-97.5 128t-36.5 178.5zM426 208q0 -53 17.5 -83t47.5 -30q44 0 84 35 v-1l48 269q-25 34 -63 34q-58 0 -96 -65t-38 -159z" />
<glyph unicode="A" horiz-adv-x="640" d="M-5 0l362 700h153l120 -700h-156l-22 160h-230l-76 -160h-151zM275 271h162l-12 85l-19 201l-90 -201z" />
<glyph unicode="B" horiz-adv-x="630" d="M67 0l123 700h236q46 0 84.5 -7t72.5 -23.5t53.5 -47t19.5 -73.5q0 -59 -36.5 -109t-97.5 -68q106 -28 106 -132q0 -81 -45.5 -137t-111.5 -79.5t-143 -23.5h-261zM240 110h107q54 0 90 30t36 85q0 75 -92 75h-108zM292 408h83q52 0 87 26.5t35 82.5q0 37 -25 55t-64 18 h-83z" />
<glyph unicode="C" horiz-adv-x="654" d="M78 263q0 200 106.5 326t270.5 126q121 0 185 -67q52 -54 51 -151q0 -22 -2 -47h-159q1 16 1 30q0 121 -97 121q-89 0 -141.5 -98t-52.5 -236q0 -169 108 -169q51 0 90 38t57 114h158q-30 -131 -118.5 -198t-208.5 -67q-127 0 -187.5 73t-60.5 205z" />
<glyph unicode="D" horiz-adv-x="703" d="M67 0l123 700h237q134 0 215 -77t81 -210q0 -186 -121 -299.5t-298 -113.5h-237zM240 113h84q105 0 170.5 78t65.5 213q0 90 -39.5 136t-113.5 46h-83z" />
<glyph unicode="E" horiz-adv-x="558" d="M67 0l123 700h432l-20 -114h-278l-29 -161h258l-19 -113h-259l-35 -199h279l-20 -113h-432z" />
<glyph unicode="F" horiz-adv-x="523" d="M67 0l123 700h422l-20 -114h-268l-32 -181h248l-20 -114h-249l-51 -291h-153z" />
<glyph unicode="G" horiz-adv-x="668" d="M78 256q0 205 106.5 332t276.5 127q112 0 174 -61q54 -54 54 -150q0 -14 -1 -29h-159q1 9 1 17q0 50 -21 77q-24 32 -69 32q-65 0 -111.5 -50t-66.5 -121t-20 -153q0 -180 121 -180q28 0 63 11.5t58 29.5l20 113h-129l18 106h274l-63 -357h-145l11 61 q-34 -33 -88.5 -54.5t-101.5 -21.5q-96 0 -149 72t-53 199z" />
<glyph unicode="H" horiz-adv-x="740" d="M67 0l123 700h153l-48 -275h275l48 275h153l-123 -700h-153l55 312h-275l-55 -312h-153z" />
<glyph unicode="I" horiz-adv-x="312" d="M67 0l123 700h153l-123 -700h-153z" />
<glyph unicode="J" horiz-adv-x="590" d="M52 242h153q-4 -33 -4 -57q0 -39 10 -59q17 -32 61 -32q91 0 112 114l86 492h153l-83 -472q-21 -125 -98 -184t-189 -59q-207 0 -207 188q0 32 6 69z" />
<glyph unicode="K" horiz-adv-x="645" d="M67 0l123 700h153l-55 -312l262 312h154l-280 -330l196 -370h-169l-171 343l-60 -343h-153z" />
<glyph unicode="L" horiz-adv-x="511" d="M67 0l123 700h153l-103 -587h251l-20 -113h-404z" />
<glyph unicode="M" horiz-adv-x="849" d="M67 0l123 700h160l105 -458l269 458h156l-123 -700h-141l47 265l37 188l-201 -354h-138l-79 355l-29 -191l-47 -263h-139z" />
<glyph unicode="N" horiz-adv-x="723" d="M67 0l123 700h137l208 -468l30 191l49 277h139l-123 -700h-137l-207 467l-31 -191l-48 -276h-140z" />
<glyph unicode="O" horiz-adv-x="717" d="M78 277q0 193 109 315.5t285 122.5q128 0 196.5 -78.5t68.5 -213.5q0 -193 -109 -315.5t-285 -122.5q-128 0 -196.5 78.5t-68.5 213.5zM239 276q0 -82 32 -130t94 -48q57 0 100 31.5t66 82.5t34 104.5t11 107.5q0 81 -32 129t-93 48q-57 0 -100 -31.5t-66.5 -82 t-34.5 -104t-11 -107.5z" />
<glyph unicode="P" horiz-adv-x="603" d="M67 0l123 700h239q92 0 158 -51.5t66 -148.5q0 -68 -28 -123t-73 -88t-98 -50t-108 -17h-87l-39 -222h-153zM279 332h86q51 0 91.5 42.5t40.5 110.5q0 48 -24.5 76.5t-61.5 28.5h-86z" />
<glyph unicode="Q" horiz-adv-x="717" d="M78 277q0 193 109 315.5t285 122.5q128 0 196.5 -78.5t68.5 -213.5q0 -141 -60.5 -247.5t-166.5 -155.5l115 -171h-175l-87 136h-20q-128 0 -196.5 78.5t-68.5 213.5zM239 276q0 -82 32 -130t94 -48q57 0 100 31.5t66 82.5t34 104.5t11 107.5q0 81 -32 129t-93 48 q-57 0 -100 -31.5t-66.5 -82t-34.5 -104t-11 -107.5z" />
<glyph unicode="R" horiz-adv-x="621" d="M67 0l123 700h234q98 0 161.5 -47t63.5 -142t-50 -156t-132 -87l131 -268h-165l-106 250h-63l-44 -250h-153zM283 358h82q52 0 90.5 36t38.5 103q0 44 -25 68.5t-63 24.5h-81z" />
<glyph unicode="S" horiz-adv-x="605" d="M69 215h156q-1 -11 -1 -21q0 -46 24 -70q29 -28 78 -29q57 0 92.5 26.5t35.5 78.5q0 19 -9 33.5t-19.5 23t-35.5 17.5t-38 12t-46 11q-39 9 -68.5 21.5t-58.5 33t-45 53t-16 74.5q0 107 83.5 171.5t211.5 64.5q115 -1 177 -57q54 -49 54 -135q0 -14 -2 -29h-157q1 9 1 18 q0 44 -22 66q-26 27 -72 27q-55 0 -87.5 -25t-32.5 -75q0 -18 8 -32t19.5 -23t31.5 -16.5t37 -12t43 -10.5q6 -1 9 -2q40 -10 69 -21t59 -31t46 -51.5t16 -73.5q0 -107 -91.5 -177t-213.5 -70q-119 0 -185 58q-54 47 -54 132q0 19 3 40z" />
<glyph unicode="T" horiz-adv-x="540" d="M110 586l20 114h500l-19 -114h-174l-104 -586h-152l103 586h-174z" />
<glyph unicode="U" horiz-adv-x="717" d="M106 234l82 466h153l-79 -446q-5 -28 -4 -51q0 -42 16 -67q26 -38 95 -38q134 0 157 136l82 466h139l-78 -446q-24 -134 -108.5 -201.5t-212.5 -67.5q-132 0 -198 62q-50 47 -49 129q0 27 5 58z" />
<glyph unicode="V" horiz-adv-x="625" d="M108 700h157l46 -326l20 -201l90 201l157 326h150l-355 -700h-152z" />
<glyph unicode="W" horiz-adv-x="927" d="M108 700h155l16 -321l6 -201l77 201l132 321h158l21 -321l8 -202l75 202l126 321h148l-307 -700h-160l-21 288l-7 202l-79 -202l-123 -288h-159z" />
<glyph unicode="X" horiz-adv-x="601" d="M-10 0l280 358l-152 342h164l88 -217l156 217h161l-265 -340l160 -360h-164l-95 236l-172 -236h-161z" />
<glyph unicode="Y" horiz-adv-x="583" d="M113 700h156l90 -303l184 303h146l-282 -430l-47 -270h-153l48 270z" />
<glyph unicode="Z" horiz-adv-x="542" d="M32 0l21 113l374 473h-288l19 114h464l-19 -114l-374 -473h291l-21 -113h-467z" />
<glyph unicode="[" horiz-adv-x="391" d="M99 -125l167 950h247l-17 -96h-94l-133 -758h93l-16 -96h-247z" />
<glyph unicode="\" horiz-adv-x="503" d="M142 740h147l178 -780h-147z" />
<glyph unicode="]" horiz-adv-x="406" d="M-8 -125l17 96h93l134 758h-94l17 96h246l-167 -950h-246z" />
<glyph unicode="^" horiz-adv-x="528" d="M71 300l234 400h122l95 -400h-123l-58 249l-147 -249h-123z" />
<glyph unicode="_" horiz-adv-x="501" d="M14 -129l19 114h420l-19 -114h-420z" />
<glyph unicode="`" horiz-adv-x="384" d="M182 748h173l82 -163h-122z" />
<glyph unicode="a" horiz-adv-x="593" d="M67 193q0 148 77.5 246.5t184.5 98.5q80 0 119 -61l8 46h147l-92 -523h-148l9 49q-79 -64 -159 -64q-73 0 -109.5 56t-36.5 152zM217 207q0 -119 73 -119q47 0 95 34l50 280q-33 33 -77 33q-64 0 -102.5 -64.5t-38.5 -163.5z" />
<glyph unicode="b" horiz-adv-x="593" d="M57 0l131 744h148l-48 -271q78 65 159 65q73 0 110 -56t37 -152q0 -148 -78 -246.5t-185 -98.5q-77 0 -118 62l-8 -47h-148zM226 121q33 -33 76 -33q64 0 103 64.5t39 163.5q0 119 -74 119q-50 0 -95 -35z" />
<glyph unicode="c" horiz-adv-x="535" d="M67 200q0 149 83 243.5t213 94.5q94 0 147 -54q45 -46 45 -124q0 -13 -1 -27h-143q1 13 1 24q0 43 -12 63q-15 26 -54 25q-41 0 -71.5 -37.5t-45 -92t-14.5 -115.5q0 -122 69 -122q68 0 99 104h143q-28 -93 -97.5 -145t-162.5 -52q-101 0 -150 56.5t-49 158.5z" />
<glyph unicode="d" horiz-adv-x="593" d="M67 193q0 148 77.5 246.5t184.5 98.5q79 0 118 -60l47 266h148l-131 -744h-148l9 49q-79 -64 -159 -64q-73 0 -109.5 56t-36.5 152zM217 207q0 -119 73 -119q50 0 94 34l50 281q-34 32 -76 32q-64 0 -102.5 -64.5t-38.5 -163.5z" />
<glyph unicode="e" horiz-adv-x="541" d="M67 197q0 150 84.5 245.5t207.5 95.5q117 0 165 -76q27 -42 27 -109q0 -53 -17 -122h-325q-1 -12 -1 -37q0 -116 73 -116q66 0 93 81h143q-23 -81 -94 -127.5t-161 -46.5q-195 0 -195 212zM221 319h186q3 22 3 40q0 36 -12 57q-18 32 -56 32q-92 0 -121 -129z" />
<glyph unicode="f" horiz-adv-x="384" d="M70 426l17 97h82l10 55q16 90 73.5 135.5t137.5 45.5q64 0 100 -18l-15 -86q-34 8 -64 8q-69 0 -85 -84l-9 -56h135l-17 -97h-136l-75 -426h-147l75 426h-82z" />
<glyph unicode="g" horiz-adv-x="593" d="M35 -39h142q-1 -9 -1 -16q0 -40 18 -56q20 -19 57 -19q90 0 109 109l75 423q-33 33 -77 33q-65 0 -103 -61t-38 -159q0 -116 76 -116q46 0 94 36l-13 -74q-79 -65 -158 -65q-74 0 -111.5 54.5t-37.5 149.5q0 147 77.5 242.5t184.5 95.5q80 0 119 -61l8 46h147l-93 -526 q-20 -112 -95 -166t-182 -54q-96 0 -151 44q-48 38 -48 116q0 12 1 24z" />
<glyph unicode="h" horiz-adv-x="611" d="M57 0l131 744h148l-56 -321l5 31q96 84 197 84q60 0 94 -40q24 -27 24 -79q0 -24 -5 -53l-64 -366h-148l61 346q2 12 2 22q0 55 -65 55q-58 0 -109 -42l-67 -381h-148z" />
<glyph unicode="i" horiz-adv-x="287" d="M57 0l93 523h147l-92 -523h-148zM162 651q0 43 30 73t72 30q34 0 52.5 -21t18.5 -54q0 -42 -30.5 -72.5t-71.5 -30.5q-34 0 -52.5 21t-18.5 54z" />
<glyph unicode="j" horiz-adv-x="287" d="M21 -208l129 731h147l-128 -731h-148zM162 651q0 43 30 73t72 30q34 0 52.5 -21t18.5 -54q0 -42 -30.5 -72.5t-71.5 -30.5q-34 0 -52.5 21t-18.5 54z" />
<glyph unicode="k" horiz-adv-x="554" d="M57 0l131 744h148l-79 -447l199 226h153l-222 -240l145 -283h-161l-122 252l-44 -252h-148z" />
<glyph unicode="l" horiz-adv-x="287" d="M57 0l131 744h148l-131 -744h-148z" />
<glyph unicode="m" horiz-adv-x="925" d="M57 0l93 523h147l-23 -132l11 63q96 84 194 84q97 0 113 -89q106 89 207 89q60 0 93 -40q22 -27 22 -77q0 -25 -5 -55l-65 -366h-147l61 346q2 13 2 24q0 23 -10 35q-15 18 -52 18q-55 0 -107 -42q0 -5 -2 -15l-64 -366h-148l61 346q2 12 2 23q0 54 -62 54 q-55 0 -106 -42l-67 -381h-148z" />
<glyph unicode="n" horiz-adv-x="611" d="M57 0l93 523h147l-23 -132l11 63q96 84 197 84q60 0 94 -40q24 -27 24 -79q0 -24 -5 -53l-64 -366h-148l61 346q2 12 2 22q0 55 -65 55q-58 0 -109 -42l-67 -381h-148z" />
<glyph unicode="o" horiz-adv-x="578" d="M67 206q0 146 84.5 239t219.5 93q97 0 152.5 -59.5t55.5 -160.5q0 -146 -85 -239.5t-220 -93.5q-97 0 -152 59.5t-55 161.5zM215 199q0 -57 19.5 -89t57.5 -32q61 0 100 65.5t39 180.5q0 57 -20 89t-57 32q-62 0 -100.5 -65.5t-38.5 -180.5z" />
<glyph unicode="p" horiz-adv-x="593" d="M20 -208l130 731h147l-9 -50q78 65 159 65q73 0 110 -56t37 -152q0 -148 -78 -246.5t-185 -98.5q-77 0 -118 62l-45 -255h-148zM226 121q33 -33 76 -33q64 0 103 64.5t39 163.5q0 119 -74 119q-50 0 -95 -35z" />
<glyph unicode="q" horiz-adv-x="593" d="M67 193q0 148 77.5 246.5t184.5 98.5q80 0 119 -61l8 46h147l-129 -731h-148l46 257q-79 -64 -159 -64q-73 0 -109.5 56t-36.5 152zM217 207q0 -119 73 -119q47 0 95 34l50 280q-33 33 -77 33q-64 0 -102.5 -64.5t-38.5 -163.5z" />
<glyph unicode="r" horiz-adv-x="440" d="M57 0l93 523h147l-21 -121l4 24q37 53 80.5 82.5t82.5 29.5q35 0 60 -20l-23 -128q-35 16 -72 16q-40 0 -80 -18.5t-63 -45.5l-60 -342h-148z" />
<glyph unicode="s" horiz-adv-x="516" d="M57 158h140v-7q0 -75 80 -75q37 0 62.5 17t25.5 51q0 13 -6.5 23.5t-13.5 16.5t-24.5 11.5t-27.5 8t-34 7.5q-37 8 -59 15.5t-50.5 23t-42.5 41t-14 61.5q0 86 69.5 136t170.5 50q92 0 145 -42q47 -37 47 -101q0 -9 -1 -17h-140q2 69 -69 69q-34 0 -59 -16t-25 -47 q0 -21 17.5 -34.5t32.5 -18t53 -12.5q5 -1 8 -2q29 -6 46.5 -10.5t42 -15.5t38.5 -24t24 -35t10 -51q0 -87 -70.5 -141.5t-174.5 -54.5q-96 0 -152 45q-49 39 -50 108q0 10 1 20z" />
<glyph unicode="t" horiz-adv-x="394" d="M70 426l17 97h82l24 137h147l-24 -137h128l-16 -97h-129l-45 -260q-3 -17 -3 -31q0 -54 50 -54q27 0 70 12l-16 -86q-51 -22 -117 -22q-74 -1 -112 39q-26 28 -27 79q0 22 5 48l48 275h-82z" />
<glyph unicode="u" horiz-adv-x="607" d="M85 158l65 365h147l-61 -345q-2 -12 -2 -23q0 -55 63 -55q55 0 106 42l67 381h148l-93 -523h-147l23 132l-11 -63q-98 -84 -195 -84q-60 0 -93 40q-22 27 -22 78q0 25 5 55z" />
<glyph unicode="v" horiz-adv-x="512" d="M73 523h152l24 -178l19 -193l87 193l85 178h142l-275 -523h-140z" />
<glyph unicode="w" horiz-adv-x="794" d="M73 523h143l15 -173l9 -194l84 194l79 173h132l19 -173l19 -194l79 194l74 173h138l-253 -524h-138l-17 158l-16 193l-85 -193l-72 -157h-142z" />
<glyph unicode="x" horiz-adv-x="533" d="M-10 0l232 268l-135 255h153l71 -152l125 152h152l-216 -250l144 -273h-153l-81 170l-140 -170h-152z" />
<glyph unicode="y" horiz-adv-x="504" d="M59 -208l112 209l-98 522h152l22 -154l19 -193l90 193l77 154h141l-386 -731h-129z" />
<glyph unicode="z" horiz-adv-x="472" d="M32 0l17 97l287 329h-218l17 97h380l-17 -97l-286 -329h227l-17 -97h-390z" />
<glyph unicode="{" horiz-adv-x="407" d="M89 295l20 111q52 0 78.5 16t33.5 56l28 151q36 196 254 196h26l-17 -96h-26q-69 0 -83 -90l-26 -149q-9 -55 -42.5 -92t-76.5 -48q38 -11 58 -49t11 -93l-26 -147q-16 -90 52 -90h26l-17 -96h-26q-103 0 -154 47t-32 149l27 151q7 41 -14 57t-74 16z" />
<glyph unicode="|" horiz-adv-x="329" d="M60 -160l173 980h140l-173 -980h-140z" />
<glyph unicode="}" horiz-adv-x="414" d="M-8 -125l17 96h26q67 0 83 90l25 147q10 55 43.5 93t76.5 49q-39 11 -59 48t-11 92l26 149q16 90 -51 90h-26l16 96h26q223 0 187 -196l-28 -151q-7 -40 14 -56t74 -16l-20 -111q-52 0 -78.5 -16t-33.5 -57l-27 -151q-36 -196 -254 -196h-26z" />
<glyph unicode="~" horiz-adv-x="582" d="M67 326q41 74 92.5 105t99.5 31q41 0 76 -17t62.5 -34t50.5 -17q40 0 81 62l93 -50q-41 -75 -92 -105.5t-99 -30.5q-41 0 -76 17t-62.5 34.5t-50.5 17.5q-38 0 -82 -62z" />
<glyph unicode="&#xa1;" horiz-adv-x="271" d="M11 -208l107 467h116l-57 -467h-166zM113 402q0 45 31 75t76 30q35 0 55.5 -21t20.5 -54q0 -45 -31 -74.5t-76 -29.5q-35 0 -55.5 20.5t-20.5 53.5z" />
<glyph unicode="&#xa2;" horiz-adv-x="535" d="M67 200q0 126 60.5 214.5t161.5 114.5l22 118h139l-21 -117q65 -18 98.5 -68.5t26.5 -128.5h-143q4 61 -11 86.5t-54 25.5q-41 0 -71.5 -37.5t-45 -92t-14.5 -115.5q0 -122 69 -122q68 0 99 104h143q-22 -74 -72 -123t-119 -66l-20 -113h-140l21 114q-129 35 -129 206z " />
<glyph unicode="&#xa3;" horiz-adv-x="589" d="M27 0l21 113h74l31 179h-74l20 113h74l16 94q18 101 89.5 158.5t177.5 57.5q110 0 164.5 -54.5t42.5 -161.5h-157q4 46 -14.5 68.5t-53.5 22.5q-80 0 -93 -76l-19 -109h192l-21 -113h-191l-31 -179h291l-21 -113h-518z" />
<glyph unicode="&#xa4;" horiz-adv-x="664" d="M32 145l97 82q-15 37 -15 85q0 114 64 195l-61 75l92 78l62 -76q69 37 152 37q74 0 127 -34l94 80l79 -93l-97 -82q15 -43 15 -85q0 -114 -66 -196l62 -74l-92 -78l-62 75q-67 -36 -151 -36q-75 0 -127 33l-94 -79zM270 307q0 -54 20 -84.5t58 -30.5q56 0 96.5 60 t40.5 160q0 53 -20 84t-58 31q-56 0 -96.5 -60t-40.5 -160z" />
<glyph unicode="&#xa5;" horiz-adv-x="583" d="M61 85l19 113h162l16 94h-161l20 113h129l-125 295h155l91 -246l176 246h146l-227 -295h130l-20 -113h-161l-17 -94h162l-20 -113h-161l-15 -85h-153l15 85h-161z" />
<glyph unicode="&#xa6;" horiz-adv-x="329" d="M60 -160l80 455h140l-80 -455h-140zM162 420l71 400h140l-71 -400h-140z" />
<glyph unicode="&#xa7;" horiz-adv-x="620" d="M50 116h157q-10 -111 101 -111q56 0 89 26t33 69q0 13 -4.5 23.5t-17 17.5t-22.5 11.5t-32 8.5t-33 5.5t-39 4.5q-38 5 -60 8.5t-54 13t-49.5 22.5t-31 36.5t-13.5 54.5q0 88 99 157q-40 35 -40 99q0 109 85 176t213 67q120 0 183.5 -56.5t53.5 -164.5h-157 q10 111 -101 111q-56 0 -89 -26t-33 -69q0 -14 4.5 -24t17 -17.5t22 -12t31.5 -8.5t33.5 -5.5t38.5 -4.5q38 -5 60 -8.5t54 -13t49.5 -22.5t31 -36.5t13.5 -54.5q0 -88 -99 -157q41 -36 41 -99q0 -109 -85.5 -175.5t-212.5 -66.5q-120 0 -183.5 56.5t-53.5 164.5zM216 358 q0 -17 9.5 -29t30 -18.5t40 -10t51.5 -6.5q91 -12 119 -20q36 31 36 67q0 17 -9.5 29t-30 18.5t-40 10t-51.5 6.5q-91 12 -120 20q-35 -31 -35 -67z" />
<glyph unicode="&#xa8;" horiz-adv-x="485" d="M166 652q0 40 29.5 68.5t70.5 28.5q33 0 52 -19.5t19 -50.5q0 -41 -29 -69.5t-71 -28.5q-32 0 -51.5 20t-19.5 51zM382 651q0 41 29.5 69.5t71.5 28.5q32 0 51.5 -20t19.5 -51q0 -40 -29.5 -68.5t-71.5 -28.5q-32 0 -51.5 19.5t-19.5 50.5z" />
<glyph unicode="&#xa9;" horiz-adv-x="830" d="M50 350q0 152 105 258.5t260 106.5t260 -106.5t105 -258.5t-105 -258.5t-260 -106.5t-260 106.5t-105 258.5zM137 350q0 -119 80 -201.5t198 -82.5q117 0 197.5 82.5t80.5 201.5q0 118 -80.5 201t-197.5 83q-118 0 -198 -82.5t-80 -201.5zM230 350q0 97 50 155.5 t132 58.5q75 0 122 -39t51 -116h-110q-4 38 -18.5 56.5t-44.5 18.5q-35 0 -53 -36.5t-18 -97.5q0 -136 71 -136q30 0 44.5 19t18.5 58h110q-4 -78 -51 -117t-122 -39q-91 0 -136.5 57t-45.5 158z" />
<glyph unicode="&#xaa;" horiz-adv-x="349" d="M112 551q0 84 45 140t115 56q44 0 70 -34l4 25h107l-51 -298h-108l5 28q-46 -37 -92 -37t-70.5 32.5t-24.5 87.5zM221 563q0 -55 39 -55q26 0 49 20l22 123q-13 19 -40 19q-32 0 -51 -27.5t-19 -79.5z" />
<glyph unicode="&#xab;" horiz-adv-x="595" d="M87 209l24 137l272 185l-29 -166l-133 -89l102 -87l-29 -165zM342 209l24 137l272 185l-29 -166l-133 -89l102 -87l-29 -165z" />
<glyph unicode="&#xac;" horiz-adv-x="562" d="M87 309l20 114h475l-52 -295h-113l32 181h-362z" />
<glyph unicode="&#xad;" horiz-adv-x="312" d="M63 220l20 113h248l-21 -113h-247z" />
<glyph unicode="&#xae;" horiz-adv-x="578" d="M50 477q0 100 68.5 169t170.5 69t170.5 -69t68.5 -169t-68.5 -169t-170.5 -69t-170.5 69t-68.5 169zM115 477q0 -74 50 -126.5t124 -52.5t123.5 52.5t49.5 126.5t-49.5 126t-123.5 52t-124 -52t-50 -126zM194 353v255h89q41 0 71.5 -20.5t30.5 -60.5q0 -51 -48 -72 l62 -102h-76l-49 91h-11v-91h-69zM263 493h20q35 0 35 34q0 32 -35 32h-20v-66z" />
<glyph unicode="&#xaf;" horiz-adv-x="420" d="M158 612l18 101h320l-18 -101h-320z" />
<glyph unicode="&#xb0;" horiz-adv-x="428" d="M144 525q0 79 58 134.5t138 55.5q62 0 100 -38.5t38 -99.5q0 -79 -58 -134.5t-138 -55.5q-62 0 -100 38.5t-38 99.5zM238 538q0 -28 16.5 -45.5t43.5 -17.5q36 0 61 26t25 62q0 28 -16.5 46t-43.5 18q-36 0 -61 -26.5t-25 -62.5z" />
<glyph unicode="&#xb1;" horiz-adv-x="573" d="M42 0l21 113h475l-21 -113h-475zM106 362l20 113h180l32 181h114l-32 -181h181l-20 -113h-181l-32 -181h-114l32 181h-180z" />
<glyph unicode="&#xb4;" horiz-adv-x="384" d="M153 585l130 163h183l-190 -163h-123z" />
<glyph unicode="&#xb5;" horiz-adv-x="607" d="M20 -208l130 731h147l-61 -345q-14 -78 61 -78q53 0 106 42l67 381h148l-93 -523h-147l12 69q-64 -57 -133 -73q-27 -6 -53 -4l-36 -200h-148z" />
<glyph unicode="&#xb6;" horiz-adv-x="669" d="M97 456q0 63 25.5 112t67 77t89 41.5t98.5 13.5h321l-123 -700h-114l105 590h-65l-105 -590h-113l50 282h-29q-87 0 -147 43.5t-60 130.5z" />
<glyph unicode="&#xb7;" horiz-adv-x="230" d="M73 351q0 43 31 73.5t76 30.5q35 0 55.5 -21t20.5 -55q0 -43 -31.5 -73.5t-75.5 -30.5q-35 0 -55.5 21t-20.5 55z" />
<glyph unicode="&#xb8;" horiz-adv-x="312" d="M9 -233l11 63q26 -13 61 -13q19 0 34 8.5t15 26.5q0 25 -38 25q-19 0 -36 -5l-18 44l78 84h80l-57 -63q41 2 70 -16t29 -55q0 -55 -47 -84.5t-113 -29.5q-40 0 -69 15z" />
<glyph unicode="&#xba;" horiz-adv-x="347" d="M113 562q0 81 54.5 133t137.5 52q63 0 99.5 -34.5t36.5 -94.5q0 -82 -54 -134.5t-138 -52.5q-63 0 -99.5 35.5t-36.5 95.5zM221 560q0 -57 41 -57q35 0 53.5 33t18.5 84q0 56 -41 56q-32 0 -52 -31t-20 -85z" />
<glyph unicode="&#xbb;" horiz-adv-x="595" d="M55 24l29 167l133 88l-102 88l29 164l207 -185l-24 -137zM310 24l29 167l133 88l-102 88l29 164l207 -185l-24 -137z" />
<glyph unicode="&#xbc;" horiz-adv-x="932" d="M144 540l18 106l116 54h127l-74 -420h-127l55 314zM146 0l588 700h159l-588 -700h-159zM532 57l16 95l168 268h120l-170 -268h72l14 82h115l-14 -82h55l-16 -95h-56l-10 -57h-115l10 57h-189z" />
<glyph unicode="&#xbd;" horiz-adv-x="962" d="M144 540l18 106l116 54h127l-74 -420h-127l55 314zM146 0l588 700h159l-588 -700h-159zM579 0l16 94q27 18 63.5 43t55.5 38t43.5 30.5t36 28.5t23.5 24.5t16.5 25.5t4.5 25q0 33 -37 33q-44 0 -58 -53h-126q16 68 69.5 104t129.5 36q69 0 108 -29t39 -81 q0 -31 -9.5 -54.5t-40.5 -53t-58.5 -50t-93.5 -67.5h167l-16 -94h-333z" />
<glyph unicode="&#xbe;" horiz-adv-x="992" d="M120 398h126q-2 -21 9 -31t39 -10q30 0 45.5 15t15.5 37q0 39 -68 39h-49l16 89h48q75 0 75 55q0 30 -37 30q-43 0 -57 -40h-126q16 60 69 93.5t129 33.5q67 0 107.5 -26.5t40.5 -76.5q0 -35 -24 -65.5t-68 -42.5q69 -15 69 -80q0 -66 -59.5 -106.5t-142.5 -40.5t-124 32 t-34 95zM206 0l588 700h159l-588 -700h-159zM591 57l16 95l168 268h120l-170 -268h72l14 82h115l-14 -82h55l-16 -95h-56l-10 -57h-115l10 57h-189z" />
<glyph unicode="&#xbf;" horiz-adv-x="493" d="M-8 -68q0 54 25 95.5t60 66t69.5 46.5t57 51.5t19.5 67.5h146q2 -56 -19.5 -94t-54.5 -58.5t-66.5 -38.5t-57 -46.5t-23.5 -69.5q0 -29 18 -45.5t51 -16.5q79 0 100 94h157q-24 -100 -96 -153.5t-182 -53.5q-93 0 -148.5 40.5t-55.5 114.5zM228 402q0 45 31 75t77 30 q34 0 54.5 -21t20.5 -54q0 -45 -31 -74.5t-76 -29.5q-35 0 -55.5 20.5t-20.5 53.5z" />
<glyph unicode="&#xc0;" horiz-adv-x="640" d="M-5 0l362 700h153l120 -700h-156l-22 160h-230l-76 -160h-151zM268 895h186l112 -145h-120zM275 271h162l-12 85l-19 201l-90 -201z" />
<glyph unicode="&#xc1;" horiz-adv-x="640" d="M-5 0l362 700h153l120 -700h-156l-22 160h-230l-76 -160h-151zM275 271h162l-12 85l-19 201l-90 -201zM317 750l153 145h197l-220 -145h-130z" />
<glyph unicode="&#xc2;" horiz-adv-x="640" d="M-5 0l362 700h153l120 -700h-156l-22 160h-230l-76 -160h-151zM215 750l176 145h152l125 -145h-138l-76 60l-97 -60h-142zM275 271h162l-12 85l-19 201l-90 -201z" />
<glyph unicode="&#xc3;" horiz-adv-x="640" d="M-5 0l362 700h153l120 -700h-156l-22 160h-230l-76 -160h-151zM241 792q28 53 67.5 82.5t78.5 29.5q33 0 86 -20.5t66 -20.5q32 0 56 39l75 -37q-28 -54 -66.5 -83.5t-77.5 -29.5q-33 0 -86 21t-66 21q-31 0 -57 -39zM275 271h162l-12 85l-19 201l-90 -201z" />
<glyph unicode="&#xc4;" horiz-adv-x="640" d="M-5 0l362 700h153l120 -700h-156l-22 160h-230l-76 -160h-151zM257 821q0 40 29 66.5t71 26.5q33 0 53 -18.5t20 -49.5q0 -41 -29 -67.5t-72 -26.5q-32 0 -52 19t-20 50zM275 271h162l-12 85l-19 201l-90 -201zM482 820q0 41 29 67.5t72 26.5q32 0 52 -19t20 -50 q0 -40 -29.5 -66.5t-70.5 -26.5q-33 0 -53 19t-20 49z" />
<glyph unicode="&#xc5;" horiz-adv-x="640" d="M-5 0l362 700h153l120 -700h-156l-22 160h-230l-76 -160h-151zM275 271h162l-12 85l-19 201l-90 -201zM322 809q0 51 44.5 85t105.5 34q51 0 83 -25t32 -66q0 -51 -44.5 -85t-106.5 -34q-51 0 -82.5 25t-31.5 66zM425 831q-15 -25 11 -41q16 -4 29.5 3.5t18.5 21.5 q15 25 -12 40q-15 5 -28.5 -2t-18.5 -22z" />
<glyph unicode="&#xc6;" horiz-adv-x="964" d="M-5 0l594 700h438l-19 -114h-278l-29 -159h259l-20 -117h-259l-35 -197h279l-21 -113h-431l28 160h-209l-126 -160h-171zM380 271h141l41 231z" />
<glyph unicode="&#xc7;" horiz-adv-x="654" d="M78 263q0 200 106.5 326t270.5 126q120 0 184.5 -67t49.5 -198h-159q13 151 -96 151q-89 0 -141.5 -98t-52.5 -236q0 -169 108 -169q51 0 90 38t57 114h158q-29 -124 -109.5 -190.5t-191.5 -73.5l-44 -49q41 2 70 -16t29 -55q0 -55 -47 -84.5t-113 -29.5q-40 0 -69 15 l11 63q26 -13 61 -13q19 0 34 8.5t15 26.5q0 25 -38 25q-19 0 -36 -5l-18 44l67 73q-100 14 -148 85.5t-48 188.5z" />
<glyph unicode="&#xc8;" horiz-adv-x="558" d="M67 0l123 700h432l-20 -114h-278l-29 -161h258l-19 -113h-259l-35 -199h279l-20 -113h-432zM233 895h186l112 -145h-120z" />
<glyph unicode="&#xc9;" horiz-adv-x="558" d="M67 0l123 700h432l-20 -114h-278l-29 -161h258l-19 -113h-259l-35 -199h279l-20 -113h-432zM277 750l153 145h197l-220 -145h-130z" />
<glyph unicode="&#xca;" horiz-adv-x="558" d="M67 0l123 700h432l-20 -114h-278l-29 -161h258l-19 -113h-259l-35 -199h279l-20 -113h-432zM185 750l176 145h152l125 -145h-138l-76 60l-97 -60h-142z" />
<glyph unicode="&#xcb;" horiz-adv-x="558" d="M67 0l123 700h432l-20 -114h-278l-29 -161h258l-19 -113h-259l-35 -199h279l-20 -113h-432zM227 821q0 40 29 66.5t71 26.5q33 0 53 -18.5t20 -49.5q0 -41 -29 -67.5t-72 -26.5q-32 0 -52 19t-20 50zM452 820q0 41 29 67.5t72 26.5q32 0 52 -19t20 -50q0 -40 -29.5 -66.5 t-70.5 -26.5q-33 0 -53 19t-20 49z" />
<glyph unicode="&#xcc;" horiz-adv-x="312" d="M67 0l123 700h153l-123 -700h-153zM97 895h186l112 -145h-120z" />
<glyph unicode="&#xcd;" horiz-adv-x="312" d="M67 0l123 700h153l-123 -700h-153zM166 750l153 145h197l-220 -145h-130z" />
<glyph unicode="&#xce;" horiz-adv-x="312" d="M54 750l176 145h152l125 -145h-138l-76 60l-97 -60h-142zM67 0l123 700h153l-123 -700h-153z" />
<glyph unicode="&#xcf;" horiz-adv-x="312" d="M67 0l123 700h153l-123 -700h-153zM111 821q0 40 29.5 66.5t71.5 26.5q33 0 52.5 -18.5t19.5 -49.5q0 -41 -29 -67.5t-71 -26.5q-33 0 -53 19t-20 50zM304 820q0 41 29 67.5t72 26.5q32 0 52 -19t20 -50q0 -40 -29.5 -66.5t-70.5 -26.5q-33 0 -53 19t-20 49z" />
<glyph unicode="&#xd0;" horiz-adv-x="703" d="M24 291l20 114h94l52 295h237q134 0 215 -77t81 -210q0 -186 -121 -299.5t-298 -113.5h-237l51 291h-94zM240 113h84q105 0 170.5 78t65.5 213q0 90 -39.5 136t-113.5 46h-83l-32 -181h142l-20 -114h-142z" />
<glyph unicode="&#xd1;" horiz-adv-x="723" d="M67 0l123 700h137l208 -468l30 191l49 277h139l-123 -700h-137l-207 467l-31 -191l-48 -276h-140zM280 792q28 53 67.5 82.5t78.5 29.5q33 0 86.5 -20.5t65.5 -20.5q32 0 56 39l75 -37q-28 -54 -66.5 -83.5t-77.5 -29.5q-33 0 -86 21t-66 21q-31 0 -57 -39z" />
<glyph unicode="&#xd2;" horiz-adv-x="717" d="M78 277q0 193 109 315.5t285 122.5q128 0 196.5 -78.5t68.5 -213.5q0 -193 -109 -315.5t-285 -122.5q-128 0 -196.5 78.5t-68.5 213.5zM239 276q0 -82 32 -130t94 -48q57 0 100 31.5t66 82.5t34 104.5t11 107.5q0 81 -32 129t-93 48q-57 0 -100 -31.5t-66.5 -82 t-34.5 -104t-11 -107.5zM305 895h186l112 -145h-120z" />
<glyph unicode="&#xd3;" horiz-adv-x="717" d="M78 277q0 193 109 315.5t285 122.5q128 0 196.5 -78.5t68.5 -213.5q0 -193 -109 -315.5t-285 -122.5q-128 0 -196.5 78.5t-68.5 213.5zM239 276q0 -82 32 -130t94 -48q57 0 100 31.5t66 82.5t34 104.5t11 107.5q0 81 -32 129t-93 48q-57 0 -100 -31.5t-66.5 -82 t-34.5 -104t-11 -107.5zM354 750l153 145h197l-220 -145h-130z" />
<glyph unicode="&#xd4;" horiz-adv-x="717" d="M78 277q0 193 109 315.5t285 122.5q128 0 196.5 -78.5t68.5 -213.5q0 -193 -109 -315.5t-285 -122.5q-128 0 -196.5 78.5t-68.5 213.5zM239 276q0 -82 32 -130t94 -48q57 0 100 31.5t66 82.5t34 104.5t11 107.5q0 81 -32 129t-93 48q-57 0 -100 -31.5t-66.5 -82 t-34.5 -104t-11 -107.5zM252 750l176 145h152l125 -145h-138l-76 60l-97 -60h-142z" />
<glyph unicode="&#xd5;" horiz-adv-x="717" d="M78 277q0 193 109 315.5t285 122.5q128 0 196.5 -78.5t68.5 -213.5q0 -193 -109 -315.5t-285 -122.5q-128 0 -196.5 78.5t-68.5 213.5zM239 276q0 -82 32 -130t94 -48q57 0 100 31.5t66 82.5t34 104.5t11 107.5q0 81 -32 129t-93 48q-57 0 -100 -31.5t-66.5 -82 t-34.5 -104t-11 -107.5zM277 792q28 53 67.5 82.5t78.5 29.5q33 0 86 -20.5t66 -20.5q32 0 56 39l75 -37q-28 -54 -66.5 -83.5t-77.5 -29.5q-33 0 -86 21t-66 21q-31 0 -57 -39z" />
<glyph unicode="&#xd6;" horiz-adv-x="717" d="M78 277q0 193 109 315.5t285 122.5q128 0 196.5 -78.5t68.5 -213.5q0 -193 -109 -315.5t-285 -122.5q-128 0 -196.5 78.5t-68.5 213.5zM239 276q0 -82 32 -130t94 -48q57 0 100 31.5t66 82.5t34 104.5t11 107.5q0 81 -32 129t-93 48q-57 0 -100 -31.5t-66.5 -82 t-34.5 -104t-11 -107.5zM294 821q0 40 29 66.5t71 26.5q33 0 53 -18.5t20 -49.5q0 -41 -29 -67.5t-72 -26.5q-32 0 -52 19t-20 50zM519 820q0 41 29 67.5t72 26.5q32 0 52 -19t20 -50q0 -40 -29.5 -66.5t-70.5 -26.5q-33 0 -53 19t-20 49z" />
<glyph unicode="&#xd7;" horiz-adv-x="516" d="M72 227l169 144l-114 139l94 79l114 -139l169 144l74 -89l-170 -144l115 -141l-95 -78l-114 139l-169 -143z" />
<glyph unicode="&#xd8;" horiz-adv-x="717" d="M16 -90l118 168q-56 76 -56 199q0 193 109 315.5t285 122.5q56 0 100 -15l64 90h163l-118 -168q56 -76 56 -199q0 -193 -109 -315.5t-285 -122.5q-57 0 -100 15l-64 -90h-163zM239 276q0 -82 32 -130t94 -48q57 0 100 31.5t66 82.5t34 104.5t11 107.5q0 81 -32 129 t-93 48q-57 0 -100 -31.5t-66.5 -82t-34.5 -104t-11 -107.5z" />
<glyph unicode="&#xd9;" horiz-adv-x="717" d="M106 234l82 466h153l-79 -446q-14 -80 12 -118t95 -38q134 0 157 136l82 466h139l-78 -446q-24 -134 -108.5 -201.5t-212.5 -67.5q-131 0 -197.5 62t-44.5 187zM298 895h186l112 -145h-120z" />
<glyph unicode="&#xda;" horiz-adv-x="717" d="M106 234l82 466h153l-79 -446q-14 -80 12 -118t95 -38q134 0 157 136l82 466h139l-78 -446q-24 -134 -108.5 -201.5t-212.5 -67.5q-131 0 -197.5 62t-44.5 187zM350 750l153 145h197l-220 -145h-130z" />
<glyph unicode="&#xdb;" horiz-adv-x="717" d="M106 234l82 466h153l-79 -446q-14 -80 12 -118t95 -38q134 0 157 136l82 466h139l-78 -446q-24 -134 -108.5 -201.5t-212.5 -67.5q-131 0 -197.5 62t-44.5 187zM250 750l176 145h152l125 -145h-138l-76 60l-97 -60h-142z" />
<glyph unicode="&#xdc;" horiz-adv-x="717" d="M106 234l82 466h153l-79 -446q-14 -80 12 -118t95 -38q134 0 157 136l82 466h139l-78 -446q-24 -134 -108.5 -201.5t-212.5 -67.5q-131 0 -197.5 62t-44.5 187zM292 821q0 40 29 66.5t71 26.5q33 0 53 -18.5t20 -49.5q0 -41 -29 -67.5t-72 -26.5q-32 0 -52 19t-20 50z M517 820q0 41 29 67.5t72 26.5q32 0 52 -19t20 -50q0 -40 -29.5 -66.5t-70.5 -26.5q-33 0 -53 19t-20 49z" />
<glyph unicode="&#xdd;" horiz-adv-x="583" d="M113 700h156l90 -303l184 303h146l-282 -430l-47 -270h-153l48 270zM294 750l153 145h197l-220 -145h-130z" />
<glyph unicode="&#xde;" horiz-adv-x="590" d="M67 0l123 700h153l-17 -101h86q96 0 159.5 -51t63.5 -149q0 -133 -92 -205.5t-215 -72.5h-87l-21 -121h-153zM261 231h86q51 0 91.5 42t40.5 111q0 48 -24.5 76.5t-61.5 28.5h-87z" />
<glyph unicode="&#xdf;" horiz-adv-x="664" d="M57 0l86 483q23 132 112.5 204t212.5 72q85 0 144 -34.5t59 -104.5q0 -35 -15 -65t-36.5 -49.5t-42.5 -36.5t-36 -34.5t-15 -35.5q0 -20 22 -40.5t48 -37.5t48 -51.5t22 -78.5q0 -51 -21.5 -92t-56.5 -65t-75.5 -36.5t-81.5 -12.5q-84 0 -125.5 44.5t-31.5 128.5h140 q-11 -77 44 -77q27 0 45 18.5t18 56.5q0 31 -23.5 55.5t-51 39t-51 43.5t-23.5 67q0 31 14.5 57t35 44.5l41 37t35 43t14.5 53.5q0 69 -70 69q-120 0 -152 -181l-85 -484h-148z" />
<glyph unicode="&#xe0;" horiz-adv-x="593" d="M67 193q0 148 77.5 246.5t184.5 98.5q80 0 119 -61l8 46h147l-92 -523h-148l9 49q-79 -64 -159 -64q-73 0 -109.5 56t-36.5 152zM217 207q0 -119 73 -119q47 0 95 34l50 280q-33 33 -77 33q-64 0 -102.5 -64.5t-38.5 -163.5zM230 748h173l82 -163h-122z" />
<glyph unicode="&#xe1;" horiz-adv-x="593" d="M67 193q0 148 77.5 246.5t184.5 98.5q80 0 119 -61l8 46h147l-92 -523h-148l9 49q-79 -64 -159 -64q-73 0 -109.5 56t-36.5 152zM217 207q0 -119 73 -119q47 0 95 34l50 280q-33 33 -77 33q-64 0 -102.5 -64.5t-38.5 -163.5zM261 585l130 163h183l-190 -163h-123z" />
<glyph unicode="&#xe2;" horiz-adv-x="593" d="M67 193q0 148 77.5 246.5t184.5 98.5q80 0 119 -61l8 46h147l-92 -523h-148l9 49q-79 -64 -159 -64q-73 0 -109.5 56t-36.5 152zM196 585l155 163h141l96 -163h-120l-61 70l-87 -70h-124zM217 207q0 -119 73 -119q47 0 95 34l50 280q-33 33 -77 33q-64 0 -102.5 -64.5 t-38.5 -163.5z" />
<glyph unicode="&#xe3;" horiz-adv-x="593" d="M67 193q0 148 77.5 246.5t184.5 98.5q80 0 119 -61l8 46h147l-92 -523h-148l9 49q-79 -64 -159 -64q-73 0 -109.5 56t-36.5 152zM202 625q29 54 66.5 83t75.5 29q34 0 80 -21t59 -21q29 0 52 39l76 -37q-28 -54 -65.5 -83t-75.5 -29q-33 0 -80 21t-60 21q-26 0 -53 -40z M217 207q0 -119 73 -119q47 0 95 34l50 280q-33 33 -77 33q-64 0 -102.5 -64.5t-38.5 -163.5z" />
<glyph unicode="&#xe4;" horiz-adv-x="593" d="M67 193q0 148 77.5 246.5t184.5 98.5q80 0 119 -61l8 46h147l-92 -523h-148l9 49q-79 -64 -159 -64q-73 0 -109.5 56t-36.5 152zM217 207q0 -119 73 -119q47 0 95 34l50 280q-33 33 -77 33q-64 0 -102.5 -64.5t-38.5 -163.5zM220 652q0 40 29.5 68.5t70.5 28.5 q33 0 52 -19.5t19 -50.5q0 -41 -29 -69.5t-71 -28.5q-32 0 -51.5 20t-19.5 51zM436 651q0 41 29.5 69.5t71.5 28.5q32 0 51.5 -20t19.5 -51q0 -40 -29.5 -68.5t-71.5 -28.5q-32 0 -51.5 19.5t-19.5 50.5z" />
<glyph unicode="&#xe5;" horiz-adv-x="593" d="M67 193q0 148 77.5 246.5t184.5 98.5q80 0 119 -61l8 46h147l-92 -523h-148l9 49q-79 -64 -159 -64q-73 0 -109.5 56t-36.5 152zM217 207q0 -119 73 -119q47 0 95 34l50 280q-33 33 -77 33q-64 0 -102.5 -64.5t-38.5 -163.5zM273 650q0 52 44 83.5t107 31.5 q51 0 83 -23.5t32 -64.5q0 -51 -44 -82.5t-107 -31.5q-51 0 -83 23.5t-32 63.5zM373.5 652.5q3.5 -10.5 15.5 -17.5q15 -4 28.5 2t18.5 18q14 22 -13 38q-15 4 -28.5 -2t-18.5 -19q-6 -9 -2.5 -19.5z" />
<glyph unicode="&#xe6;" horiz-adv-x="868" d="M47 103q0 84 73.5 140t212.5 56q18 0 66 -4l10 54q16 96 -63 96q-36 0 -64 -23t-38 -76h-143q10 64 52.5 108.5t96.5 64t114 19.5q110 0 154 -60q75 60 167 60q117 0 165 -75.5t10 -231.5h-325q-1 -12 -1 -37q0 -116 73 -116q66 0 93 81h143q-23 -81 -93.5 -127.5 t-160.5 -46.5q-131 0 -177 88q-116 -88 -233 -88q-62 0 -97 32t-35 86zM198 139q0 -49 65 -49q57 0 125 53q-4 37 -1 71q-40 4 -60 4q-58 0 -93.5 -20.5t-35.5 -58.5zM547 319h186q9 65 -8.5 97t-56.5 32q-44 0 -75 -33t-46 -96z" />
<glyph unicode="&#xe7;" horiz-adv-x="535" d="M67 200q0 149 83 243.5t213 94.5q94 0 147 -54t44 -151h-143q4 61 -11 86.5t-54 25.5q-41 0 -71.5 -37.5t-45 -92t-14.5 -115.5q0 -122 69 -122q68 0 99 104h143q-26 -87 -89 -138.5t-149 -57.5l-44 -49q41 2 70 -16t29 -55q0 -55 -47 -84.5t-113 -29.5q-40 0 -69 15 l11 63q26 -13 61 -13q19 0 34 8.5t15 26.5q0 25 -38 25q-19 0 -36 -5l-18 44l69 74q-145 29 -145 210z" />
<glyph unicode="&#xe8;" horiz-adv-x="541" d="M67 197q0 150 84.5 245.5t207.5 95.5q117 0 165 -75.5t10 -231.5h-325q-1 -12 -1 -37q0 -116 73 -116q66 0 93 81h143q-23 -81 -94 -127.5t-161 -46.5q-195 0 -195 212zM220 748h173l82 -163h-122zM221 319h186q9 65 -8.5 97t-56.5 32q-92 0 -121 -129z" />
<glyph unicode="&#xe9;" horiz-adv-x="541" d="M67 197q0 150 84.5 245.5t207.5 95.5q117 0 165 -75.5t10 -231.5h-325q-1 -12 -1 -37q0 -116 73 -116q66 0 93 81h143q-23 -81 -94 -127.5t-161 -46.5q-195 0 -195 212zM221 319h186q9 65 -8.5 97t-56.5 32q-92 0 -121 -129zM260 585l130 163h183l-190 -163h-123z" />
<glyph unicode="&#xea;" horiz-adv-x="541" d="M67 197q0 150 84.5 245.5t207.5 95.5q117 0 165 -75.5t10 -231.5h-325q-1 -12 -1 -37q0 -116 73 -116q66 0 93 81h143q-23 -81 -94 -127.5t-161 -46.5q-195 0 -195 212zM167 585l155 163h141l96 -163h-120l-61 70l-87 -70h-124zM221 319h186q9 65 -8.5 97t-56.5 32 q-92 0 -121 -129z" />
<glyph unicode="&#xeb;" horiz-adv-x="541" d="M67 197q0 150 84.5 245.5t207.5 95.5q117 0 165 -75.5t10 -231.5h-325q-1 -12 -1 -37q0 -116 73 -116q66 0 93 81h143q-23 -81 -94 -127.5t-161 -46.5q-195 0 -195 212zM183 652q0 40 29.5 68.5t70.5 28.5q33 0 52 -19.5t19 -50.5q0 -41 -29 -69.5t-71 -28.5 q-32 0 -51.5 20t-19.5 51zM221 319h186q9 65 -8.5 97t-56.5 32q-92 0 -121 -129zM399 651q0 41 29.5 69.5t71.5 28.5q32 0 51.5 -20t19.5 -51q0 -40 -29.5 -68.5t-71.5 -28.5q-32 0 -51.5 19.5t-19.5 50.5z" />
<glyph unicode="&#xec;" horiz-adv-x="287" d="M57 0l93 523h147l-92 -523h-148zM85 748h173l82 -163h-122z" />
<glyph unicode="&#xed;" horiz-adv-x="287" d="M57 0l93 523h147l-92 -523h-148zM131 585l130 163h183l-190 -163h-123z" />
<glyph unicode="&#xee;" horiz-adv-x="287" d="M39 585l155 163h141l96 -163h-120l-61 70l-87 -70h-124zM57 0l93 523h147l-92 -523h-148z" />
<glyph unicode="&#xef;" horiz-adv-x="287" d="M57 0l93 523h147l-92 -523h-148zM67 652q0 40 29.5 68.5t70.5 28.5q33 0 52 -19.5t19 -50.5q0 -41 -29 -69.5t-71 -28.5q-32 0 -51.5 20t-19.5 51zM258 651q0 41 29.5 69.5t71.5 28.5q32 0 51.5 -20t19.5 -51q0 -40 -29.5 -68.5t-71.5 -28.5q-32 0 -51.5 19.5t-19.5 50.5 z" />
<glyph unicode="&#xf0;" horiz-adv-x="581" d="M67 199q0 138 77 227t177 89q54 0 92 -33q-16 54 -45 103l-129 -37l-45 86l113 33q-34 38 -86 77h176q26 -19 45 -38l118 35l46 -86l-102 -30q78 -128 78 -279q0 -157 -85.5 -259t-221.5 -102q-97 0 -152.5 57t-55.5 157zM215 198q0 -112 79 -112q37 0 64.5 22t43 59.5 t23 81.5t7.5 94q0 18 -2 48q-32 30 -71 30q-65 0 -104.5 -58.5t-39.5 -164.5z" />
<glyph unicode="&#xf1;" horiz-adv-x="611" d="M57 0l93 523h147l-23 -132l11 63q96 84 197 84q60 0 94.5 -40t18.5 -132l-64 -366h-148l61 346q14 77 -63 77q-58 0 -109 -42l-67 -381h-148zM196 625q29 54 66.5 83t75.5 29q34 0 80 -21t59 -21q29 0 52 39l76 -37q-28 -54 -65.5 -83t-75.5 -29q-33 0 -80 21t-60 21 q-26 0 -53 -40z" />
<glyph unicode="&#xf2;" horiz-adv-x="578" d="M67 206q0 146 84.5 239t219.5 93q97 0 152.5 -59.5t55.5 -160.5q0 -146 -85 -239.5t-220 -93.5q-97 0 -152 59.5t-55 161.5zM215 199q0 -57 19.5 -89t57.5 -32q61 0 100 65.5t39 180.5q0 57 -20 89t-57 32q-62 0 -100.5 -65.5t-38.5 -180.5zM232 748h173l82 -163h-122z " />
<glyph unicode="&#xf3;" horiz-adv-x="578" d="M67 206q0 146 84.5 239t219.5 93q97 0 152.5 -59.5t55.5 -160.5q0 -146 -85 -239.5t-220 -93.5q-97 0 -152 59.5t-55 161.5zM215 199q0 -57 19.5 -89t57.5 -32q61 0 100 65.5t39 180.5q0 57 -20 89t-57 32q-62 0 -100.5 -65.5t-38.5 -180.5zM273 585l130 163h183 l-190 -163h-123z" />
<glyph unicode="&#xf4;" horiz-adv-x="578" d="M67 206q0 146 84.5 239t219.5 93q97 0 152.5 -59.5t55.5 -160.5q0 -146 -85 -239.5t-220 -93.5q-97 0 -152 59.5t-55 161.5zM183 585l155 163h141l96 -163h-120l-61 70l-87 -70h-124zM215 199q0 -57 19.5 -89t57.5 -32q61 0 100 65.5t39 180.5q0 57 -20 89t-57 32 q-62 0 -100.5 -65.5t-38.5 -180.5z" />
<glyph unicode="&#xf5;" horiz-adv-x="578" d="M67 206q0 146 84.5 239t219.5 93q97 0 152.5 -59.5t55.5 -160.5q0 -146 -85 -239.5t-220 -93.5q-97 0 -152 59.5t-55 161.5zM189 625q29 54 66.5 83t75.5 29q33 0 80 -21t59 -21q29 0 52 39l76 -37q-28 -54 -65.5 -83t-75.5 -29q-33 0 -80 21t-60 21q-25 0 -53 -40z M215 199q0 -57 19.5 -89t57.5 -32q61 0 100 65.5t39 180.5q0 57 -20 89t-57 32q-62 0 -100.5 -65.5t-38.5 -180.5z" />
<glyph unicode="&#xf6;" horiz-adv-x="578" d="M67 206q0 146 84.5 239t219.5 93q97 0 152.5 -59.5t55.5 -160.5q0 -146 -85 -239.5t-220 -93.5q-97 0 -152 59.5t-55 161.5zM200 652q0 40 29.5 68.5t70.5 28.5q33 0 52 -19.5t19 -50.5q0 -41 -29 -69.5t-71 -28.5q-32 0 -51.5 20t-19.5 51zM215 199q0 -57 19.5 -89 t57.5 -32q61 0 100 65.5t39 180.5q0 57 -20 89t-57 32q-62 0 -100.5 -65.5t-38.5 -180.5zM416 651q0 41 29.5 69.5t71.5 28.5q32 0 51.5 -20t19.5 -51q0 -40 -29.5 -68.5t-71.5 -28.5q-32 0 -51.5 19.5t-19.5 50.5z" />
<glyph unicode="&#xf7;" horiz-adv-x="562" d="M87 309l20 114h475l-20 -114h-475zM220 169q0 38 28 64.5t68 26.5q30 0 49 -18.5t19 -47.5q0 -38 -28.5 -65t-67.5 -27q-31 0 -49.5 19t-18.5 48zM285 539q0 38 28 64t68 26q30 0 49 -18.5t19 -47.5q0 -38 -28 -64.5t-67 -26.5q-31 0 -50 18.5t-19 48.5z" />
<glyph unicode="&#xf8;" horiz-adv-x="578" d="M-2 -80l106 147q-37 57 -37 139q0 146 84.5 239t219.5 93q40 0 70 -10l54 75h151l-105 -145q38 -56 38 -140q0 -146 -85 -239.5t-220 -93.5q-41 0 -72 10l-54 -75h-150zM215 199q0 -57 19.5 -89t57.5 -32q61 0 100 65.5t39 180.5q0 57 -20 89t-57 32q-62 0 -100.5 -65.5 t-38.5 -180.5z" />
<glyph unicode="&#xf9;" horiz-adv-x="607" d="M85 158l65 365h147l-61 -345q-14 -78 61 -78q55 0 106 42l67 381h148l-93 -523h-147l23 132l-11 -63q-98 -84 -195 -84q-60 0 -93 40t-17 133zM244 748h173l82 -163h-122z" />
<glyph unicode="&#xfa;" horiz-adv-x="607" d="M85 158l65 365h147l-61 -345q-14 -78 61 -78q55 0 106 42l67 381h148l-93 -523h-147l23 132l-11 -63q-98 -84 -195 -84q-60 0 -93 40t-17 133zM290 585l130 163h183l-190 -163h-123z" />
<glyph unicode="&#xfb;" horiz-adv-x="607" d="M85 158l65 365h147l-61 -345q-14 -78 61 -78q55 0 106 42l67 381h148l-93 -523h-147l23 132l-11 -63q-98 -84 -195 -84q-60 0 -93 40t-17 133zM198 585l155 163h141l96 -163h-120l-61 70l-87 -70h-124z" />
<glyph unicode="&#xfc;" horiz-adv-x="607" d="M85 158l65 365h147l-61 -345q-14 -78 61 -78q55 0 106 42l67 381h148l-93 -523h-147l23 132l-11 -63q-98 -84 -195 -84q-60 0 -93 40t-17 133zM214 652q0 40 29.5 68.5t70.5 28.5q33 0 52 -19.5t19 -50.5q0 -41 -29 -69.5t-71 -28.5q-32 0 -51.5 20t-19.5 51zM430 651 q0 41 29.5 69.5t71.5 28.5q32 0 51.5 -20t19.5 -51q0 -40 -29.5 -68.5t-71.5 -28.5q-32 0 -51.5 19.5t-19.5 50.5z" />
<glyph unicode="&#xfd;" horiz-adv-x="504" d="M59 -208l112 209l-98 522h152l22 -154l19 -193l90 193l77 154h141l-386 -731h-129zM230 585l130 163h183l-190 -163h-123z" />
<glyph unicode="&#xfe;" horiz-adv-x="593" d="M20 -208l168 952h148l-48 -271q78 65 159 65q73 0 110 -56t37 -152q0 -148 -78 -246.5t-185 -98.5q-77 0 -118 62l-45 -255h-148zM226 121q33 -33 76 -33q64 0 103 64.5t39 163.5q0 119 -74 119q-50 0 -95 -35z" />
<glyph unicode="&#xff;" horiz-adv-x="504" d="M59 -208l112 209l-98 522h152l22 -154l19 -193l90 193l77 154h141l-386 -731h-129zM165 652q0 40 29.5 68.5t70.5 28.5q33 0 52 -19.5t19 -50.5q0 -41 -29 -69.5t-71 -28.5q-32 0 -51.5 20t-19.5 51zM381 651q0 41 29.5 69.5t71.5 28.5q32 0 51.5 -20t19.5 -51 q0 -40 -29.5 -68.5t-71.5 -28.5q-32 0 -51.5 19.5t-19.5 50.5z" />
<glyph unicode="&#x100;" horiz-adv-x="640" d="M-5 0l362 700h153l120 -700h-156l-22 160h-230l-76 -160h-151zM273 779l18 102h348l-18 -102h-348zM275 271h162l-12 85l-19 201l-90 -201z" />
<glyph unicode="&#x101;" horiz-adv-x="593" d="M67 193q0 148 77.5 246.5t184.5 98.5q80 0 119 -61l8 46h147l-92 -523h-148l9 49q-79 -64 -159 -64q-73 0 -109.5 56t-36.5 152zM217 207q0 -119 73 -119q47 0 95 34l50 280q-33 33 -77 33q-64 0 -102.5 -64.5t-38.5 -163.5zM237 612l18 101h320l-18 -101h-320z" />
<glyph unicode="&#x102;" horiz-adv-x="640" d="M-5 0l362 700h153l120 -700h-156l-22 160h-230l-76 -160h-151zM275 271h162l-12 85l-19 201l-90 -201zM289 895h103q-4 -23 12.5 -37t54.5 -14q74 0 83 51h104q-13 -77 -73 -117t-133 -40t-118.5 40t-32.5 117z" />
<glyph unicode="&#x103;" horiz-adv-x="593" d="M67 193q0 148 77.5 246.5t184.5 98.5q80 0 119 -61l8 46h147l-92 -523h-148l9 49q-79 -64 -159 -64q-73 0 -109.5 56t-36.5 152zM217 207q0 -119 73 -119q47 0 95 34l50 280q-33 33 -77 33q-64 0 -102.5 -64.5t-38.5 -163.5zM252 748h102q-4 -28 8 -49t46 -21q33 0 53 21 t25 49h103q-15 -88 -73.5 -131.5t-125.5 -43.5q-68 0 -111 43.5t-27 131.5z" />
<glyph unicode="&#x104;" horiz-adv-x="640" d="M-5 0l362 700h153l120 -700h-1q-132 -64 -132 -128q0 -16 10.5 -24.5t24.5 -8.5q33 0 72 17l-14 -80q-48 -24 -118 -24q-49 0 -75 24.5t-26 62.5q0 91 133 161h-30l-22 160h-230l-76 -160h-151zM275 271h162l-12 85l-19 201l-90 -201z" />
<glyph unicode="&#x105;" horiz-adv-x="593" d="M67 193q0 148 77.5 246.5t184.5 98.5q80 0 119 -61l8 46h147l-92 -523h-1q-132 -64 -132 -128q0 -16 10.5 -24.5t24.5 -8.5q33 0 72 17l-14 -80q-48 -24 -118 -24q-49 0 -75 24.5t-26 62.5q0 91 133 161h-22l9 49q-79 -64 -159 -64q-73 0 -109.5 56t-36.5 152zM217 207 q0 -119 73 -119q47 0 95 34l50 280q-33 33 -77 33q-64 0 -102.5 -64.5t-38.5 -163.5z" />
<glyph unicode="&#x106;" horiz-adv-x="654" d="M78 263q0 200 106.5 326t270.5 126q120 0 184.5 -67t49.5 -198h-159q13 151 -96 151q-89 0 -141.5 -98t-52.5 -236q0 -169 108 -169q51 0 90 38t57 114h158q-30 -131 -118.5 -198t-208.5 -67q-127 0 -187.5 73t-60.5 205zM320 750l153 145h197l-220 -145h-130z" />
<glyph unicode="&#x107;" horiz-adv-x="535" d="M67 200q0 149 83 243.5t213 94.5q94 0 147 -54t44 -151h-143q4 61 -11 86.5t-54 25.5q-41 0 -71.5 -37.5t-45 -92t-14.5 -115.5q0 -122 69 -122q68 0 99 104h143q-28 -93 -97.5 -145t-162.5 -52q-101 0 -150 56.5t-49 158.5zM248 585l130 163h183l-190 -163h-123z" />
<glyph unicode="&#x108;" horiz-adv-x="654" d="M78 263q0 200 106.5 326t270.5 126q120 0 184.5 -67t49.5 -198h-159q13 151 -96 151q-89 0 -141.5 -98t-52.5 -236q0 -169 108 -169q51 0 90 38t57 114h158q-30 -131 -118.5 -198t-208.5 -67q-127 0 -187.5 73t-60.5 205zM223 750l176 145h152l125 -145h-138l-76 60 l-97 -60h-142z" />
<glyph unicode="&#x109;" horiz-adv-x="535" d="M67 200q0 149 83 243.5t213 94.5q94 0 147 -54t44 -151h-143q4 61 -11 86.5t-54 25.5q-41 0 -71.5 -37.5t-45 -92t-14.5 -115.5q0 -122 69 -122q68 0 99 104h143q-28 -93 -97.5 -145t-162.5 -52q-101 0 -150 56.5t-49 158.5zM168 585l155 163h141l96 -163h-120l-61 70 l-87 -70h-124z" />
<glyph unicode="&#x10a;" horiz-adv-x="654" d="M78 263q0 200 106.5 326t270.5 126q120 0 184.5 -67t49.5 -198h-159q13 151 -96 151q-89 0 -141.5 -98t-52.5 -236q0 -169 108 -169q51 0 90 38t57 114h158q-30 -131 -118.5 -198t-208.5 -67q-127 0 -187.5 73t-60.5 205zM373 819q0 42 31 70t74 28q34 0 55.5 -20 t21.5 -52q0 -42 -31 -70t-76 -28q-34 0 -54.5 20t-20.5 52z" />
<glyph unicode="&#x10b;" horiz-adv-x="535" d="M67 200q0 149 83 243.5t213 94.5q94 0 147 -54t44 -151h-143q4 61 -11 86.5t-54 25.5q-41 0 -71.5 -37.5t-45 -92t-14.5 -115.5q0 -122 69 -122q68 0 99 104h143q-28 -93 -97.5 -145t-162.5 -52q-101 0 -150 56.5t-49 158.5zM288 651q0 43 31 73t75 30q34 0 54 -21 t20 -54q0 -42 -30.5 -72.5t-74.5 -30.5q-34 0 -54.5 21.5t-20.5 53.5z" />
<glyph unicode="&#x10c;" horiz-adv-x="654" d="M78 263q0 200 106.5 326t270.5 126q120 0 184.5 -67t49.5 -198h-159q13 151 -96 151q-89 0 -141.5 -98t-52.5 -236q0 -169 108 -169q51 0 90 38t57 114h158q-30 -131 -118.5 -198t-208.5 -67q-127 0 -187.5 73t-60.5 205zM249 895h138l75 -60l98 60h142l-177 -145h-151z " />
<glyph unicode="&#x10d;" horiz-adv-x="535" d="M67 200q0 149 83 243.5t213 94.5q94 0 147 -54t44 -151h-143q4 61 -11 86.5t-54 25.5q-41 0 -71.5 -37.5t-45 -92t-14.5 -115.5q0 -122 69 -122q68 0 99 104h143q-28 -93 -97.5 -145t-162.5 -52q-101 0 -150 56.5t-49 158.5zM197 748h120l62 -71l86 71h125l-155 -163 h-142z" />
<glyph unicode="&#x10e;" horiz-adv-x="703" d="M67 0l123 700h237q134 0 215 -77t81 -210q0 -186 -121 -299.5t-298 -113.5h-237zM222 895h138l75 -60l98 60h142l-177 -145h-151zM240 113h84q105 0 170.5 78t65.5 213q0 90 -39.5 136t-113.5 46h-83z" />
<glyph unicode="&#x10f;" horiz-adv-x="593" d="M67 193q0 148 77.5 246.5t184.5 98.5q79 0 118 -60l47 266h148l-131 -744h-148l9 49q-79 -64 -159 -64q-73 0 -109.5 56t-36.5 152zM217 207q0 -119 73 -119q50 0 94 34l50 281q-34 32 -76 32q-64 0 -102.5 -64.5t-38.5 -163.5zM671 568l42 235h132l-70 -235h-104z" />
<glyph unicode="&#x110;" horiz-adv-x="703" d="M24 291l20 114h94l52 295h237q134 0 215 -77t81 -210q0 -186 -121 -299.5t-298 -113.5h-237l51 291h-94zM240 113h84q105 0 170.5 78t65.5 213q0 90 -39.5 136t-113.5 46h-83l-32 -181h142l-20 -114h-142z" />
<glyph unicode="&#x111;" horiz-adv-x="593" d="M67 193q0 148 77.5 246.5t184.5 98.5q79 0 118 -60l18 104h-94l18 101h94l11 61h148l-11 -61h78l-18 -101h-78l-102 -582h-148l9 49q-79 -64 -159 -64q-73 0 -109.5 56t-36.5 152zM217 207q0 -119 73 -119q50 0 94 34l50 281q-34 32 -76 32q-64 0 -102.5 -64.5 t-38.5 -163.5z" />
<glyph unicode="&#x112;" horiz-adv-x="558" d="M67 0l123 700h432l-20 -114h-278l-29 -161h258l-19 -113h-259l-35 -199h279l-20 -113h-432zM242 779l18 102h348l-18 -102h-348z" />
<glyph unicode="&#x113;" horiz-adv-x="541" d="M67 197q0 150 84.5 245.5t207.5 95.5q117 0 165 -75.5t10 -231.5h-325q-1 -12 -1 -37q0 -116 73 -116q66 0 93 81h143q-23 -81 -94 -127.5t-161 -46.5q-195 0 -195 212zM207 612l18 101h320l-18 -101h-320zM221 319h186q9 65 -8.5 97t-56.5 32q-92 0 -121 -129z" />
<glyph unicode="&#x114;" horiz-adv-x="558" d="M67 0l123 700h432l-20 -114h-278l-29 -161h258l-19 -113h-259l-35 -199h279l-20 -113h-432zM258 895h103q-4 -23 12.5 -37t54.5 -14q74 0 83 51h104q-13 -77 -73 -117t-133 -40t-118.5 40t-32.5 117z" />
<glyph unicode="&#x115;" horiz-adv-x="541" d="M67 197q0 150 84.5 245.5t207.5 95.5q117 0 165 -75.5t10 -231.5h-325q-1 -12 -1 -37q0 -116 73 -116q66 0 93 81h143q-23 -81 -94 -127.5t-161 -46.5q-195 0 -195 212zM221 319h186q9 65 -8.5 97t-56.5 32q-92 0 -121 -129zM223 748h102q-4 -28 8 -49t46 -21q33 0 53 21 t25 49h103q-15 -88 -73.5 -131.5t-125.5 -43.5q-68 0 -111 43.5t-27 131.5z" />
<glyph unicode="&#x116;" horiz-adv-x="558" d="M67 0l123 700h432l-20 -114h-278l-29 -161h258l-19 -113h-259l-35 -199h279l-20 -113h-432zM335 819q0 42 31 70t74 28q34 0 55.5 -20t21.5 -52q0 -42 -31 -70t-76 -28q-34 0 -54.5 20t-20.5 52z" />
<glyph unicode="&#x117;" horiz-adv-x="541" d="M67 197q0 150 84.5 245.5t207.5 95.5q117 0 165 -75.5t10 -231.5h-325q-1 -12 -1 -37q0 -116 73 -116q66 0 93 81h143q-23 -81 -94 -127.5t-161 -46.5q-195 0 -195 212zM221 319h186q9 65 -8.5 97t-56.5 32q-92 0 -121 -129zM284 651q0 43 31 73t75 30q34 0 54 -21 t20 -54q0 -42 -30.5 -72.5t-74.5 -30.5q-34 0 -54.5 21.5t-20.5 53.5z" />
<glyph unicode="&#x118;" horiz-adv-x="558" d="M67 0l123 700h432l-20 -114h-278l-29 -161h258l-19 -113h-259l-35 -199h279l-20 -113h-1q-132 -64 -132 -128q0 -16 10.5 -24.5t24.5 -8.5q33 0 72 17l-14 -80q-48 -24 -118 -24q-49 0 -75 24.5t-26 62.5q0 91 133 161h-306z" />
<glyph unicode="&#x119;" horiz-adv-x="541" d="M67 197q0 150 84.5 245.5t207.5 95.5q117 0 165 -75.5t10 -231.5h-325q-1 -12 -1 -37q0 -116 73 -116q66 0 93 81h143q-14 -47 -44 -82q-69 -98 -93 -138.5t-24 -66.5q0 -16 10.5 -24.5t24.5 -8.5q33 0 72 17l-13 -80q-48 -24 -119 -24q-49 0 -75 24.5t-26 62.5 q0 36 19.5 68.5t76.5 84.5q-29 -7 -64 -7q-195 0 -195 212zM221 319h186q9 65 -8.5 97t-56.5 32q-92 0 -121 -129z" />
<glyph unicode="&#x11a;" horiz-adv-x="558" d="M67 0l123 700h432l-20 -114h-278l-29 -161h258l-19 -113h-259l-35 -199h279l-20 -113h-432zM211 895h138l75 -60l98 60h142l-177 -145h-151z" />
<glyph unicode="&#x11b;" horiz-adv-x="541" d="M67 197q0 150 84.5 245.5t207.5 95.5q117 0 165 -75.5t10 -231.5h-325q-1 -12 -1 -37q0 -116 73 -116q66 0 93 81h143q-23 -81 -94 -127.5t-161 -46.5q-195 0 -195 212zM196 748h120l62 -71l86 71h125l-155 -163h-142zM221 319h186q9 65 -8.5 97t-56.5 32 q-92 0 -121 -129z" />
<glyph unicode="&#x11c;" horiz-adv-x="668" d="M78 256q0 205 106.5 332t276.5 127q112 0 174 -61.5t53 -178.5h-159q4 62 -20 94t-69 32q-65 0 -111.5 -50t-66.5 -121t-20 -153q0 -180 121 -180q28 0 63 11.5t58 29.5l20 113h-129l18 106h274l-63 -357h-145l11 61q-34 -33 -88.5 -54.5t-101.5 -21.5q-96 0 -149 72 t-53 199zM229 750l176 145h152l125 -145h-138l-76 60l-97 -60h-142z" />
<glyph unicode="&#x11d;" horiz-adv-x="592" d="M35 -39h142q-4 -53 16.5 -72t57.5 -19q90 0 109 109l75 423q-33 33 -77 33q-65 0 -103 -61t-38 -159q0 -116 76 -116q46 0 94 36l-13 -74q-79 -65 -158 -65q-74 0 -111.5 54.5t-37.5 149.5q0 147 77.5 242.5t184.5 95.5q80 0 119 -61l8 46h147l-93 -526 q-20 -112 -95 -166t-182 -54q-96 0 -151 44t-47 140zM196 585l155 163h141l96 -163h-120l-61 70l-87 -70h-124z" />
<glyph unicode="&#x11e;" horiz-adv-x="668" d="M78 256q0 205 106.5 332t276.5 127q112 0 174 -61.5t53 -178.5h-159q4 62 -20 94t-69 32q-65 0 -111.5 -50t-66.5 -121t-20 -153q0 -180 121 -180q28 0 63 11.5t58 29.5l20 113h-129l18 106h274l-63 -357h-145l11 61q-34 -33 -88.5 -54.5t-101.5 -21.5q-96 0 -149 72 t-53 199zM302 895h103q-4 -23 12.5 -37t54.5 -14q74 0 83 51h104q-13 -77 -73 -117t-133 -40t-118.5 40t-32.5 117z" />
<glyph unicode="&#x11f;" horiz-adv-x="592" d="M35 -39h142q-4 -53 16.5 -72t57.5 -19q90 0 109 109l75 423q-33 33 -77 33q-65 0 -103 -61t-38 -159q0 -116 76 -116q46 0 94 36l-13 -74q-79 -65 -158 -65q-74 0 -111.5 54.5t-37.5 149.5q0 147 77.5 242.5t184.5 95.5q80 0 119 -61l8 46h147l-93 -526 q-20 -112 -95 -166t-182 -54q-96 0 -151 44t-47 140zM252 748h102q-4 -28 8 -49t46 -21q33 0 53 21t25 49h103q-15 -88 -73.5 -131.5t-125.5 -43.5q-68 0 -111 43.5t-27 131.5z" />
<glyph unicode="&#x120;" horiz-adv-x="668" d="M78 256q0 205 106.5 332t276.5 127q112 0 174 -61.5t53 -178.5h-159q4 62 -20 94t-69 32q-65 0 -111.5 -50t-66.5 -121t-20 -153q0 -180 121 -180q28 0 63 11.5t58 29.5l20 113h-129l18 106h274l-63 -357h-145l11 61q-34 -33 -88.5 -54.5t-101.5 -21.5q-96 0 -149 72 t-53 199zM371 819q0 42 31 70t74 28q34 0 55.5 -20t21.5 -52q0 -42 -31 -70t-76 -28q-34 0 -54.5 20t-20.5 52z" />
<glyph unicode="&#x121;" horiz-adv-x="592" d="M35 -39h142q-4 -53 16.5 -72t57.5 -19q90 0 109 109l75 423q-33 33 -77 33q-65 0 -103 -61t-38 -159q0 -116 76 -116q46 0 94 36l-13 -74q-79 -65 -158 -65q-74 0 -111.5 54.5t-37.5 149.5q0 147 77.5 242.5t184.5 95.5q80 0 119 -61l8 46h147l-93 -526 q-20 -112 -95 -166t-182 -54q-96 0 -151 44t-47 140zM302 651q0 43 31 73t75 30q34 0 54 -21t20 -54q0 -42 -30.5 -72.5t-74.5 -30.5q-34 0 -54.5 21.5t-20.5 53.5z" />
<glyph unicode="&#x122;" horiz-adv-x="668" d="M78 256q0 205 106.5 332t276.5 127q112 0 174 -61.5t53 -178.5h-159q4 62 -20 94t-69 32q-65 0 -111.5 -50t-66.5 -121t-20 -153q0 -180 121 -180q28 0 63 11.5t58 29.5l20 113h-129l18 106h274l-63 -357h-145l11 61q-34 -33 -88.5 -54.5t-101.5 -21.5q-96 0 -149 72 t-53 199zM203 -248l55 195h137l-89 -195h-103z" />
<glyph unicode="&#x123;" horiz-adv-x="592" d="M35 -39h142q-4 -53 16.5 -72t57.5 -19q90 0 109 109l75 423q-33 33 -77 33q-65 0 -103 -61t-38 -159q0 -116 76 -116q46 0 94 36l-13 -74q-79 -65 -158 -65q-74 0 -111.5 54.5t-37.5 149.5q0 147 77.5 242.5t184.5 95.5q80 0 119 -61l8 46h147l-93 -526 q-20 -112 -95 -166t-182 -54q-96 0 -151 44t-47 140zM298 581l89 195h103l-55 -195h-137z" />
<glyph unicode="&#x124;" horiz-adv-x="740" d="M67 0l123 700h153l-48 -275h275l48 275h153l-123 -700h-153l55 312h-275l-55 -312h-153zM263 750l176 145h152l125 -145h-138l-76 60l-97 -60h-142z" />
<glyph unicode="&#x125;" horiz-adv-x="618" d="M41 780l176 145h152l125 -145h-138l-76 60l-97 -60h-142zM57 0l131 744h148l-56 -321l5 31q96 84 197 84q60 0 94.5 -40t18.5 -132l-64 -366h-148l61 346q14 77 -63 77q-58 0 -109 -42l-67 -381h-148z" />
<glyph unicode="&#x126;" horiz-adv-x="740" d="M67 0l86 490h-71l19 114h72l17 96h153l-17 -96h275l17 96h153l-17 -96h73l-20 -114h-73l-86 -490h-153l49 278h-275l-49 -278h-153zM289 391h275l17 99h-275z" />
<glyph unicode="&#x127;" horiz-adv-x="618" d="M57 0l102 582h-73l18 101h73l11 61h148l-11 -61h99l-18 -101h-99l-27 -159l5 31q96 84 197 84q60 0 94.5 -40t18.5 -132l-64 -366h-148l61 346q14 77 -63 77q-58 0 -109 -42l-67 -381h-148z" />
<glyph unicode="&#x128;" horiz-adv-x="312" d="M67 0l123 700h153l-123 -700h-153zM79 792q28 53 67.5 82.5t78.5 29.5q33 0 86 -20.5t66 -20.5q32 0 56 39l75 -37q-28 -54 -66.5 -83.5t-77.5 -29.5q-33 0 -86 21t-66 21q-31 0 -57 -39z" />
<glyph unicode="&#x129;" horiz-adv-x="287" d="M44 625q29 54 66.5 83t75.5 29q34 0 80 -21t59 -21q29 0 52 39l76 -37q-28 -54 -65.5 -83t-75.5 -29q-33 0 -80 21t-60 21q-26 0 -53 -40zM57 0l93 523h147l-92 -523h-148z" />
<glyph unicode="&#x12a;" horiz-adv-x="312" d="M67 0l123 700h153l-123 -700h-153zM143 779l18 102h283l-18 -102h-283z" />
<glyph unicode="&#x12b;" horiz-adv-x="287" d="M57 0l93 523h147l-92 -523h-148zM112 612l17 101h255l-17 -101h-255z" />
<glyph unicode="&#x12c;" horiz-adv-x="312" d="M67 0l123 700h153l-123 -700h-153zM127 895h103q-4 -23 12.5 -37t54.5 -14q74 0 83 51h104q-13 -77 -73 -117t-133 -40t-118.5 40t-32.5 117z" />
<glyph unicode="&#x12d;" horiz-adv-x="287" d="M57 0l93 523h147l-92 -523h-148zM95 748h102q-4 -28 8 -49t46 -21q33 0 53 21t25 49h103q-15 -88 -73.5 -131.5t-125.5 -43.5q-68 0 -111 43.5t-27 131.5z" />
<glyph unicode="&#x12e;" horiz-adv-x="312" d="M-38 -161q0 91 133 161h-28l123 700h153l-123 -700q-132 -64 -132 -128q0 -16 10.5 -24.5t24.5 -8.5q33 0 72 17l-14 -80q-48 -24 -118 -24q-49 0 -75 24.5t-26 62.5z" />
<glyph unicode="&#x12f;" horiz-adv-x="287" d="M-53 -161q0 91 133 161h-23l93 523h147l-92 -523q-132 -64 -132 -128q0 -16 10.5 -24.5t24.5 -8.5q33 0 72 17l-14 -80q-48 -24 -118 -24q-49 0 -75 24.5t-26 62.5zM162 651q0 43 30 73t72 30q34 0 52.5 -21t18.5 -54q0 -42 -30.5 -72.5t-71.5 -30.5q-34 0 -52.5 21 t-18.5 54z" />
<glyph unicode="&#x130;" horiz-adv-x="312" d="M67 0l123 700h153l-123 -700h-153zM203 819q0 42 31 70t74 28q34 0 55.5 -20t21.5 -52q0 -42 -31 -70t-76 -28q-34 0 -54.5 20t-20.5 52z" />
<glyph unicode="&#x131;" horiz-adv-x="287" d="M57 0l93 523h147l-92 -523h-148z" />
<glyph unicode="&#x132;" horiz-adv-x="902" d="M67 0l123 700h153l-123 -700h-153zM364 242h153q-11 -83 6 -115.5t61 -32.5q91 0 112 114l86 492h153l-83 -472q-21 -125 -98 -184t-189 -59q-242 0 -201 257z" />
<glyph unicode="&#x133;" horiz-adv-x="574" d="M57 0l93 523h147l-92 -523h-148zM162 651q0 43 30 73t72 30q34 0 52.5 -21t18.5 -54q0 -42 -30.5 -72.5t-71.5 -30.5q-34 0 -52.5 21t-18.5 54zM308 -208l129 731h147l-128 -731h-148zM449 651q0 43 30.5 73t71.5 30q34 0 52.5 -21t18.5 -54q0 -42 -30.5 -72.5 t-71.5 -30.5q-34 0 -52.5 21t-18.5 54z" />
<glyph unicode="&#x134;" horiz-adv-x="590" d="M52 242h153q-11 -83 6 -115.5t61 -32.5q91 0 112 114l86 492h153l-83 -472q-21 -125 -98 -184t-189 -59q-242 0 -201 257zM333 750l176 145h152l125 -145h-138l-76 60l-97 -60h-142z" />
<glyph unicode="&#x135;" horiz-adv-x="287" d="M21 -208l129 731h147l-128 -731h-148zM39 585l155 163h141l96 -163h-120l-61 70l-87 -70h-124z" />
<glyph unicode="&#x136;" horiz-adv-x="645" d="M67 0l123 700h153l-55 -312l262 312h154l-280 -330l196 -370h-169l-171 343l-60 -343h-153zM168 -248l55 195h137l-89 -195h-103z" />
<glyph unicode="&#x137;" horiz-adv-x="554" d="M57 0l131 744h148l-79 -447l199 226h153l-222 -240l145 -283h-161l-122 252l-44 -252h-148zM126 -248l55 195h137l-89 -195h-103z" />
<glyph unicode="&#x138;" horiz-adv-x="554" d="M57 0l93 523h147l-40 -226l199 226h153l-222 -240l145 -283h-161l-122 252l-44 -252h-148z" />
<glyph unicode="&#x139;" horiz-adv-x="511" d="M67 0l123 700h153l-103 -587h251l-20 -113h-404zM158 750l153 145h197l-220 -145h-130z" />
<glyph unicode="&#x13a;" horiz-adv-x="287" d="M57 0l131 744h148l-131 -744h-148zM148 780l153 145h197l-220 -145h-130z" />
<glyph unicode="&#x13b;" horiz-adv-x="511" d="M67 0l123 700h153l-103 -587h251l-20 -113h-404zM130 -248l55 195h137l-89 -195h-103z" />
<glyph unicode="&#x13c;" horiz-adv-x="287" d="M5 -248l55 195h137l-89 -195h-103zM57 0l131 744h148l-131 -744h-148z" />
<glyph unicode="&#x13d;" horiz-adv-x="511" d="M67 0l123 700h153l-103 -587h251l-20 -113h-404zM372 568l42 235h132l-70 -235h-104z" />
<glyph unicode="&#x13e;" horiz-adv-x="287" d="M57 0l131 744h148l-131 -744h-148zM365 568l42 235h132l-70 -235h-104z" />
<glyph unicode="&#x13f;" horiz-adv-x="511" d="M67 0l123 700h153l-103 -587h251l-20 -113h-404zM335 351q0 43 31 73.5t76 30.5q35 0 55.5 -21t20.5 -55q0 -43 -31.5 -73.5t-75.5 -30.5q-35 0 -55.5 21t-20.5 55z" />
<glyph unicode="&#x140;" horiz-adv-x="404" d="M57 0l131 744h148l-131 -744h-148zM307 351q0 43 31 73.5t76 30.5q35 0 55.5 -21t20.5 -55q0 -43 -31.5 -73.5t-75.5 -30.5q-35 0 -55.5 21t-20.5 55z" />
<glyph unicode="&#x141;" horiz-adv-x="511" d="M11 187l22 131l99 52l58 330h153l-42 -241l148 78l-24 -131l-147 -78l-38 -215h251l-20 -113h-404l42 239z" />
<glyph unicode="&#x142;" horiz-adv-x="287" d="M18 231l19 111l88 47l63 355h148l-47 -269l96 51l-19 -111l-97 -51l-64 -364h-148l49 277z" />
<glyph unicode="&#x143;" horiz-adv-x="723" d="M67 0l123 700h137l208 -468l30 191l49 277h139l-123 -700h-137l-207 467l-31 -191l-48 -276h-140zM356 750l153 145h197l-220 -145h-130z" />
<glyph unicode="&#x144;" horiz-adv-x="611" d="M57 0l93 523h147l-23 -132l11 63q96 84 197 84q60 0 94.5 -40t18.5 -132l-64 -366h-148l61 346q14 77 -63 77q-58 0 -109 -42l-67 -381h-148zM265 585l130 163h183l-190 -163h-123z" />
<glyph unicode="&#x145;" horiz-adv-x="723" d="M67 0l123 700h137l208 -468l30 191l49 277h139l-123 -700h-137l-207 467l-31 -191l-48 -276h-140zM223 -248l55 195h137l-89 -195h-103z" />
<glyph unicode="&#x146;" horiz-adv-x="611" d="M57 0l93 523h147l-23 -132l11 63q96 84 197 84q60 0 94.5 -40t18.5 -132l-64 -366h-148l61 346q14 77 -63 77q-58 0 -109 -42l-67 -381h-148zM161 -248l55 195h137l-89 -195h-103z" />
<glyph unicode="&#x147;" horiz-adv-x="723" d="M67 0l123 700h137l208 -468l30 191l49 277h139l-123 -700h-137l-207 467l-31 -191l-48 -276h-140zM280 895h138l75 -60l98 60h142l-177 -145h-151z" />
<glyph unicode="&#x148;" horiz-adv-x="611" d="M57 0l93 523h147l-23 -132l11 63q96 84 197 84q60 0 94.5 -40t18.5 -132l-64 -366h-148l61 346q14 77 -63 77q-58 0 -109 -42l-67 -381h-148zM219 748h120l62 -71l86 71h125l-155 -163h-142z" />
<glyph unicode="&#x14a;" horiz-adv-x="723" d="M67 0l123 700h137l208 -468l30 191l49 277h139l-123 -700q-39 -223 -262 -223q-53 0 -88 20l19 102q39 -13 88 -13q89 0 109 109l-210 472l-31 -191l-48 -276h-140z" />
<glyph unicode="&#x14b;" horiz-adv-x="611" d="M57 0l93 523h147l-23 -132l11 63q96 84 197 84q60 0 94.5 -40t18.5 -132l-101 -574h-148l98 554q14 77 -63 77q-58 0 -109 -42l-67 -381h-148z" />
<glyph unicode="&#x14c;" horiz-adv-x="717" d="M78 277q0 193 109 315.5t285 122.5q128 0 196.5 -78.5t68.5 -213.5q0 -193 -109 -315.5t-285 -122.5q-128 0 -196.5 78.5t-68.5 213.5zM239 276q0 -82 32 -130t94 -48q57 0 100 31.5t66 82.5t34 104.5t11 107.5q0 81 -32 129t-93 48q-57 0 -100 -31.5t-66.5 -82 t-34.5 -104t-11 -107.5zM309 779l18 102h348l-18 -102h-348z" />
<glyph unicode="&#x14d;" horiz-adv-x="578" d="M67 206q0 146 84.5 239t219.5 93q97 0 152.5 -59.5t55.5 -160.5q0 -146 -85 -239.5t-220 -93.5q-97 0 -152 59.5t-55 161.5zM215 199q0 -57 19.5 -89t57.5 -32q61 0 100 65.5t39 180.5q0 57 -20 89t-57 32q-62 0 -100.5 -65.5t-38.5 -180.5zM224 612l18 101h320l-18 -101 h-320z" />
<glyph unicode="&#x14e;" horiz-adv-x="717" d="M78 277q0 193 109 315.5t285 122.5q128 0 196.5 -78.5t68.5 -213.5q0 -193 -109 -315.5t-285 -122.5q-128 0 -196.5 78.5t-68.5 213.5zM239 276q0 -82 32 -130t94 -48q57 0 100 31.5t66 82.5t34 104.5t11 107.5q0 81 -32 129t-93 48q-57 0 -100 -31.5t-66.5 -82 t-34.5 -104t-11 -107.5zM325 895h103q-4 -23 12.5 -37t54.5 -14q74 0 83 51h104q-13 -77 -73 -117t-133 -40t-118.5 40t-32.5 117z" />
<glyph unicode="&#x14f;" horiz-adv-x="578" d="M67 206q0 146 84.5 239t219.5 93q97 0 152.5 -59.5t55.5 -160.5q0 -146 -85 -239.5t-220 -93.5q-97 0 -152 59.5t-55 161.5zM215 199q0 -57 19.5 -89t57.5 -32q61 0 100 65.5t39 180.5q0 57 -20 89t-57 32q-62 0 -100.5 -65.5t-38.5 -180.5zM240 748h102q-4 -28 8 -49 t46 -21q33 0 53 21t25 49h103q-15 -88 -73.5 -131.5t-125.5 -43.5q-68 0 -111 43.5t-27 131.5z" />
<glyph unicode="&#x150;" horiz-adv-x="717" d="M78 277q0 193 109 315.5t285 122.5q128 0 196.5 -78.5t68.5 -213.5q0 -193 -109 -315.5t-285 -122.5q-128 0 -196.5 78.5t-68.5 213.5zM239 276q0 -82 32 -130t94 -48q57 0 100 31.5t66 82.5t34 104.5t11 107.5q0 81 -32 129t-93 48q-57 0 -100 -31.5t-66.5 -82 t-34.5 -104t-11 -107.5zM268 750l130 145h176l-189 -145h-117zM483 750l129 145h176l-189 -145h-116z" />
<glyph unicode="&#x151;" horiz-adv-x="578" d="M67 206q0 146 84.5 239t219.5 93q97 0 152.5 -59.5t55.5 -160.5q0 -146 -85 -239.5t-220 -93.5q-97 0 -152 59.5t-55 161.5zM190 585l110 163h177l-172 -163h-115zM215 199q0 -57 19.5 -89t57.5 -32q61 0 100 65.5t39 180.5q0 57 -20 89t-57 32q-62 0 -100.5 -65.5 t-38.5 -180.5zM400 585l111 163h176l-172 -163h-115z" />
<glyph unicode="&#x152;" horiz-adv-x="938" d="M78 287q0 187 118.5 300t300.5 113h504l-19 -114h-278l-29 -161h258l-19 -113h-259l-35 -199h279l-21 -113h-504q-138 0 -217 76t-79 211zM241 296q0 -86 40.5 -134.5t112.5 -48.5h73l84 473h-74q-105 0 -170.5 -79.5t-65.5 -210.5z" />
<glyph unicode="&#x153;" horiz-adv-x="898" d="M67 206q0 146 84.5 239t219.5 93q118 0 162 -79q76 79 182 79q117 0 165 -75.5t10 -231.5h-325q-1 -12 -1 -37q0 -116 73 -116q66 0 93 81h143q-23 -81 -93.5 -127.5t-160.5 -46.5q-117 0 -159 75q-72 -75 -186 -75q-97 0 -152 59.5t-55 161.5zM215 199q0 -57 19.5 -89 t57.5 -32q57 0 98 66.5t41 179.5q0 57 -20 89t-57 32q-57 0 -98 -66.5t-41 -179.5zM577 319h186q9 65 -8.5 97t-56.5 32q-44 0 -75 -33t-46 -96z" />
<glyph unicode="&#x154;" horiz-adv-x="621" d="M67 0l123 700h234q98 0 161.5 -47t63.5 -142t-50 -156t-132 -87l131 -268h-165l-106 250h-63l-44 -250h-153zM273 750l153 145h197l-220 -145h-130zM283 358h82q52 0 90.5 36t38.5 103q0 44 -25 68.5t-63 24.5h-81z" />
<glyph unicode="&#x155;" horiz-adv-x="440" d="M57 0l93 523h147l-21 -121l4 24q37 53 80.5 82.5t82.5 29.5q35 0 60 -20l-23 -128q-35 16 -72 16q-40 0 -80 -18.5t-63 -45.5l-60 -342h-148zM191 585l130 163h183l-190 -163h-123z" />
<glyph unicode="&#x156;" horiz-adv-x="621" d="M67 0l123 700h234q98 0 161.5 -47t63.5 -142t-50 -156t-132 -87l131 -268h-165l-106 250h-63l-44 -250h-153zM175 -248l55 195h137l-89 -195h-103zM283 358h82q52 0 90.5 36t38.5 103q0 44 -25 68.5t-63 24.5h-81z" />
<glyph unicode="&#x157;" horiz-adv-x="440" d="M-2 -248l55 195h137l-89 -195h-103zM57 0l93 523h147l-21 -121l4 24q37 53 80.5 82.5t82.5 29.5q35 0 60 -20l-23 -128q-35 16 -72 16q-40 0 -80 -18.5t-63 -45.5l-60 -342h-148z" />
<glyph unicode="&#x158;" horiz-adv-x="621" d="M67 0l123 700h234q98 0 161.5 -47t63.5 -142t-50 -156t-132 -87l131 -268h-165l-106 250h-63l-44 -250h-153zM212 895h138l75 -60l98 60h142l-177 -145h-151zM283 358h82q52 0 90.5 36t38.5 103q0 44 -25 68.5t-63 24.5h-81z" />
<glyph unicode="&#x159;" horiz-adv-x="440" d="M57 0l93 523h147l-21 -121l4 24q37 53 80.5 82.5t82.5 29.5q35 0 60 -20l-23 -128q-35 16 -72 16q-40 0 -80 -18.5t-63 -45.5l-60 -342h-148zM154 748h120l62 -71l86 71h125l-155 -163h-142z" />
<glyph unicode="&#x15a;" horiz-adv-x="605" d="M69 215h156q-6 -63 23 -91.5t78 -28.5q57 0 92.5 26.5t35.5 78.5q0 19 -9 33.5t-19.5 23t-35.5 17.5t-38 12t-46 11q-39 9 -68.5 21.5t-58.5 33t-45 53t-16 74.5q0 107 83.5 171.5t211.5 64.5q114 0 176.5 -56.5t52.5 -164.5h-157q5 57 -20.5 84t-72.5 27 q-55 0 -87.5 -25t-32.5 -75q0 -18 8 -32t19.5 -23t31.5 -16.5t37 -12t43 -10.5q6 -1 9 -2q40 -10 69 -21t59 -31t46 -51.5t16 -73.5q0 -107 -91.5 -177t-213.5 -70q-118 0 -184.5 58t-51.5 172zM285 750l153 145h197l-220 -145h-130z" />
<glyph unicode="&#x15b;" horiz-adv-x="516" d="M57 158h140q-4 -82 80 -82q37 0 62.5 17t25.5 51q0 13 -6.5 23.5t-13.5 16.5t-24.5 11.5t-27.5 8t-34 7.5q-37 8 -59 15.5t-50.5 23t-42.5 41t-14 61.5q0 86 69.5 136t170.5 50q92 0 145 -41.5t46 -118.5h-140q2 69 -69 69q-34 0 -59 -16t-25 -47q0 -21 17.5 -34.5 t32.5 -18t53 -12.5q5 -1 8 -2q29 -6 46.5 -10.5t42 -15.5t38.5 -24t24 -35t10 -51q0 -87 -70.5 -141.5t-174.5 -54.5q-96 0 -152.5 45t-48.5 128zM220 585l130 163h183l-190 -163h-123z" />
<glyph unicode="&#x15c;" horiz-adv-x="605" d="M69 215h156q-6 -63 23 -91.5t78 -28.5q57 0 92.5 26.5t35.5 78.5q0 19 -9 33.5t-19.5 23t-35.5 17.5t-38 12t-46 11q-39 9 -68.5 21.5t-58.5 33t-45 53t-16 74.5q0 107 83.5 171.5t211.5 64.5q114 0 176.5 -56.5t52.5 -164.5h-157q5 57 -20.5 84t-72.5 27 q-55 0 -87.5 -25t-32.5 -75q0 -18 8 -32t19.5 -23t31.5 -16.5t37 -12t43 -10.5q6 -1 9 -2q40 -10 69 -21t59 -31t46 -51.5t16 -73.5q0 -107 -91.5 -177t-213.5 -70q-118 0 -184.5 58t-51.5 172zM203 750l176 145h152l125 -145h-138l-76 60l-97 -60h-142z" />
<glyph unicode="&#x15d;" horiz-adv-x="516" d="M57 158h140q-4 -82 80 -82q37 0 62.5 17t25.5 51q0 13 -6.5 23.5t-13.5 16.5t-24.5 11.5t-27.5 8t-34 7.5q-37 8 -59 15.5t-50.5 23t-42.5 41t-14 61.5q0 86 69.5 136t170.5 50q92 0 145 -41.5t46 -118.5h-140q2 69 -69 69q-34 0 -59 -16t-25 -47q0 -21 17.5 -34.5 t32.5 -18t53 -12.5q5 -1 8 -2q29 -6 46.5 -10.5t42 -15.5t38.5 -24t24 -35t10 -51q0 -87 -70.5 -141.5t-174.5 -54.5q-96 0 -152.5 45t-48.5 128zM149 585l155 163h141l96 -163h-120l-61 70l-87 -70h-124z" />
<glyph unicode="&#x15e;" horiz-adv-x="605" d="M69 215h156q-6 -63 23 -91.5t78 -28.5q57 0 92.5 26.5t35.5 78.5q0 19 -9 33.5t-19.5 23t-35.5 17.5t-38 12t-46 11q-39 9 -68.5 21.5t-58.5 33t-45 53t-16 74.5q0 107 83.5 171.5t211.5 64.5q114 0 176.5 -56.5t52.5 -164.5h-157q5 57 -20.5 84t-72.5 27 q-55 0 -87.5 -25t-32.5 -75q0 -18 8 -32t19.5 -23t31.5 -16.5t37 -12t43 -10.5q6 -1 9 -2q40 -10 69 -21t59 -31t46 -51.5t16 -73.5q0 -100 -82 -168.5t-196 -77.5l-44 -49q41 2 70 -16t29 -55q0 -55 -47 -84.5t-113 -29.5q-40 0 -69 15l11 63q26 -13 61 -13q19 0 34 8.5 t15 26.5q0 25 -38 25q-19 0 -36 -5l-18 44l67 72q-95 12 -146.5 69t-38.5 158z" />
<glyph unicode="&#x15f;" horiz-adv-x="516" d="M57 158h140q-4 -82 80 -82q37 0 62.5 17t25.5 51q0 13 -6.5 23.5t-13.5 16.5t-24.5 11.5t-27.5 8t-34 7.5q-37 8 -59 15.5t-50.5 23t-42.5 41t-14 61.5q0 86 69.5 136t170.5 50q92 0 145 -41.5t46 -118.5h-140q2 69 -69 69q-34 0 -59 -16t-25 -47q0 -21 17.5 -34.5 t32.5 -18t53 -12.5q5 -1 8 -2q29 -6 46.5 -10.5t42 -15.5t38.5 -24t24 -35t10 -51q0 -84 -64.5 -137.5t-162.5 -58.5l-44 -48q41 2 70 -16t29 -55q0 -55 -47 -84.5t-113 -29.5q-40 0 -69 15l11 63q26 -13 61 -13q19 0 34 8.5t15 26.5q0 25 -38 25q-19 0 -36 -5l-18 44l69 74 q-72 12 -111 55.5t-32 112.5z" />
<glyph unicode="&#x160;" horiz-adv-x="605" d="M69 215h156q-6 -63 23 -91.5t78 -28.5q57 0 92.5 26.5t35.5 78.5q0 19 -9 33.5t-19.5 23t-35.5 17.5t-38 12t-46 11q-39 9 -68.5 21.5t-58.5 33t-45 53t-16 74.5q0 107 83.5 171.5t211.5 64.5q114 0 176.5 -56.5t52.5 -164.5h-157q5 57 -20.5 84t-72.5 27 q-55 0 -87.5 -25t-32.5 -75q0 -18 8 -32t19.5 -23t31.5 -16.5t37 -12t43 -10.5q6 -1 9 -2q40 -10 69 -21t59 -31t46 -51.5t16 -73.5q0 -107 -91.5 -177t-213.5 -70q-118 0 -184.5 58t-51.5 172zM219 895h138l75 -60l98 60h142l-177 -145h-151z" />
<glyph unicode="&#x161;" horiz-adv-x="516" d="M57 158h140q-4 -82 80 -82q37 0 62.5 17t25.5 51q0 13 -6.5 23.5t-13.5 16.5t-24.5 11.5t-27.5 8t-34 7.5q-37 8 -59 15.5t-50.5 23t-42.5 41t-14 61.5q0 86 69.5 136t170.5 50q92 0 145 -41.5t46 -118.5h-140q2 69 -69 69q-34 0 -59 -16t-25 -47q0 -21 17.5 -34.5 t32.5 -18t53 -12.5q5 -1 8 -2q29 -6 46.5 -10.5t42 -15.5t38.5 -24t24 -35t10 -51q0 -87 -70.5 -141.5t-174.5 -54.5q-96 0 -152.5 45t-48.5 128zM176 748h120l62 -71l86 71h125l-155 -163h-142z" />
<glyph unicode="&#x162;" horiz-adv-x="540" d="M110 586l20 114h500l-19 -114h-174l-104 -586h-30l-57 -63q41 2 70 -16t29 -55q0 -55 -47 -84.5t-113 -29.5q-40 0 -69 15l11 63q26 -13 61 -13q19 0 34 8.5t15 26.5q0 25 -38 25q-19 0 -36 -5l-18 44l78 84h-42l103 586h-174z" />
<glyph unicode="&#x163;" horiz-adv-x="394" d="M61 -233l11 63q26 -13 61 -13q19 0 34 8.5t15 26.5q0 25 -38 25q-19 0 -36 -5l-18 44l75 81q-83 33 -61 154l48 275h-82l17 97h82l24 137h147l-24 -137h128l-16 -97h-129l-45 -260q-16 -85 47 -85q27 0 70 12l-16 -86q-51 -22 -117 -22h-4l-43 -48q41 2 70 -16t29 -55 q0 -55 -47 -84.5t-113 -29.5q-40 0 -69 15z" />
<glyph unicode="&#x164;" horiz-adv-x="540" d="M110 586l20 114h500l-19 -114h-174l-104 -586h-152l103 586h-174zM193 895h138l75 -60l98 60h142l-177 -145h-151z" />
<glyph unicode="&#x165;" horiz-adv-x="394" d="M70 426l17 97h82l24 137h147l-24 -137h128l-16 -97h-129l-45 -260q-16 -85 47 -85q27 0 70 12l-16 -86q-51 -22 -117 -22q-75 0 -112.5 39.5t-21.5 126.5l48 275h-82zM382 568l42 235h132l-70 -235h-104z" />
<glyph unicode="&#x166;" horiz-adv-x="540" d="M110 586l20 114h500l-19 -114h-174l-32 -181h125l-20 -114h-125l-52 -291h-152l51 291h-110l20 114h110l32 181h-174z" />
<glyph unicode="&#x167;" horiz-adv-x="394" d="M53 237l18 101h66l15 88h-82l17 97h82l24 137h147l-24 -137h128l-16 -97h-129l-15 -88h107l-18 -101h-107l-12 -71q-16 -85 47 -85q27 0 70 12l-16 -86q-51 -22 -117 -22q-75 0 -112.5 39.5t-21.5 126.5l15 86h-66z" />
<glyph unicode="&#x168;" horiz-adv-x="717" d="M106 234l82 466h153l-79 -446q-14 -80 12 -118t95 -38q134 0 157 136l82 466h139l-78 -446q-24 -134 -108.5 -201.5t-212.5 -67.5q-131 0 -197.5 62t-44.5 187zM276 792q28 53 67.5 82.5t78.5 29.5q34 0 87 -20.5t65 -20.5q32 0 56 39l75 -37q-28 -54 -66.5 -83.5 t-77.5 -29.5q-33 0 -86 21t-66 21q-31 0 -57 -39z" />
<glyph unicode="&#x169;" horiz-adv-x="607" d="M85 158l65 365h147l-61 -345q-14 -78 61 -78q55 0 106 42l67 381h148l-93 -523h-147l23 132l-11 -63q-98 -84 -195 -84q-60 0 -93 40t-17 133zM203 625q29 54 66.5 83t75.5 29q33 0 79.5 -21t59.5 -21q29 0 52 39l76 -37q-28 -54 -65.5 -83t-75.5 -29q-33 0 -80 21 t-60 21q-25 0 -53 -40z" />
<glyph unicode="&#x16a;" horiz-adv-x="717" d="M106 234l82 466h153l-79 -446q-14 -80 12 -118t95 -38q134 0 157 136l82 466h139l-78 -446q-24 -134 -108.5 -201.5t-212.5 -67.5q-131 0 -197.5 62t-44.5 187zM308 779l18 102h348l-18 -102h-348z" />
<glyph unicode="&#x16b;" horiz-adv-x="607" d="M85 158l65 365h147l-61 -345q-14 -78 61 -78q55 0 106 42l67 381h148l-93 -523h-147l23 132l-11 -63q-98 -84 -195 -84q-60 0 -93 40t-17 133zM239 612l18 101h320l-18 -101h-320z" />
<glyph unicode="&#x16c;" horiz-adv-x="717" d="M106 234l82 466h153l-79 -446q-14 -80 12 -118t95 -38q134 0 157 136l82 466h139l-78 -446q-24 -134 -108.5 -201.5t-212.5 -67.5q-131 0 -197.5 62t-44.5 187zM324 895h103q-4 -23 12.5 -37t54.5 -14q74 0 83 51h104q-13 -77 -73 -117t-133 -40t-118.5 40t-32.5 117z " />
<glyph unicode="&#x16d;" horiz-adv-x="607" d="M85 158l65 365h147l-61 -345q-14 -78 61 -78q55 0 106 42l67 381h148l-93 -523h-147l23 132l-11 -63q-98 -84 -195 -84q-60 0 -93 40t-17 133zM254 748h102q-4 -28 8 -49t46 -21q33 0 53 21t25 49h103q-15 -88 -73.5 -131.5t-125.5 -43.5q-68 0 -111 43.5t-27 131.5z" />
<glyph unicode="&#x16e;" horiz-adv-x="717" d="M106 234l82 466h153l-79 -446q-14 -80 12 -118t95 -38q134 0 157 136l82 466h139l-78 -446q-24 -134 -108.5 -201.5t-212.5 -67.5q-131 0 -197.5 62t-44.5 187zM357 809q0 51 44.5 85t105.5 34q51 0 83 -25t32 -66q0 -51 -44.5 -85t-106.5 -34q-51 0 -82.5 25t-31.5 66z M460 831q-15 -25 11 -41q16 -4 29.5 3.5t18.5 21.5q15 25 -12 40q-15 5 -28.5 -2t-18.5 -22z" />
<glyph unicode="&#x16f;" horiz-adv-x="607" d="M85 158l65 365h147l-61 -345q-14 -78 61 -78q55 0 106 42l67 381h148l-93 -523h-147l23 132l-11 -63q-98 -84 -195 -84q-60 0 -93 40t-17 133zM274 650q0 52 44 83.5t107 31.5q51 0 83 -23.5t32 -64.5q0 -51 -44 -82.5t-107 -31.5q-51 0 -83 23.5t-32 63.5zM374.5 652.5 q3.5 -10.5 15.5 -17.5q15 -4 28.5 2t18.5 18q14 22 -13 38q-15 4 -28.5 -2t-18.5 -19q-6 -9 -2.5 -19.5z" />
<glyph unicode="&#x170;" horiz-adv-x="717" d="M106 234l82 466h153l-79 -446q-14 -80 12 -118t95 -38q134 0 157 136l82 466h139l-78 -446q-24 -134 -108.5 -201.5t-212.5 -67.5q-131 0 -197.5 62t-44.5 187zM267 750l130 145h176l-189 -145h-117zM482 750l129 145h176l-189 -145h-116z" />
<glyph unicode="&#x171;" horiz-adv-x="607" d="M85 158l65 365h147l-61 -345q-14 -78 61 -78q55 0 106 42l67 381h148l-93 -523h-147l23 132l-11 -63q-98 -84 -195 -84q-60 0 -93 40t-17 133zM197 585l110 163h177l-172 -163h-115zM407 585l111 163h176l-172 -163h-115z" />
<glyph unicode="&#x172;" horiz-adv-x="717" d="M106 234l82 466h153l-79 -446q-14 -80 12 -118t95 -38q134 0 157 136l82 466h139l-78 -446q-19 -108 -77.5 -172.5t-148.5 -85.5q-123 -63 -123 -124q0 -16 10.5 -24.5t24.5 -8.5q33 0 72 17l-14 -80q-48 -24 -118 -24q-49 0 -75 24.5t-26 62.5q0 84 110 148 q-110 10 -163.5 71.5t-34.5 175.5z" />
<glyph unicode="&#x173;" horiz-adv-x="607" d="M85 158l65 365h147l-61 -345q-14 -78 61 -78q55 0 106 42l67 381h148l-93 -523h-1q-132 -64 -132 -128q0 -16 10.5 -24.5t24.5 -8.5q33 0 72 17l-14 -80q-48 -24 -118 -24q-49 0 -75 24.5t-26 62.5q0 91 133 161h-21l23 132l-11 -63q-98 -84 -195 -84q-60 0 -93 40 t-17 133z" />
<glyph unicode="&#x174;" horiz-adv-x="927" d="M108 700h155l16 -321l6 -201l77 201l132 321h158l21 -321l8 -202l75 202l126 321h148l-307 -700h-160l-21 288l-7 202l-79 -202l-123 -288h-159zM352 750l176 145h152l125 -145h-138l-76 60l-97 -60h-142z" />
<glyph unicode="&#x175;" horiz-adv-x="794" d="M73 523h143l15 -173l9 -194l84 194l79 173h132l19 -173l19 -194l79 194l74 173h138l-253 -524h-138l-17 158l-16 193l-85 -193l-72 -157h-142zM283 585l155 163h141l96 -163h-120l-61 70l-87 -70h-124z" />
<glyph unicode="&#x176;" horiz-adv-x="583" d="M113 700h156l90 -303l184 303h146l-282 -430l-47 -270h-153l48 270zM187 750l176 145h152l125 -145h-138l-76 60l-97 -60h-142z" />
<glyph unicode="&#x177;" horiz-adv-x="504" d="M59 -208l112 209l-98 522h152l22 -154l19 -193l90 193l77 154h141l-386 -731h-129zM148 585l155 163h141l96 -163h-120l-61 70l-87 -70h-124z" />
<glyph unicode="&#x178;" horiz-adv-x="583" d="M113 700h156l90 -303l184 303h146l-282 -430l-47 -270h-153l48 270zM229 821q0 40 29 66.5t71 26.5q33 0 53 -18.5t20 -49.5q0 -41 -29 -67.5t-72 -26.5q-32 0 -52 19t-20 50zM454 820q0 41 29 67.5t72 26.5q32 0 52 -19t20 -50q0 -40 -29.5 -66.5t-70.5 -26.5 q-33 0 -53 19t-20 49z" />
<glyph unicode="&#x179;" horiz-adv-x="542" d="M32 0l21 113l374 473h-288l19 114h464l-19 -114l-374 -473h291l-21 -113h-467zM280 750l153 145h197l-220 -145h-130z" />
<glyph unicode="&#x17a;" horiz-adv-x="472" d="M32 0l17 97l287 329h-218l17 97h380l-17 -97l-286 -329h227l-17 -97h-390zM230 585l130 163h183l-190 -163h-123z" />
<glyph unicode="&#x17b;" horiz-adv-x="542" d="M32 0l21 113l374 473h-288l19 114h464l-19 -114l-374 -473h291l-21 -113h-467zM326 819q0 42 31 70t74 28q34 0 55.5 -20t21.5 -52q0 -42 -31 -70t-76 -28q-34 0 -54.5 20t-20.5 52z" />
<glyph unicode="&#x17c;" horiz-adv-x="472" d="M32 0l17 97l287 329h-218l17 97h380l-17 -97l-286 -329h227l-17 -97h-390zM258 651q0 43 31 73t75 30q34 0 54 -21t20 -54q0 -42 -30.5 -72.5t-74.5 -30.5q-34 0 -54.5 21.5t-20.5 53.5z" />
<glyph unicode="&#x17d;" horiz-adv-x="542" d="M32 0l21 113l374 473h-288l19 114h464l-19 -114l-374 -473h291l-21 -113h-467zM202 895h138l75 -60l98 60h142l-177 -145h-151z" />
<glyph unicode="&#x17e;" horiz-adv-x="472" d="M32 0l17 97l287 329h-218l17 97h380l-17 -97l-286 -329h227l-17 -97h-390zM175 748h120l62 -71l86 71h125l-155 -163h-142z" />
<glyph unicode="&#x17f;" horiz-adv-x="322" d="M65 0l102 578q16 90 73.5 135.5t137.5 45.5q64 0 100 -18l-15 -86q-34 8 -64 8q-69 0 -85 -84l-102 -579h-147z" />
<glyph unicode="&#x192;" horiz-adv-x="665" d="M-71 -24h157q-6 -89 60 -89q72 0 88 91l36 204h-156l20 114h156l36 203q18 100 90 158t173 58q218 0 198 -199h-157q4 89 -61 89q-32 0 -55.5 -22t-31.5 -69l-38 -218h156l-21 -114h-156l-33 -189q-18 -100 -90 -158t-172 -58q-110 0 -160 50.5t-39 148.5z" />
<glyph unicode="&#x1fc;" horiz-adv-x="964" d="M-5 0l594 700h438l-19 -114h-278l-29 -159h259l-20 -117h-259l-35 -197h279l-21 -113h-431l28 160h-209l-126 -160h-171zM380 271h141l41 231zM602 750l153 145h197l-220 -145h-130z" />
<glyph unicode="&#x1fd;" horiz-adv-x="868" d="M47 103q0 84 73.5 140t212.5 56q18 0 66 -4l10 54q16 96 -63 96q-36 0 -64 -23t-38 -76h-143q10 64 52.5 108.5t96.5 64t114 19.5q110 0 154 -60q75 60 167 60q117 0 165 -75.5t10 -231.5h-325q-1 -12 -1 -37q0 -116 73 -116q66 0 93 81h143q-23 -81 -93.5 -127.5 t-160.5 -46.5q-131 0 -177 88q-116 -88 -233 -88q-62 0 -97 32t-35 86zM198 139q0 -49 65 -49q57 0 125 53q-4 37 -1 71q-40 4 -60 4q-58 0 -93.5 -20.5t-35.5 -58.5zM394 585l130 163h183l-190 -163h-123zM547 319h186q9 65 -8.5 97t-56.5 32q-44 0 -75 -33t-46 -96z" />
<glyph unicode="&#x218;" horiz-adv-x="605" d="M69 215h156q-6 -63 23 -91.5t78 -28.5q57 0 92.5 26.5t35.5 78.5q0 19 -9 33.5t-19.5 23t-35.5 17.5t-38 12t-46 11q-39 9 -68.5 21.5t-58.5 33t-45 53t-16 74.5q0 107 83.5 171.5t211.5 64.5q114 0 176.5 -56.5t52.5 -164.5h-157q5 57 -20.5 84t-72.5 27 q-55 0 -87.5 -25t-32.5 -75q0 -18 8 -32t19.5 -23t31.5 -16.5t37 -12t43 -10.5q6 -1 9 -2q40 -10 69 -21t59 -31t46 -51.5t16 -73.5q0 -107 -91.5 -177t-213.5 -70q-118 0 -184.5 58t-51.5 172zM173 -248l55 195h137l-89 -195h-103z" />
<glyph unicode="&#x219;" horiz-adv-x="516" d="M57 158h140q-4 -82 80 -82q37 0 62.5 17t25.5 51q0 13 -6.5 23.5t-13.5 16.5t-24.5 11.5t-27.5 8t-34 7.5q-37 8 -59 15.5t-50.5 23t-42.5 41t-14 61.5q0 86 69.5 136t170.5 50q92 0 145 -41.5t46 -118.5h-140q2 69 -69 69q-34 0 -59 -16t-25 -47q0 -21 17.5 -34.5 t32.5 -18t53 -12.5q5 -1 8 -2q29 -6 46.5 -10.5t42 -15.5t38.5 -24t24 -35t10 -51q0 -87 -70.5 -141.5t-174.5 -54.5q-96 0 -152.5 45t-48.5 128zM127 -248l55 195h137l-89 -195h-103z" />
<glyph unicode="&#x21a;" horiz-adv-x="540" d="M110 586l20 114h500l-19 -114h-174l-104 -586h-152l103 586h-174zM128 -248l55 195h137l-89 -195h-103z" />
<glyph unicode="&#x21b;" horiz-adv-x="394" d="M70 426l17 97h82l24 137h147l-24 -137h128l-16 -97h-129l-45 -260q-16 -85 47 -85q27 0 70 12l-16 -86q-51 -22 -117 -22q-75 0 -112.5 39.5t-21.5 126.5l48 275h-82zM71 -248l55 195h137l-89 -195h-103z" />
<glyph unicode="&#x2c6;" horiz-adv-x="493" d="M153 585l155 163h141l96 -163h-120l-61 70l-87 -70h-124z" />
<glyph unicode="&#x2c7;" horiz-adv-x="493" d="M182 748h120l62 -71l86 71h125l-155 -163h-142z" />
<glyph unicode="&#x2d8;" horiz-adv-x="437" d="M182 748h102q-4 -28 8 -49t46 -21q33 0 53 21t25 49h103q-15 -88 -73.5 -131.5t-125.5 -43.5q-68 0 -111 43.5t-27 131.5z" />
<glyph unicode="&#x2d9;" horiz-adv-x="278" d="M166 651q0 43 31 73t75 30q34 0 54 -21t20 -54q0 -42 -30.5 -72.5t-74.5 -30.5q-34 0 -54.5 21.5t-20.5 53.5z" />
<glyph unicode="&#x2da;" horiz-adv-x="362" d="M165 650q0 52 44 83.5t107 31.5q51 0 83 -23.5t32 -64.5q0 -51 -44 -82.5t-107 -31.5q-51 0 -83 23.5t-32 63.5zM265.5 652.5q3.5 -10.5 15.5 -17.5q15 -4 28.5 2t18.5 18q14 22 -13 38q-15 4 -28.5 -2t-18.5 -19q-6 -9 -2.5 -19.5z" />
<glyph unicode="&#x2db;" horiz-adv-x="331" d="M23 -161q0 91 133 161h125q-132 -64 -132 -128q0 -16 10.5 -24.5t24.5 -8.5q33 0 72 17l-14 -80q-48 -24 -118 -24q-49 0 -75 24.5t-26 62.5z" />
<glyph unicode="&#x2dc;" horiz-adv-x="496" d="M160 625q29 54 66.5 83t75.5 29q34 0 80 -21t59 -21q29 0 52 39l76 -37q-28 -54 -65.5 -83t-75.5 -29q-33 0 -80 21t-60 21q-26 0 -53 -40z" />
<glyph unicode="&#x2dd;" horiz-adv-x="565" d="M153 585l110 163h177l-172 -163h-115zM363 585l111 163h176l-172 -163h-115z" />
<glyph unicode="&#x326;" horiz-adv-x="0" d="M-251 -248l55 195h137l-89 -195h-103z" />
<glyph unicode="&#x3c0;" horiz-adv-x="613" d="M57 0l93 523h473l-92 -523h-148l76 426h-178l-76 -426h-148z" />
<glyph unicode="&#xe3f;" horiz-adv-x="630" d="M67 0l123 700h156l21 120h139l-22 -123q172 -21 172 -148q0 -59 -36.5 -109t-97.5 -68q106 -28 106 -132q0 -110 -77 -170.5t-189 -68.5l-22 -121h-139l21 120h-155zM240 110h107q54 0 90 30t36 85q0 75 -92 75h-108zM292 408h83q52 0 87 26.5t35 82.5q0 37 -25 55 t-64 18h-83z" />
<glyph unicode="&#x1e80;" horiz-adv-x="927" d="M108 700h155l16 -321l6 -201l77 201l132 321h158l21 -321l8 -202l75 202l126 321h148l-307 -700h-160l-21 288l-7 202l-79 -202l-123 -288h-159zM407 895h186l112 -145h-120z" />
<glyph unicode="&#x1e81;" horiz-adv-x="794" d="M73 523h143l15 -173l9 -194l84 194l79 173h132l19 -173l19 -194l79 194l74 173h138l-253 -524h-138l-17 158l-16 193l-85 -193l-72 -157h-142zM321 748h173l82 -163h-122z" />
<glyph unicode="&#x1e82;" horiz-adv-x="927" d="M108 700h155l16 -321l6 -201l77 201l132 321h158l21 -321l8 -202l75 202l126 321h148l-307 -700h-160l-21 288l-7 202l-79 -202l-123 -288h-159zM451 750l153 145h197l-220 -145h-130z" />
<glyph unicode="&#x1e83;" horiz-adv-x="794" d="M73 523h143l15 -173l9 -194l84 194l79 173h132l19 -173l19 -194l79 194l74 173h138l-253 -524h-138l-17 158l-16 193l-85 -193l-72 -157h-142zM382 585l130 163h183l-190 -163h-123z" />
<glyph unicode="&#x1e84;" horiz-adv-x="927" d="M108 700h155l16 -321l6 -201l77 201l132 321h158l21 -321l8 -202l75 202l126 321h148l-307 -700h-160l-21 288l-7 202l-79 -202l-123 -288h-159zM394 821q0 40 29 66.5t71 26.5q33 0 53 -18.5t20 -49.5q0 -41 -29 -67.5t-72 -26.5q-32 0 -52 19t-20 50zM619 820 q0 41 29 67.5t72 26.5q32 0 52 -19t20 -50q0 -40 -29.5 -66.5t-70.5 -26.5q-33 0 -53 19t-20 49z" />
<glyph unicode="&#x1e85;" horiz-adv-x="794" d="M73 523h143l15 -173l9 -194l84 194l79 173h132l19 -173l19 -194l79 194l74 173h138l-253 -524h-138l-17 158l-16 193l-85 -193l-72 -157h-142zM299 652q0 40 29.5 68.5t70.5 28.5q33 0 52 -19.5t19 -50.5q0 -41 -29 -69.5t-71 -28.5q-32 0 -51.5 20t-19.5 51zM515 651 q0 41 29.5 69.5t71.5 28.5q32 0 51.5 -20t19.5 -51q0 -40 -29.5 -68.5t-71.5 -28.5q-32 0 -51.5 19.5t-19.5 50.5z" />
<glyph unicode="&#x1e9e;" horiz-adv-x="718" d="M67 0l70 394q27 157 115.5 231.5t223.5 74.5h255l-19 -114l-167 -192q75 -25 107 -77.5t32 -103.5q0 -111 -71 -169.5t-167 -58.5q-186 0 -162 173h142q-8 -75 38 -75q30 0 49.5 28.5t19.5 78.5t-30.5 78.5t-89.5 28.5h-37l19 113l155 176h-93q-134 0 -165 -182l-72 -404 h-153z" />
<glyph unicode="&#x1ef2;" horiz-adv-x="583" d="M113 700h156l90 -303l184 303h146l-282 -430l-47 -270h-153l48 270zM235 895h186l112 -145h-120z" />
<glyph unicode="&#x1ef3;" horiz-adv-x="504" d="M59 -208l112 209l-98 522h152l22 -154l19 -193l90 193l77 154h141l-386 -731h-129zM177 748h173l82 -163h-122z" />
<glyph unicode="&#x2000;" horiz-adv-x="467" />
<glyph unicode="&#x2001;" horiz-adv-x="935" />
<glyph unicode="&#x2002;" horiz-adv-x="467" />
<glyph unicode="&#x2003;" horiz-adv-x="935" />
<glyph unicode="&#x2004;" horiz-adv-x="311" />
<glyph unicode="&#x2005;" horiz-adv-x="233" />
<glyph unicode="&#x2006;" horiz-adv-x="155" />
<glyph unicode="&#x2007;" horiz-adv-x="155" />
<glyph unicode="&#x2008;" horiz-adv-x="116" />
<glyph unicode="&#x2009;" horiz-adv-x="187" />
<glyph unicode="&#x200a;" horiz-adv-x="51" />
<glyph unicode="&#x2010;" horiz-adv-x="312" d="M63 220l20 113h248l-21 -113h-247z" />
<glyph unicode="&#x2011;" horiz-adv-x="312" d="M63 220l20 113h248l-21 -113h-247z" />
<glyph unicode="&#x2012;" horiz-adv-x="312" d="M63 220l20 113h248l-21 -113h-247z" />
<glyph unicode="&#x2013;" horiz-adv-x="495" d="M73 220l20 113h420l-20 -113h-420z" />
<glyph unicode="&#x2014;" horiz-adv-x="995" d="M73 220l20 113h920l-20 -113h-920z" />
<glyph unicode="&#x2018;" horiz-adv-x="266" d="M121 587l157 273h122l-126 -273h-153z" />
<glyph unicode="&#x2019;" horiz-adv-x="266" d="M121 587l126 273h153l-157 -273h-122z" />
<glyph unicode="&#x201a;" horiz-adv-x="266" d="M-11 -160l126 272h153l-157 -272h-122z" />
<glyph unicode="&#x201c;" horiz-adv-x="468" d="M121 587l157 273h122l-126 -273h-153zM323 587l158 273h122l-126 -273h-154z" />
<glyph unicode="&#x201d;" horiz-adv-x="468" d="M121 587l126 273h153l-157 -273h-122zM323 587l126 273h154l-158 -273h-122z" />
<glyph unicode="&#x201e;" horiz-adv-x="468" d="M-11 -160l126 272h153l-157 -272h-122zM192 -160l125 272h153l-156 -272h-122z" />
<glyph unicode="&#x2020;" horiz-adv-x="487" d="M93 416l19 114h132l30 170h152l-30 -170h132l-19 -114h-133l-73 -416h-152l73 416h-131z" />
<glyph unicode="&#x2021;" horiz-adv-x="487" d="M49 170l20 113h132l23 133h-131l19 114h132l30 170h152l-30 -170h132l-19 -114h-133l-23 -133h131l-19 -113h-132l-30 -170h-152l30 170h-132z" />
<glyph unicode="&#x2022;" horiz-adv-x="353" d="M72 327q0 70 53.5 120t122.5 50q53 0 88.5 -35.5t35.5 -89.5q0 -71 -53.5 -120t-122.5 -49q-54 0 -89 35t-35 89z" />
<glyph unicode="&#x2026;" horiz-adv-x="803" d="M41 60q0 45 31 74.5t77 29.5q35 0 55 -20.5t20 -53.5q0 -45 -30.5 -75t-76.5 -30q-34 0 -55 21t-21 54zM323 60q0 45 31 74.5t76 29.5q35 0 55.5 -20.5t20.5 -53.5q0 -45 -30.5 -75t-76.5 -30q-35 0 -55.5 21t-20.5 54zM605 60q0 45 31 74.5t76 29.5q35 0 55.5 -20.5 t20.5 -53.5q0 -45 -31 -75t-77 -30q-34 0 -54.5 21t-20.5 54z" />
<glyph unicode="&#x202f;" horiz-adv-x="187" />
<glyph unicode="&#x2030;" horiz-adv-x="1482" d="M131 447q0 114 68.5 188t171.5 74q77 0 120.5 -47.5t43.5 -128.5q0 -115 -68.5 -188.5t-172.5 -73.5q-75 0 -119 47.5t-44 128.5zM215 0l588 700h159l-588 -700h-159zM260 442q0 -79 50 -79q39 0 67 50t28 124q0 80 -50 80q-39 0 -67 -50t-28 -125zM642 167 q0 114 68.5 188t171.5 74q77 0 120.5 -47.5t43.5 -128.5q0 -115 -68.5 -188.5t-172.5 -73.5q-75 0 -119 47.5t-44 128.5zM771 162q0 -79 50 -79q39 0 67 50t28 124q0 80 -50 80q-39 0 -67 -50t-28 -125zM1070 167q0 114 68.5 188t171.5 74q77 0 120.5 -47.5t43.5 -128.5 q0 -115 -68.5 -188.5t-172.5 -73.5q-75 0 -119 47.5t-44 128.5zM1199 162q0 -79 50 -79q39 0 67 50t28 124q0 80 -50 80q-39 0 -67 -50t-28 -125z" />
<glyph unicode="&#x2039;" horiz-adv-x="340" d="M87 209l24 137l272 185l-29 -166l-133 -89l102 -87l-29 -165z" />
<glyph unicode="&#x203a;" horiz-adv-x="340" d="M55 24l29 167l133 88l-102 88l29 164l207 -185l-24 -137z" />
<glyph unicode="&#x2044;" horiz-adv-x="681" d="M20 0l588 700h159l-588 -700h-159z" />
<glyph unicode="&#x205f;" horiz-adv-x="233" />
<glyph unicode="&#x20a1;" horiz-adv-x="654" d="M-36 -120l127 274q-13 48 -13 109q0 162 72 278t192 156l57 123h148l-50 -107q38 -6 57 -12l55 119h149l-95 -204q38 -66 26 -166h-159q13 151 -96 151q-89 0 -141.5 -98t-52.5 -236q0 -169 108 -169q51 0 90 38t57 114h158q-28 -117 -102 -183t-178 -79l-50 -108h-149 l55 119q-25 8 -51 24l-66 -143h-148z" />
<glyph unicode="&#x20a5;" horiz-adv-x="925" d="M57 0l93 523h147l-23 -132l11 63q96 84 194 84q81 0 106 -63l111 161h149l-69 -99q8 1 23 1q60 0 93 -39.5t17 -132.5l-65 -366h-147l61 346q7 41 -8 59t-52 18l-132 -191l-41 -232h-120l-76 -110h-149l238 345l20 111q14 77 -60 77q-55 0 -106 -42l-67 -381h-148z" />
<glyph unicode="&#x20a6;" horiz-adv-x="745" d="M50 185l21 121h93l15 86h-92l21 121h92l33 187h137l173 -450l31 190l45 260h139l-33 -187h93l-21 -121h-93l-15 -86h93l-21 -121h-93l-33 -185h-137l-173 449l-30 -190l-46 -259h-139l33 185h-93z" />
<glyph unicode="&#x20a8;" horiz-adv-x="588" d="M97 409l20 113h289q-17 64 -90 64h-187l19 114h67h466l-20 -114h-137q26 -29 35 -64h90l-19 -113h-77q-23 -78 -88.5 -122.5t-153.5 -55.5l207 -231h-175l-198 227l19 109h108q37 0 69.5 18t50.5 55h-295z" />
<glyph unicode="&#x20a9;" horiz-adv-x="961" d="M50 189l20 114h124l-8 93h-99l19 113h71l-15 191h155l8 -321l3 -201l73 201l127 321h158l15 -321l4 -202l72 202l119 321h148l-81 -191h71l-20 -113h-99l-39 -93h121l-19 -114h-151l-80 -189h-164l-15 288l-3 202l-74 -202l-118 -288h-155l-15 189h-153z" />
<glyph unicode="&#x20aa;" horiz-adv-x="842" d="M97 0l123 700h251q108 0 158.5 -46.5t50.5 -142.5q0 -102 -75 -305h-126q62 182 62 263q0 110 -100 110h-109l-103 -579h-132zM276 0l88 494h132l-67 -373h99q81 0 119 70.5t58 218.5q16 127 21 290h125q1 -18 1 -91q0 -115 -8.5 -203t-31.5 -167t-60 -129.5t-96.5 -80 t-139.5 -29.5h-240z" />
<glyph unicode="&#x20ab;" horiz-adv-x="582" d="M42 0l18 101h520l-18 -101h-520zM99 305q0 117 69.5 187.5t162.5 70.5q83 0 118 -57l-2 -9l16 90h-101l18 101h101l10 56h141l-10 -56h61l-18 -101h-61l-76 -433h-141l49 276q-33 31 -74 31q-47 0 -81 -36.5t-34 -97.5q0 -40 19 -63t52 -23q46 0 90 34l-13 -74 q-68 -61 -152 -61q-67 0 -105.5 43.5t-38.5 121.5z" />
<glyph unicode="&#x20ac;" horiz-adv-x="669" d="M37 182l20 114h66q3 48 12 93h-62l21 114h79q47 99 127 155.5t179 56.5q113 0 177 -67.5t48 -197.5h-158q7 71 -16.5 107.5t-71.5 36.5q-73 0 -124 -91h145l-20 -114h-165q-9 -41 -12 -93h160l-20 -114h-135q17 -76 84 -76q101 0 140 144h158q-31 -130 -118.5 -197.5 t-200.5 -67.5q-194 0 -223 197h-90z" />
<glyph unicode="&#x20ad;" horiz-adv-x="645" d="M69 311l20 114h90l48 275h153l-48 -275h4l231 275h154l-233 -275h185l-20 -114h-181l165 -311h-169l-155 311h-1l-55 -311h-153l55 311h-90z" />
<glyph unicode="&#x20ae;" horiz-adv-x="540" d="M76 79l23 127l126 44l11 62l-126 -44l22 126l126 44l26 148h-174l20 114h500l-19 -114h-174l-16 -91l127 45l-22 -127l-128 -44l-11 -62l128 44l-23 -126l-127 -45l-32 -180h-152l22 123z" />
<glyph unicode="&#x20b1;" horiz-adv-x="672" d="M86 402l20 114h90l32 184h211q89 0 153 -47.5t70 -136.5h83l-19 -114h-80q-33 -87 -115.5 -133.5t-174.5 -46.5h-59l-39 -222h-153l71 402h-90zM316 332h59q32 0 62.5 18.5t48.5 51.5h-158zM349 516h155q-7 35 -30 54.5t-53 19.5h-59z" />
<glyph unicode="&#x20b4;" horiz-adv-x="649" d="M88 138q0 93 87 153h-81l20 114h308q99 50 99 123q0 34 -22.5 55.5t-63.5 21.5q-111 0 -136 -106h-156q56 216 313 216q103 0 161 -40t58 -113q0 -96 -90 -157h93l-20 -114h-319q-97 -49 -97 -119q0 -34 22 -55.5t63 -21.5q113 0 138 106h157q-56 -216 -316 -216 q-103 0 -160.5 40t-57.5 113z" />
<glyph unicode="&#x20b5;" horiz-adv-x="654" d="M78 263q0 175 83 295.5t219 148.5l20 113h139l-20 -111q91 -16 137 -81.5t33 -177.5h-159q13 151 -96 151q-89 0 -141.5 -98t-52.5 -236q0 -169 108 -169q51 0 90 38t57 114h158q-26 -112 -95 -177.5t-165 -81.5l-20 -111h-139l20 112q-176 39 -176 271z" />
<glyph unicode="&#x2113;" horiz-adv-x="497" d="M35 156v93q39 17 82 39v141q0 140 50.5 213t143.5 73q68 0 109.5 -38t41.5 -123q0 -149 -197 -281v-99q0 -43 19.5 -64.5t50.5 -21.5q21 0 67 12v-93q-59 -22 -120 -22q-76 0 -120.5 39.5t-44.5 126.5v39q-31 -14 -82 -34zM265 393q69 74 69 159q0 62 -29 62 q-23 0 -31.5 -42.5t-8.5 -142.5v-36z" />
<glyph unicode="&#x2117;" horiz-adv-x="830" d="M50 350q0 152 105 258.5t260 106.5t260 -106.5t105 -258.5t-105 -258.5t-260 -106.5t-260 106.5t-105 258.5zM137 350q0 -119 80 -201.5t198 -82.5q117 0 197.5 82.5t80.5 201.5q0 118 -80.5 201t-197.5 83q-118 0 -198 -82.5t-80 -201.5zM289 143v413h144 q65 0 114 -36.5t49 -104.5t-49 -104.5t-114 -36.5h-38v-131h-106zM395 350h38q26 0 42 16t16 49q0 64 -58 64h-38v-129z" />
<glyph unicode="&#x2120;" horiz-adv-x="696" d="M50 493h83q5 -37 46 -37q40 0 40 30q0 5 -1.5 9t-5.5 6.5t-7.5 4.5t-10.5 4t-11.5 3t-14 2.5t-14.5 2.5q-22 4 -36.5 8.5t-31.5 14.5t-25.5 28t-8.5 44q0 43 33.5 69t83.5 26q118 0 125 -95h-83q-4 32 -42 32t-38 -25q0 -5 1.5 -9t5.5 -6.5t7.5 -4.5t10.5 -4t11.5 -3 t14 -2.5t14.5 -2.5q22 -4 36.5 -8.5t31.5 -14.5t25.5 -28t8.5 -44q0 -44 -34 -72t-85 -28q-120 0 -129 100zM337 401v299h88l69 -176l66 176h86v-299h-76v76l1 91l-49 -133h-60l-52 132l3 -93v-73h-76z" />
<glyph unicode="&#x2122;" horiz-adv-x="681" d="M50 637v63h230v-63h-75v-236h-82v236h-73zM322 401v299h88l69 -176l66 176h86v-299h-76v76l1 91l-49 -133h-60l-52 132l3 -93v-73h-76z" />
<glyph unicode="&#x2126;" horiz-adv-x="733" d="M32 0l21 113h163q-51 37 -83 105.5t-32 142.5q0 141 108.5 247.5t272.5 106.5q129 0 200.5 -75.5t71.5 -190.5q0 -99 -62.5 -191.5t-152.5 -144.5h162l-21 -113h-266l20 113q61 39 107.5 126.5t46.5 188.5q0 82 -32 127.5t-95 45.5q-53 0 -94.5 -27t-65 -70.5t-35 -93.5 t-11.5 -102q0 -62 17.5 -116.5t46.5 -78.5l-20 -113h-267z" />
<glyph unicode="&#x212e;" horiz-adv-x="774" d="M50 321q0 144 98 241t239 97t239 -97t98 -241h-523v-239q79 -65 186 -65q75 0 138 34t104 93h47q-45 -74 -121.5 -117t-167.5 -43q-141 0 -239 96.5t-98 240.5zM201 354h373l-1 206q-80 66 -186 66t-186 -66v-206z" />
<glyph unicode="&#x2153;" horiz-adv-x="972" d="M144 540l18 106l116 54h127l-74 -420h-127l55 314zM146 0l588 700h159l-588 -700h-159zM584 118h126q-2 -21 9 -31t39 -10q30 0 45.5 15t15.5 37q0 39 -68 39h-49l16 89h48q75 0 75 55q0 30 -37 30q-43 0 -57 -40h-126q16 60 69 93.5t129 33.5q67 0 107.5 -26.5 t40.5 -76.5q0 -35 -24 -65.5t-68 -42.5q69 -15 69 -80q0 -66 -59.5 -106.5t-142.5 -40.5t-124 32t-34 95z" />
<glyph unicode="&#x2154;" horiz-adv-x="1064" d="M111 280l16 94q27 18 63.5 43t55.5 38t43.5 30.5t36 28.5t23.5 24.5t16.5 25.5t4.5 25q0 33 -37 33q-44 0 -58 -53h-126q16 68 69.5 104t129.5 36q69 0 108 -29t39 -81q0 -31 -9.5 -54.5t-40.5 -53t-58.5 -50t-93.5 -67.5h167l-16 -94h-333zM239 0l588 700h159l-588 -700 h-159zM677 118h126q-2 -21 9 -31t39 -10q30 0 45.5 15t15.5 37q0 39 -68 39h-49l16 89h48q75 0 75 55q0 30 -37 30q-43 0 -57 -40h-126q16 60 69 93.5t129 33.5q67 0 107.5 -26.5t40.5 -76.5q0 -35 -24 -65.5t-68 -42.5q69 -15 69 -80q0 -66 -59.5 -106.5t-142.5 -40.5 t-124 32t-34 95z" />
<glyph unicode="&#x215b;" horiz-adv-x="987" d="M144 540l18 106l116 54h127l-74 -420h-127l55 314zM146 0l588 700h159l-588 -700h-159zM582 96q0 41 26.5 74.5t78.5 46.5q-28 10 -43.5 32t-15.5 48q0 62 56 97t142 35q71 0 113.5 -27t42.5 -76q0 -37 -25.5 -66t-66.5 -43q34 -9 51 -33t17 -55q0 -67 -57 -102.5 t-152 -35.5q-79 0 -123 26.5t-44 78.5zM710 116q0 -39 54 -39q70 0 70 55q0 38 -53 38q-71 0 -71 -54zM751 289q0 -35 44 -35q59 0 59 52q0 36 -44 36q-59 0 -59 -53z" />
<glyph unicode="&#x215c;" horiz-adv-x="1047" d="M120 398h126q-2 -21 9 -31t39 -10q30 0 45.5 15t15.5 37q0 39 -68 39h-49l16 89h48q75 0 75 55q0 30 -37 30q-43 0 -57 -40h-126q16 60 69 93.5t129 33.5q67 0 107.5 -26.5t40.5 -76.5q0 -35 -24 -65.5t-68 -42.5q69 -15 69 -80q0 -66 -59.5 -106.5t-142.5 -40.5t-124 32 t-34 95zM206 0l588 700h159l-588 -700h-159zM641 96q0 41 26.5 74.5t78.5 46.5q-28 10 -43.5 32t-15.5 48q0 62 56 97t142 35q71 0 113.5 -27t42.5 -76q0 -37 -25.5 -66t-66.5 -43q34 -9 51 -33t17 -55q0 -67 -57 -102.5t-152 -35.5q-79 0 -123 26.5t-44 78.5zM769 116 q0 -39 54 -39q70 0 70 55q0 38 -53 38q-71 0 -71 -54zM810 289q0 -35 44 -35q59 0 59 52q0 36 -44 36q-59 0 -59 -53z" />
<glyph unicode="&#x215d;" horiz-adv-x="1027" d="M119 395h126q0 -38 40 -38q29 0 44.5 22t15.5 58q0 44 -42 44q-32 0 -59 -24h-102l43 243h303l-17 -95h-201l-13 -74q43 33 99 33q53 0 84 -29.5t31 -85.5q0 -81 -60 -129.5t-141 -48.5q-78 0 -117.5 31.5t-33.5 92.5zM186 0l588 700h159l-588 -700h-159zM622 96 q0 41 26.5 74.5t78.5 46.5q-28 10 -43.5 32t-15.5 48q0 62 56 97t142 35q71 0 113.5 -27t42.5 -76q0 -37 -25.5 -66t-66.5 -43q34 -9 51 -33t17 -55q0 -67 -57 -102.5t-152 -35.5q-79 0 -123 26.5t-44 78.5zM750 116q0 -39 54 -39q70 0 70 55q0 38 -53 38q-71 0 -71 -54z M791 289q0 -35 44 -35q59 0 59 52q0 36 -44 36q-59 0 -59 -53z" />
<glyph unicode="&#x215e;" horiz-adv-x="930" d="M89 0l588 700h159l-588 -700h-159zM130 280l208 325h-183l17 95h302l-17 -95l-205 -325h-122zM525 96q0 41 26.5 74.5t78.5 46.5q-28 10 -43.5 32t-15.5 48q0 62 56 97t142 35q71 0 113.5 -27t42.5 -76q0 -37 -25.5 -66t-66.5 -43q34 -9 51 -33t17 -55q0 -67 -57 -102.5 t-152 -35.5q-79 0 -123 26.5t-44 78.5zM653 116q0 -39 54 -39q70 0 70 55q0 38 -53 38q-71 0 -71 -54zM694 289q0 -35 44 -35q59 0 59 52q0 36 -44 36q-59 0 -59 -53z" />
<glyph unicode="&#x2190;" horiz-adv-x="775" d="M85 256l369 313l71 -86l-197 -167h462l-21 -120h-464l138 -168l-100 -84z" />
<glyph unicode="&#x2191;" horiz-adv-x="705" d="M91 290l368 314l257 -314l-100 -85l-138 167l-81 -463h-120l80 462l-195 -167z" />
<glyph unicode="&#x2192;" horiz-adv-x="775" d="M74 196l21 120h464l-137 168l99 85l259 -313l-369 -313l-71 86l196 167h-462z" />
<glyph unicode="&#x2193;" horiz-adv-x="705" d="M79 222l100 85l138 -168l82 465h121l-82 -462l196 166l71 -86l-368 -313z" />
<glyph unicode="&#x2196;" horiz-adv-x="654" d="M94 81l78 442h443l-22 -121h-236l269 -327l-99 -85l-270 328l-42 -237h-121z" />
<glyph unicode="&#x2197;" horiz-adv-x="654" d="M53 75l385 327h-236l22 121h442l-78 -442h-121l41 235l-385 -326z" />
<glyph unicode="&#x2198;" horiz-adv-x="654" d="M117 438l101 85l269 -328l42 238h121l-78 -443h-443l21 121h237z" />
<glyph unicode="&#x2199;" horiz-adv-x="654" d="M78 -10l78 443h121l-42 -237l386 328l70 -86l-385 -327h236l-21 -121h-443z" />
<glyph unicode="&#x2202;" horiz-adv-x="605" d="M57 193q0 115 66 187.5t173 72.5q43 0 85.5 -21.5t65.5 -54.5q8 54 8 107q0 81 -24 124t-65 43q-33 0 -52.5 -18.5t-31.5 -61.5h-155q25 92 92 140t167 48q101 0 161 -78.5t60 -215.5q0 -217 -93 -348.5t-249 -131.5q-91 0 -149.5 56.5t-58.5 151.5zM212 196 q0 -46 19 -74.5t55 -28.5q44 0 83 56.5t62 146.5q-15 20 -44 32.5t-58 12.5q-61 0 -89 -43.5t-28 -101.5z" />
<glyph unicode="&#x2205;" horiz-adv-x="646" d="M90 90l61 75q-53 64 -53 157q0 136 100.5 231t234.5 95q53 0 97 -18l61 75l87 -64l-61 -75q52 -65 52 -156q0 -136 -100.5 -231t-234.5 -95q-50 0 -95 17l-61 -75zM221 340q0 -41 15 -71l212 261q-15 4 -36 4q-76 0 -133.5 -57t-57.5 -137zM320 201q15 -4 35 -4 q76 0 133.5 57t57.5 138q0 39 -14 69z" />
<glyph unicode="&#x2206;" horiz-adv-x="638" d="M35 0l20 113l302 587h152l99 -587l-20 -113h-553zM200 113h258l-33 243l-20 201l-90 -201z" />
<glyph unicode="&#x220f;" horiz-adv-x="740" d="M67 0l123 700h581l-123 -700h-153l104 586h-275l-104 -586h-153z" />
<glyph unicode="&#x2211;" horiz-adv-x="563" d="M67 0l21 113l224 256l-141 217l19 114h437l-20 -114h-275l109 -167l-21 -121l-170 -185h274l-20 -113h-437z" />
<glyph unicode="&#x2212;" horiz-adv-x="562" d="M87 309l20 114h475l-20 -114h-475z" />
<glyph unicode="&#x221a;" horiz-adv-x="644" d="M83 426l16 97h210l23 -178l20 -193l86 193l166 355h141l-355 -700h-140l-73 426h-94z" />
<glyph unicode="&#x221e;" horiz-adv-x="844" d="M72 319q0 98 70 168.5t164 70.5q39 0 75 -20t55 -41t48 -58q60 54 114 86.5t110 32.5q73 0 117.5 -48.5t44.5 -123.5q0 -98 -69.5 -168t-163.5 -70q-30 0 -56.5 9.5t-49 29.5t-37.5 36.5t-35 43.5q-62 -55 -115.5 -87t-109.5 -32q-72 0 -117 48.5t-45 122.5zM205 340 q0 -28 16.5 -49t47.5 -21q42 0 132 82q-59 84 -105 84q-42 0 -66.5 -29.5t-24.5 -66.5zM541 352q62 -82 105 -82q42 0 66.5 29.5t24.5 66.5q0 29 -16 49.5t-48 20.5q-42 0 -132 -84z" />
<glyph unicode="&#x222b;" horiz-adv-x="435" d="M-2 -223l18 110q84 0 98 83l93 529q18 101 91 158.5t183 57.5l-19 -110q-82 0 -98 -83l-93 -529q-18 -101 -90.5 -158.5t-182.5 -57.5z" />
<glyph unicode="&#x2248;" horiz-adv-x="580" d="M47 218q41 74 92.5 105t99.5 31q41 0 76 -17t62.5 -34t50.5 -17q39 0 82 62l92 -49q-41 -74 -92.5 -105t-99.5 -31q-41 0 -76 17.5t-62 34.5t-50 17q-40 0 -83 -63zM85 433q41 74 92.5 105t99.5 31q41 0 76 -17t62.5 -34t50.5 -17q39 0 82 62l92 -49q-41 -74 -92.5 -105 t-99.5 -31q-41 0 -76 17t-62 34.5t-50 17.5q-40 0 -83 -63z" />
<glyph unicode="&#x2260;" horiz-adv-x="562" d="M68 202l20 113h154l56 102h-192l20 113h235l81 146h128l-81 -146h112l-20 -113h-155l-56 -102h193l-20 -113h-236l-81 -146h-128l81 146h-111z" />
<glyph unicode="&#x2264;" horiz-adv-x="543" d="M18 0l21 113h475l-21 -113h-475zM81 358l22 122l508 193l-21 -123l-347 -132l301 -131l-22 -121z" />
<glyph unicode="&#x2265;" horiz-adv-x="543" d="M29 0l20 113h475l-20 -113h-475zM58 166l21 123l347 132l-300 131l21 121l441 -193l-21 -122z" />
<glyph unicode="&#x25ca;" horiz-adv-x="523" d="M73 350l231 350h143l109 -350l-232 -350h-143zM210 344l64 -200l145 212l-65 199z" />
<glyph unicode="&#x25fc;" horiz-adv-x="525" d="M0 0v525h525v-525h-525z" />
<glyph unicode="&#x27f5;" horiz-adv-x="1410" d="M85 256l369 313l71 -86l-197 -167h1097l-21 -120h-1099l138 -168l-100 -84z" />
<glyph unicode="&#x27f6;" horiz-adv-x="1410" d="M74 196l21 120h1100l-138 168l99 85l259 -313l-369 -313l-71 86l196 167h-1097z" />
<glyph unicode="&#x301a;" horiz-adv-x="417" d="M99 -125l167 950h273l-17 -96h-77l-133 -758h76l-16 -96h-273zM198 -29h31l134 758h-31z" />
<glyph unicode="&#x301b;" horiz-adv-x="432" d="M-8 -125l17 96h76l134 758h-77l17 96h272l-167 -950h-272zM168 -29h31l133 758h-31z" />
<glyph horiz-adv-x="717" d="M78 277q0 193 109 315.5t285 122.5q128 0 196.5 -78.5t68.5 -213.5q0 -193 -109 -315.5t-285 -122.5q-128 0 -196.5 78.5t-68.5 213.5zM186 -167l20 114h383l-20 -114h-383zM239 276q0 -82 32 -130t94 -48q57 0 100 31.5t66 82.5t34 104.5t11 107.5q0 81 -32 129t-93 48 q-57 0 -100 -31.5t-66.5 -82t-34.5 -104t-11 -107.5z" />
<glyph horiz-adv-x="577" d="M47 103q0 84 73.5 140t212.5 56q20 0 66 -4l10 54q16 96 -63 96q-36 0 -64 -23t-38 -76h-143q10 64 52.5 108.5t96.5 64t114 19.5q33 0 62 -4t57.5 -16t47 -30.5t27 -49.5t1.5 -72l-65 -366h-147l9 52q-83 -67 -177 -67q-62 0 -97 32t-35 86zM198 139q0 -49 68 -49 q50 0 104 41l-4 -25l23 129l-4 -20q-28 3 -58 3q-58 0 -93.5 -20.5t-35.5 -58.5z" />
<glyph horiz-adv-x="615" d="M14 -98q0 79 105 139q-38 23 -38 72q0 62 74 128q-45 37 -45 102q0 93 77 144t190 51q61 0 104 -15h189l-17 -97h-74q4 -15 4 -35q0 -94 -77 -145t-190 -51q-55 0 -100 14q-10 -20 -10 -38q0 -33 35 -33h158q79 0 119.5 -32t40.5 -90q0 -99 -96.5 -169t-235.5 -70 q-213 0 -213 125zM151 -50q0 -84 105 -84q74 0 114.5 27.5t40.5 76.5q0 23 -17.5 36.5t-44.5 13.5h-139q-15 0 -37 2q-22 -36 -22 -72zM247 353q0 -34 24 -52t62 -18q48 0 80.5 24.5t32.5 73.5q0 34 -23.5 52t-61.5 18q-50 0 -82 -24.5t-32 -73.5z" />
<glyph horiz-adv-x="287" d="M-106 -205l15 86q27 -8 57 -8q29 0 52.5 20.5t31.5 63.5l100 566h147l-99 -565q-33 -181 -220 -181q-48 0 -84 18zM162 651q0 43 30 73t72 30q34 0 52.5 -21t18.5 -54q0 -42 -30.5 -72.5t-71.5 -30.5q-34 0 -52.5 21t-18.5 54z" />
<glyph horiz-adv-x="382" d="M70 426l17 97h104l24 137h148l-24 -137h105l-16 -97h-106l-75 -426h-148l75 426h-104z" />
<glyph horiz-adv-x="574" d="M57 0l93 523h147l-92 -523h-148zM162 651q0 43 30 73t72 30q34 0 52.5 -21t18.5 -54q0 -42 -30.5 -72.5t-71.5 -30.5q-34 0 -52.5 21t-18.5 54zM181 -205l15 86q27 -8 57 -8q29 0 52.5 20.5t31.5 63.5l100 566h147l-99 -565q-33 -181 -220 -181q-48 0 -84 18zM449 651 q0 43 30.5 73t71.5 30q34 0 52.5 -21t18.5 -54q0 -42 -30.5 -72.5t-71.5 -30.5q-34 0 -52.5 21t-18.5 54z" />
<glyph horiz-adv-x="577" d="M47 103q0 84 73.5 140t212.5 56q20 0 66 -4l10 54q16 96 -63 96q-36 0 -64 -23t-38 -76h-143q10 64 52.5 108.5t96.5 64t114 19.5q33 0 62 -4t57.5 -16t47 -30.5t27 -49.5t1.5 -72l-65 -366h-147l9 52q-83 -67 -177 -67q-62 0 -97 32t-35 86zM198 139q0 -49 68 -49 q50 0 104 41l-4 -25l23 129l-4 -20q-28 3 -58 3q-58 0 -93.5 -20.5t-35.5 -58.5zM262 585l130 163h183l-190 -163h-123z" />
<glyph horiz-adv-x="577" d="M47 103q0 84 73.5 140t212.5 56q20 0 66 -4l10 54q16 96 -63 96q-36 0 -64 -23t-38 -76h-143q10 64 52.5 108.5t96.5 64t114 19.5q33 0 62 -4t57.5 -16t47 -30.5t27 -49.5t1.5 -72l-65 -366h-147l9 52q-83 -67 -177 -67q-62 0 -97 32t-35 86zM198 139q0 -49 68 -49 q50 0 104 41l-4 -25l23 129l-4 -20q-28 3 -58 3q-58 0 -93.5 -20.5t-35.5 -58.5zM235 748h102q-4 -28 8 -49t46 -21q33 0 53 21t25 49h103q-15 -88 -73.5 -131.5t-125.5 -43.5q-68 0 -111 43.5t-27 131.5z" />
<glyph horiz-adv-x="577" d="M47 103q0 84 73.5 140t212.5 56q20 0 66 -4l10 54q16 96 -63 96q-36 0 -64 -23t-38 -76h-143q10 64 52.5 108.5t96.5 64t114 19.5q33 0 62 -4t57.5 -16t47 -30.5t27 -49.5t1.5 -72l-65 -366h-147l9 52q-83 -67 -177 -67q-62 0 -97 32t-35 86zM179 585l155 163h141 l96 -163h-120l-61 70l-87 -70h-124zM198 139q0 -49 68 -49q50 0 104 41l-4 -25l23 129l-4 -20q-28 3 -58 3q-58 0 -93.5 -20.5t-35.5 -58.5z" />
<glyph horiz-adv-x="577" d="M47 103q0 84 73.5 140t212.5 56q20 0 66 -4l10 54q16 96 -63 96q-36 0 -64 -23t-38 -76h-143q10 64 52.5 108.5t96.5 64t114 19.5q33 0 62 -4t57.5 -16t47 -30.5t27 -49.5t1.5 -72l-65 -366h-147l9 52q-83 -67 -177 -67q-62 0 -97 32t-35 86zM195 652q0 40 29.5 68.5 t70.5 28.5q33 0 52 -19.5t19 -50.5q0 -41 -29 -69.5t-71 -28.5q-32 0 -51.5 20t-19.5 51zM198 139q0 -49 68 -49q50 0 104 41l-4 -25l23 129l-4 -20q-28 3 -58 3q-58 0 -93.5 -20.5t-35.5 -58.5zM411 651q0 41 29.5 69.5t71.5 28.5q32 0 51.5 -20t19.5 -51 q0 -40 -29.5 -68.5t-71.5 -28.5q-32 0 -51.5 19.5t-19.5 50.5z" />
<glyph horiz-adv-x="577" d="M47 103q0 84 73.5 140t212.5 56q20 0 66 -4l10 54q16 96 -63 96q-36 0 -64 -23t-38 -76h-143q10 64 52.5 108.5t96.5 64t114 19.5q33 0 62 -4t57.5 -16t47 -30.5t27 -49.5t1.5 -72l-65 -366h-147l9 52q-83 -67 -177 -67q-62 0 -97 32t-35 86zM198 139q0 -49 68 -49 q50 0 104 41l-4 -25l23 129l-4 -20q-28 3 -58 3q-58 0 -93.5 -20.5t-35.5 -58.5zM226 748h173l82 -163h-122z" />
<glyph horiz-adv-x="577" d="M47 103q0 84 73.5 140t212.5 56q20 0 66 -4l10 54q16 96 -63 96q-36 0 -64 -23t-38 -76h-143q10 64 52.5 108.5t96.5 64t114 19.5q33 0 62 -4t57.5 -16t47 -30.5t27 -49.5t1.5 -72l-65 -366h-147l9 52q-83 -67 -177 -67q-62 0 -97 32t-35 86zM198 139q0 -49 68 -49 q50 0 104 41l-4 -25l23 129l-4 -20q-28 3 -58 3q-58 0 -93.5 -20.5t-35.5 -58.5zM220 612l18 101h320l-18 -101h-320z" />
<glyph horiz-adv-x="577" d="M47 103q0 84 73.5 140t212.5 56q20 0 66 -4l10 54q16 96 -63 96q-36 0 -64 -23t-38 -76h-143q10 64 52.5 108.5t96.5 64t114 19.5q33 0 62 -4t57.5 -16t47 -30.5t27 -49.5t1.5 -72l-65 -366q-132 -64 -132 -128q0 -16 10.5 -24.5t24.5 -8.5q33 0 72 17l-14 -80 q-48 -24 -118 -24q-49 0 -75 24.5t-26 62.5q0 91 133 161h-22l9 52q-83 -67 -177 -67q-62 0 -97 32t-35 86zM198 139q0 -49 68 -49q50 0 104 41l-4 -25l23 129l-4 -20q-28 3 -58 3q-58 0 -93.5 -20.5t-35.5 -58.5z" />
<glyph horiz-adv-x="577" d="M47 103q0 84 73.5 140t212.5 56q20 0 66 -4l10 54q16 96 -63 96q-36 0 -64 -23t-38 -76h-143q10 64 52.5 108.5t96.5 64t114 19.5q33 0 62 -4t57.5 -16t47 -30.5t27 -49.5t1.5 -72l-65 -366h-147l9 52q-83 -67 -177 -67q-62 0 -97 32t-35 86zM198 139q0 -49 68 -49 q50 0 104 41l-4 -25l23 129l-4 -20q-28 3 -58 3q-58 0 -93.5 -20.5t-35.5 -58.5zM256 650q0 52 44 83.5t107 31.5q51 0 83 -23.5t32 -64.5q0 -51 -44 -82.5t-107 -31.5q-51 0 -83 23.5t-32 63.5zM356.5 652.5q3.5 -10.5 15.5 -17.5q15 -4 28.5 2t18.5 18q14 22 -13 38 q-15 4 -28.5 -2t-18.5 -19q-6 -9 -2.5 -19.5z" />
<glyph horiz-adv-x="577" d="M47 103q0 84 73.5 140t212.5 56q20 0 66 -4l10 54q16 96 -63 96q-36 0 -64 -23t-38 -76h-143q10 64 52.5 108.5t96.5 64t114 19.5q33 0 62 -4t57.5 -16t47 -30.5t27 -49.5t1.5 -72l-65 -366h-147l9 52q-83 -67 -177 -67q-62 0 -97 32t-35 86zM184 625q29 54 66.5 83 t75.5 29q34 0 80 -21t59 -21q29 0 52 39l76 -37q-28 -54 -65.5 -83t-75.5 -29q-33 0 -80 21t-60 21q-26 0 -53 -40zM198 139q0 -49 68 -49q50 0 104 41l-4 -25l23 129l-4 -20q-28 3 -58 3q-58 0 -93.5 -20.5t-35.5 -58.5z" />
<glyph horiz-adv-x="615" d="M14 -98q0 79 105 139q-38 23 -38 72q0 62 74 128q-45 37 -45 102q0 93 77 144t190 51q61 0 104 -15h189l-17 -97h-74q4 -15 4 -35q0 -94 -77 -145t-190 -51q-55 0 -100 14q-10 -20 -10 -38q0 -33 35 -33h158q79 0 119.5 -32t40.5 -90q0 -99 -96.5 -169t-235.5 -70 q-213 0 -213 125zM151 -50q0 -84 105 -84q74 0 114.5 27.5t40.5 76.5q0 23 -17.5 36.5t-44.5 13.5h-139q-15 0 -37 2q-22 -36 -22 -72zM247 353q0 -34 24 -52t62 -18q48 0 80.5 24.5t32.5 73.5q0 34 -23.5 52t-61.5 18q-50 0 -82 -24.5t-32 -73.5zM251 748h102q-4 -28 8 -49 t46 -21q33 0 53 21t25 49h103q-15 -88 -73.5 -131.5t-125.5 -43.5q-68 0 -111 43.5t-27 131.5z" />
<glyph horiz-adv-x="615" d="M14 -98q0 79 105 139q-38 23 -38 72q0 62 74 128q-45 37 -45 102q0 93 77 144t190 51q61 0 104 -15h189l-17 -97h-74q4 -15 4 -35q0 -94 -77 -145t-190 -51q-55 0 -100 14q-10 -20 -10 -38q0 -33 35 -33h158q79 0 119.5 -32t40.5 -90q0 -99 -96.5 -169t-235.5 -70 q-213 0 -213 125zM151 -50q0 -84 105 -84q74 0 114.5 27.5t40.5 76.5q0 23 -17.5 36.5t-44.5 13.5h-139q-15 0 -37 2q-22 -36 -22 -72zM195 585l155 163h141l96 -163h-120l-61 70l-87 -70h-124zM247 353q0 -34 24 -52t62 -18q48 0 80.5 24.5t32.5 73.5q0 34 -23.5 52 t-61.5 18q-50 0 -82 -24.5t-32 -73.5z" />
<glyph horiz-adv-x="615" d="M14 -98q0 79 105 139q-38 23 -38 72q0 62 74 128q-45 37 -45 102q0 93 77 144t190 51q61 0 104 -15h189l-17 -97h-74q4 -15 4 -35q0 -94 -77 -145t-190 -51q-55 0 -100 14q-10 -20 -10 -38q0 -33 35 -33h158q79 0 119.5 -32t40.5 -90q0 -99 -96.5 -169t-235.5 -70 q-213 0 -213 125zM151 -50q0 -84 105 -84q74 0 114.5 27.5t40.5 76.5q0 23 -17.5 36.5t-44.5 13.5h-139q-15 0 -37 2q-22 -36 -22 -72zM247 353q0 -34 24 -52t62 -18q48 0 80.5 24.5t32.5 73.5q0 34 -23.5 52t-61.5 18q-50 0 -82 -24.5t-32 -73.5zM296 581l89 195h103 l-55 -195h-137z" />
<glyph horiz-adv-x="615" d="M14 -98q0 79 105 139q-38 23 -38 72q0 62 74 128q-45 37 -45 102q0 93 77 144t190 51q61 0 104 -15h189l-17 -97h-74q4 -15 4 -35q0 -94 -77 -145t-190 -51q-55 0 -100 14q-10 -20 -10 -38q0 -33 35 -33h158q79 0 119.5 -32t40.5 -90q0 -99 -96.5 -169t-235.5 -70 q-213 0 -213 125zM151 -50q0 -84 105 -84q74 0 114.5 27.5t40.5 76.5q0 23 -17.5 36.5t-44.5 13.5h-139q-15 0 -37 2q-22 -36 -22 -72zM247 353q0 -34 24 -52t62 -18q48 0 80.5 24.5t32.5 73.5q0 34 -23.5 52t-61.5 18q-50 0 -82 -24.5t-32 -73.5zM315 651q0 43 31 73t75 30 q34 0 54 -21t20 -54q0 -42 -30.5 -72.5t-74.5 -30.5q-34 0 -54.5 21.5t-20.5 53.5z" />
<glyph horiz-adv-x="287" d="M57 0l93 523h147l-92 -523h-148zM162 651q0 43 30 73t72 30q34 0 52.5 -21t18.5 -54q0 -42 -30.5 -72.5t-71.5 -30.5q-34 0 -52.5 21t-18.5 54z" />
<glyph horiz-adv-x="287" d="M-106 -205l15 86q27 -8 57 -8q29 0 52.5 20.5t31.5 63.5l100 566h147l-99 -565q-33 -181 -220 -181q-48 0 -84 18zM39 585l155 163h141l96 -163h-120l-61 70l-87 -70h-124z" />
<glyph horiz-adv-x="382" d="M56 237l18 101h84l16 88h-104l17 97h104l24 137h148l-24 -137h105l-16 -97h-106l-16 -88h93l-18 -101h-92l-42 -237h-148l42 237h-85z" />
<glyph horiz-adv-x="382" d="M70 426l17 97h104l24 137h148l-24 -137h105l-16 -97h-106l-75 -426h-148l75 426h-104zM404 568l42 235h132l-70 -235h-104z" />
<glyph horiz-adv-x="382" d="M39 -233l11 63q26 -13 61 -13q19 0 34 8.5t15 26.5q0 25 -38 25q-19 0 -36 -5l-18 44l78 84h-47l75 426h-104l17 97h104l24 137h148l-24 -137h105l-16 -97h-106l-75 -426h-21l-57 -63q41 2 70 -16t29 -55q0 -55 -47 -84.5t-113 -29.5q-40 0 -69 15z" />
<glyph horiz-adv-x="382" d="M44 -248l55 195h137l-89 -195h-103zM70 426l17 97h104l24 137h148l-24 -137h105l-16 -97h-106l-75 -426h-148l75 426h-104z" />
<glyph horiz-adv-x="536" d="M-5 0l286 543h134l111 -543h-146l-16 116h-176l-55 -116h-138zM236 217h114l-8 56l-15 139l-64 -139z" />
<glyph horiz-adv-x="543" d="M67 0l96 543h212q190 0 190 -121q0 -44 -28.5 -81.5t-76.5 -52.5q84 -22 84 -104q0 -92 -71.5 -138t-174.5 -46h-231zM229 95h86q39 0 62.5 19.5t23.5 60.5q0 27 -17.5 40.5t-44.5 13.5h-86zM268 321h67q84 0 84 75q0 26 -17.5 39t-43.5 13h-67z" />
<glyph horiz-adv-x="557" d="M75 217q0 146 90.5 243t222.5 97q96 0 154 -54t47 -154h-143q3 54 -17 80.5t-58 26.5q-40 0 -69.5 -23.5t-45 -62t-23 -78t-7.5 -79.5q0 -57 20 -92t59 -35q81 0 113 107h143q-24 -100 -101 -154t-173 -54q-101 0 -156.5 62.5t-55.5 169.5z" />
<glyph horiz-adv-x="594" d="M67 0l96 543h199q117 0 182.5 -59.5t65.5 -165.5q0 -146 -95 -232t-249 -86h-199zM230 101h54q81 0 127 57.5t46 152.5q0 62 -29 96.5t-83 34.5h-56z" />
<glyph horiz-adv-x="474" d="M67 0l96 543h368l-18 -101h-223l-19 -110h206l-18 -101h-207l-22 -130h223l-18 -101h-368z" />
<glyph horiz-adv-x="440" d="M67 0l96 543h358l-17 -101h-215l-20 -121h197l-18 -102h-198l-38 -219h-145z" />
<glyph horiz-adv-x="574" d="M75 200q0 159 89 258t227 99q94 0 150.5 -50t47.5 -139h-143q2 88 -75 88q-52 0 -86 -42t-45.5 -93t-11.5 -106q0 -129 86 -129q50 0 97 31l12 70h-95l16 94h228l-49 -281h-133l8 44q-27 -26 -71 -42.5t-81 -16.5q-83 0 -127 57.5t-44 157.5z" />
<glyph horiz-adv-x="627" d="M67 0l96 543h145l-37 -211h199l37 211h144l-96 -543h-144l41 231h-200l-40 -231h-145z" />
<glyph horiz-adv-x="284" d="M67 0l96 543h145l-96 -543h-145z" />
<glyph horiz-adv-x="507" d="M49 196h145q-14 -110 50 -110q63 0 79 85l66 372h145l-64 -356q-17 -102 -83.5 -152t-160.5 -50q-40 0 -74 10t-62 33t-39.5 66t-1.5 102z" />
<glyph horiz-adv-x="557" d="M67 0l96 543h145l-43 -241l198 241h148l-217 -256l153 -287h-160l-128 265l-47 -265h-145z" />
<glyph horiz-adv-x="453" d="M70 0l96 543h145l-78 -442h201l-18 -101h-346z" />
<glyph horiz-adv-x="711" d="M67 0l96 543h152l74 -341l197 341h149l-96 -543h-132l31 176l28 143l-140 -243h-118l-55 250l-24 -147l-31 -179h-131z" />
<glyph horiz-adv-x="617" d="M67 0l96 543h129l160 -346l24 148l35 198h130l-96 -543h-128l-161 345l-23 -147l-35 -198h-131z" />
<glyph horiz-adv-x="604" d="M75 219q0 146 94 242t229 96q105 0 163.5 -63.5t58.5 -170.5q0 -146 -94 -242t-229 -96q-104 0 -163 63.5t-59 170.5zM227 219q0 -59 22.5 -96t65.5 -37q72 0 112.5 69t40.5 167q0 60 -22.5 97t-65.5 37q-71 0 -112 -69.5t-41 -167.5z" />
<glyph horiz-adv-x="510" d="M67 0l96 543h205q83 0 135 -41.5t52 -118.5q0 -104 -74.5 -161.5t-179.5 -57.5h-60l-29 -164h-145zM258 262h60q37 0 65 26.5t28 83.5q0 73 -61 73h-60z" />
<glyph horiz-adv-x="604" d="M75 219q0 146 94 242t229 96q105 0 163.5 -63.5t58.5 -170.5q0 -103 -49.5 -184t-131.5 -121l95 -135h-160l-69 102h-8q-104 0 -163 63.5t-59 170.5zM227 219q0 -59 22.5 -96t65.5 -37q72 0 112.5 69t40.5 167q0 60 -22.5 97t-65.5 37q-71 0 -112 -69.5t-41 -167.5z" />
<glyph horiz-adv-x="604" d="M75 219q0 146 94 242t229 96q105 0 163.5 -63.5t58.5 -170.5q0 -146 -94 -242t-229 -96q-104 0 -163 63.5t-59 170.5zM182 -140l17 101h298l-18 -101h-297zM227 219q0 -59 22.5 -96t65.5 -37q72 0 112.5 69t40.5 167q0 60 -22.5 97t-65.5 37q-71 0 -112 -69.5t-41 -167.5 z" />
<glyph horiz-adv-x="525" d="M67 0l96 543h199q83 0 135 -40.5t52 -116.5q0 -70 -36.5 -117t-99.5 -68l104 -201h-153l-81 183h-39l-32 -183h-145zM261 276h54q37 0 64 23.5t27 75.5q0 70 -61 70h-55z" />
<glyph horiz-adv-x="516" d="M67 166h141q-3 -42 20 -63.5t59 -21.5q40 0 67.5 18t27.5 54q0 30 -26 44t-77 24q-36 7 -61.5 15.5t-53.5 24.5t-42.5 43t-14.5 63q0 88 70 139t174 51q100 0 153 -45t45 -129h-141q2 38 -18.5 57.5t-55.5 19.5q-38 0 -63 -17t-25 -51q0 -29 25 -42t78 -24 q35 -7 61.5 -15.5t54 -24.5t42.5 -42t15 -61q0 -89 -76 -143.5t-176 -54.5q-103 0 -159 46t-44 135z" />
<glyph horiz-adv-x="457" d="M104 442l17 101h420l-17 -101h-139l-77 -442h-145l78 442h-137z" />
<glyph horiz-adv-x="623" d="M106 195l62 348h144l-58 -333q-23 -124 80 -124q100 0 120 109l62 348h131l-59 -333q-19 -106 -95 -165.5t-179 -59.5q-114 0 -170 53.5t-38 156.5z" />
<glyph horiz-adv-x="536" d="M101 543h147l36 -222l22 -161l78 161l110 222h139l-287 -543h-133z" />
<glyph horiz-adv-x="774" d="M101 543h145l17 -203l12 -154l63 154l87 203h127l20 -203l14 -154l64 154l84 203h136l-248 -543h-129l-22 198l-11 155l-62 -155l-86 -198h-141z" />
<glyph horiz-adv-x="494" d="M-10 0l223 272l-123 271h150l64 -159l123 159h148l-215 -262l128 -281h-149l-70 170l-131 -170h-148z" />
<glyph horiz-adv-x="503" d="M110 543h147l67 -224l143 224h132l-233 -349l-34 -194h-145l37 207z" />
<glyph horiz-adv-x="434" d="M32 0l18 101l282 341h-219l17 101h378l-17 -101l-282 -341h221l-18 -101h-380z" />
<glyph horiz-adv-x="781" d="M-5 0l460 543h383l-18 -101h-223l-19 -110h206l-18 -101h-207l-23 -130h223l-17 -101h-368l20 116h-154l-91 -116h-154zM319 217h93l28 159l-80 -107z" />
<glyph horiz-adv-x="594" d="M39 219l18 102h67l39 222h199q117 0 182.5 -59.5t65.5 -165.5q0 -146 -95 -232t-249 -86h-199l39 219h-67zM230 101h54q81 0 127 57.5t46 152.5q0 62 -29 96.5t-83 34.5h-56l-21 -121h95l-17 -102h-96z" />
<glyph horiz-adv-x="791" d="M67 0l96 543h145l-96 -543h-145zM333 196h145q-14 -110 50 -110q63 0 79 85l66 372h145l-64 -356q-17 -102 -83.5 -152t-160.5 -50q-40 0 -74 10t-62 33t-39.5 66t-1.5 102z" />
<glyph horiz-adv-x="617" d="M67 0l96 543h129l160 -346l24 148l35 198h130l-96 -543q-31 -173 -210 -173q-57 0 -86 15l17 97q31 -10 73 -10q70 0 80 67l-163 349l-23 -147l-35 -198h-131z" />
<glyph horiz-adv-x="604" d="M27 -70l95 133q-47 61 -47 156q0 146 94 242t229 96q42 0 73 -10l46 65h151l-95 -133q47 -61 47 -156q0 -146 -94 -242t-229 -96q-42 0 -73 10l-46 -65h-151zM227 219q0 -59 22.5 -96t65.5 -37q72 0 112.5 69t40.5 167q0 60 -22.5 97t-65.5 37q-71 0 -112 -69.5 t-41 -167.5z" />
<glyph horiz-adv-x="786" d="M75 224q0 145 97.5 232t246.5 87h424l-18 -101h-223l-19 -110h206l-18 -101h-207l-23 -130h223l-17 -101h-424q-113 0 -180.5 59.5t-67.5 164.5zM227 231q0 -130 114 -130h56l60 341h-55q-83 0 -129 -55.5t-46 -155.5z" />
<glyph horiz-adv-x="501" d="M67 0l96 543h145l-14 -74h61q83 0 135 -41.5t52 -119.5q0 -104 -74.5 -161t-179.5 -57h-60l-16 -90h-145zM245 188h60q38 0 65.5 26t27.5 84q0 72 -61 72h-60z" />
<glyph horiz-adv-x="626" d="M67 0l52 292q23 130 105.5 190.5t197.5 60.5h214l-18 -101l-129 -135q33 -11 56.5 -29.5t34.5 -39.5t16 -39t5 -35q0 -85 -61.5 -132t-138.5 -47q-76 0 -110.5 37.5t-24.5 110.5h117q-5 -59 34 -59q26 0 40 19.5t14 53.5q0 80 -105 80h-29l16 95l114 120h-69 q-50 0 -84 -30t-49 -110l-53 -302h-145z" />
<glyph horiz-adv-x="536" d="M-5 0l286 543h134l111 -543h-146l-16 116h-176l-55 -116h-138zM236 217h114l-8 56l-15 139l-64 -139zM253 581l122 113h173l-175 -113h-120z" />
<glyph horiz-adv-x="536" d="M-5 0l286 543h134l111 -543h-146l-16 116h-176l-55 -116h-138zM220 694h97q-3 -15 8.5 -24.5t40.5 -9.5q54 0 61 34h98q-11 -60 -60 -90t-114 -30t-103.5 30t-27.5 90zM236 217h114l-8 56l-15 139l-64 -139z" />
<glyph horiz-adv-x="536" d="M-5 0l286 543h134l111 -543h-146l-16 116h-176l-55 -116h-138zM166 581l147 113h121l105 -113h-120l-58 37l-70 -37h-125zM236 217h114l-8 56l-15 139l-64 -139z" />
<glyph horiz-adv-x="536" d="M-5 0l286 543h134l111 -543h-146l-16 116h-176l-55 -116h-138zM200 637q0 32 25.5 53.5t59.5 21.5q27 0 44.5 -16t17.5 -41q0 -32 -25 -53t-60 -21q-28 0 -45 15.5t-17 40.5zM236 217h114l-8 56l-15 139l-64 -139zM383 637q0 32 25 53.5t59 21.5q28 0 45 -15.5t17 -40.5 q0 -32 -25 -53.5t-60 -21.5q-27 0 -44 15.5t-17 40.5z" />
<glyph horiz-adv-x="536" d="M-5 0l286 543h134l111 -543h-146l-16 116h-176l-55 -116h-138zM214 694h163l90 -113h-110zM236 217h114l-8 56l-15 139l-64 -139z" />
<glyph horiz-adv-x="536" d="M-5 0l286 543h134l111 -543h-146l-16 116h-176l-55 -116h-138zM218 594l16 90h278l-16 -90h-278zM236 217h114l-8 56l-15 139l-64 -139z" />
<glyph horiz-adv-x="536" d="M-5 0l286 543h134l111 -543h-1q-132 -64 -132 -128q0 -16 10.5 -24.5t24.5 -8.5q33 0 72 17l-14 -80q-48 -24 -118 -24q-49 0 -75 24.5t-26 62.5q0 91 133 161h-20l-16 116h-176l-55 -116h-138zM236 217h114l-8 56l-15 139l-64 -139z" />
<glyph horiz-adv-x="536" d="M-5 0l286 543h134l111 -543h-146l-16 116h-176l-55 -116h-138zM236 217h114l-8 56l-15 139l-64 -139zM255 628q0 40 35 65.5t88 25.5q44 0 70 -19t26 -50q0 -41 -35 -66.5t-89 -25.5q-44 0 -69.5 19t-25.5 51zM342 644q-9 -16 10 -27q26 -7 33 16q10 16 -9 27 q-25 7 -34 -16z" />
<glyph horiz-adv-x="536" d="M-5 0l286 543h134l111 -543h-146l-16 116h-176l-55 -116h-138zM185 615q48 89 119 89q25 0 68.5 -14t58.5 -14q22 0 41 26l70 -34q-47 -89 -119 -89q-25 0 -69 14t-59 14q-19 0 -39 -26zM236 217h114l-8 56l-15 139l-64 -139z" />
<glyph horiz-adv-x="557" d="M75 217q0 146 90.5 243t222.5 97q96 0 154 -54t47 -154h-143q3 54 -17 80.5t-58 26.5q-40 0 -69.5 -23.5t-45 -62t-23 -78t-7.5 -79.5q0 -57 20 -92t59 -35q81 0 113 107h143q-24 -100 -101 -154t-173 -54q-101 0 -156.5 62.5t-55.5 169.5zM273 581l122 113h173 l-175 -113h-120z" />
<glyph horiz-adv-x="557" d="M75 217q0 146 90.5 243t222.5 97q96 0 154 -54t47 -154h-143q3 54 -17 80.5t-58 26.5q-40 0 -69.5 -23.5t-45 -62t-23 -78t-7.5 -79.5q0 -57 20 -92t59 -35q81 0 113 107h143q-24 -100 -101 -154t-173 -54q-101 0 -156.5 62.5t-55.5 169.5zM217 694h120l57 -37l71 37h125 l-147 -113h-121z" />
<glyph horiz-adv-x="557" d="M75 217q0 146 90.5 243t222.5 97q96 0 154 -54t47 -154h-143q3 54 -17 80.5t-58 26.5q-40 0 -69.5 -23.5t-45 -62t-23 -78t-7.5 -79.5q0 -57 20 -92t59 -35q81 0 113 107h143q-21 -92 -88.5 -145t-154.5 -62l-45 -49q41 2 70 -16t29 -55q0 -55 -47 -84.5t-113 -29.5 q-40 0 -69 15l11 63q26 -13 61 -13q19 0 34 8.5t15 26.5q0 25 -38 25q-19 0 -36 -5l-18 44l68 73q-79 14 -122 74.5t-43 153.5z" />
<glyph horiz-adv-x="557" d="M75 217q0 146 90.5 243t222.5 97q96 0 154 -54t47 -154h-143q3 54 -17 80.5t-58 26.5q-40 0 -69.5 -23.5t-45 -62t-23 -78t-7.5 -79.5q0 -57 20 -92t59 -35q81 0 113 107h143q-24 -100 -101 -154t-173 -54q-101 0 -156.5 62.5t-55.5 169.5zM196 581l147 113h121l105 -113 h-120l-58 37l-70 -37h-125z" />
<glyph horiz-adv-x="557" d="M75 217q0 146 90.5 243t222.5 97q96 0 154 -54t47 -154h-143q3 54 -17 80.5t-58 26.5q-40 0 -69.5 -23.5t-45 -62t-23 -78t-7.5 -79.5q0 -57 20 -92t59 -35q81 0 113 107h143q-24 -100 -101 -154t-173 -54q-101 0 -156.5 62.5t-55.5 169.5zM318 635q0 34 26 56t61 22 q28 0 46 -16t18 -42q0 -33 -26 -55t-62 -22q-28 0 -45.5 16t-17.5 41z" />
<glyph horiz-adv-x="594" d="M67 0l96 543h199q117 0 182.5 -59.5t65.5 -165.5q0 -146 -95 -232t-249 -86h-199zM199 694h120l57 -37l71 37h125l-147 -113h-121zM230 101h54q81 0 127 57.5t46 152.5q0 62 -29 96.5t-83 34.5h-56z" />
<glyph horiz-adv-x="594" d="M39 219l18 102h67l39 222h199q117 0 182.5 -59.5t65.5 -165.5q0 -146 -95 -232t-249 -86h-199l39 219h-67zM230 101h54q81 0 127 57.5t46 152.5q0 62 -29 96.5t-83 34.5h-56l-21 -121h95l-17 -102h-96z" />
<glyph horiz-adv-x="474" d="M67 0l96 543h368l-18 -101h-223l-19 -110h206l-18 -101h-207l-22 -130h223l-18 -101h-368zM228 581l122 113h173l-175 -113h-120z" />
<glyph horiz-adv-x="474" d="M67 0l96 543h368l-18 -101h-223l-19 -110h206l-18 -101h-207l-22 -130h223l-18 -101h-368zM212 694h97q-3 -15 8.5 -24.5t40.5 -9.5q54 0 61 34h98q-11 -60 -60 -90t-114 -30t-103.5 30t-27.5 90z" />
<glyph horiz-adv-x="474" d="M67 0l96 543h368l-18 -101h-223l-19 -110h206l-18 -101h-207l-22 -130h223l-18 -101h-368zM179 694h120l57 -37l71 37h125l-147 -113h-121z" />
<glyph horiz-adv-x="474" d="M67 0l96 543h368l-18 -101h-223l-19 -110h206l-18 -101h-207l-22 -130h223l-18 -101h-368zM158 581l147 113h121l105 -113h-120l-58 37l-70 -37h-125z" />
<glyph horiz-adv-x="474" d="M67 0l96 543h368l-18 -101h-223l-19 -110h206l-18 -101h-207l-22 -130h223l-18 -101h-368zM192 637q0 32 25.5 53.5t59.5 21.5q27 0 44.5 -16t17.5 -41q0 -32 -25 -53t-60 -21q-28 0 -45 15.5t-17 40.5zM375 637q0 32 25 53.5t59 21.5q28 0 45 -15.5t17 -40.5 q0 -32 -25 -53.5t-60 -21.5q-27 0 -44 15.5t-17 40.5z" />
<glyph horiz-adv-x="474" d="M67 0l96 543h368l-18 -101h-223l-19 -110h206l-18 -101h-207l-22 -130h223l-18 -101h-368zM280 635q0 34 26 56t61 22q28 0 46 -16t18 -42q0 -33 -26 -55t-62 -22q-28 0 -45.5 16t-17.5 41z" />
<glyph horiz-adv-x="474" d="M67 0l96 543h368l-18 -101h-223l-19 -110h206l-18 -101h-207l-22 -130h223l-18 -101h-368zM204 694h163l90 -113h-110z" />
<glyph horiz-adv-x="474" d="M67 0l96 543h368l-18 -101h-223l-19 -110h206l-18 -101h-207l-22 -130h223l-18 -101h-368zM208 594l16 90h278l-16 -90h-278z" />
<glyph horiz-adv-x="474" d="M67 0l96 543h368l-18 -101h-223l-19 -110h206l-18 -101h-207l-22 -130h223l-18 -101h-1q-132 -64 -132 -128q0 -16 10.5 -24.5t24.5 -8.5q33 0 72 17l-14 -80q-48 -24 -118 -24q-49 0 -75 24.5t-26 62.5q0 91 133 161h-242z" />
<glyph horiz-adv-x="574" d="M75 200q0 159 89 258t227 99q94 0 150.5 -50t47.5 -139h-143q2 88 -75 88q-52 0 -86 -42t-45.5 -93t-11.5 -106q0 -129 86 -129q50 0 97 31l12 70h-95l16 94h228l-49 -281h-133l8 44q-27 -26 -71 -42.5t-81 -16.5q-83 0 -127 57.5t-44 157.5zM257 694h97 q-3 -15 8.5 -24.5t40.5 -9.5q54 0 61 34h98q-11 -60 -60 -90t-114 -30t-103.5 30t-27.5 90z" />
<glyph horiz-adv-x="574" d="M75 200q0 159 89 258t227 99q94 0 150.5 -50t47.5 -139h-143q2 88 -75 88q-52 0 -86 -42t-45.5 -93t-11.5 -106q0 -129 86 -129q50 0 97 31l12 70h-95l16 94h228l-49 -281h-133l8 44q-27 -26 -71 -42.5t-81 -16.5q-83 0 -127 57.5t-44 157.5zM203 581l147 113h121 l105 -113h-120l-58 37l-70 -37h-125z" />
<glyph horiz-adv-x="574" d="M75 200q0 159 89 258t227 99q94 0 150.5 -50t47.5 -139h-143q2 88 -75 88q-52 0 -86 -42t-45.5 -93t-11.5 -106q0 -129 86 -129q50 0 97 31l12 70h-95l16 94h228l-49 -281h-133l8 44q-27 -26 -71 -42.5t-81 -16.5q-83 0 -127 57.5t-44 157.5zM164 -248l55 195h137 l-89 -195h-103z" />
<glyph horiz-adv-x="574" d="M75 200q0 159 89 258t227 99q94 0 150.5 -50t47.5 -139h-143q2 88 -75 88q-52 0 -86 -42t-45.5 -93t-11.5 -106q0 -129 86 -129q50 0 97 31l12 70h-95l16 94h228l-49 -281h-133l8 44q-27 -26 -71 -42.5t-81 -16.5q-83 0 -127 57.5t-44 157.5zM325 635q0 34 26 56t61 22 q28 0 46 -16t18 -42q0 -33 -26 -55t-62 -22q-28 0 -45.5 16t-17.5 41z" />
<glyph horiz-adv-x="627" d="M67 0l66 372h-45l18 101h45l12 70h145l-12 -70h199l12 70h144l-12 -70h45l-18 -101h-45l-66 -372h-144l36 205h-199l-36 -205h-145zM266 306h200l11 66h-199z" />
<glyph horiz-adv-x="627" d="M67 0l96 543h145l-37 -211h199l37 211h144l-96 -543h-144l41 231h-200l-40 -231h-145zM227 581l147 113h121l105 -113h-120l-58 37l-70 -37h-125z" />
<glyph horiz-adv-x="284" d="M67 0l96 543h145l-96 -543h-145zM139 581l122 113h173l-175 -113h-120z" />
<glyph horiz-adv-x="284" d="M67 0l96 543h145l-96 -543h-145zM114 694h97q-3 -15 8.5 -24.5t40.5 -9.5q54 0 61 34h98q-11 -60 -60 -90t-114 -30t-103.5 30t-27.5 90z" />
<glyph horiz-adv-x="284" d="M60 581l147 113h121l105 -113h-120l-58 37l-70 -37h-125zM67 0l96 543h145l-96 -543h-145z" />
<glyph horiz-adv-x="284" d="M67 0l96 543h145l-96 -543h-145zM100 637q0 32 25.5 53.5t59.5 21.5q27 0 44.5 -16t17.5 -41q0 -32 -25 -53t-60 -21q-27 0 -44.5 15.5t-17.5 40.5zM269 637q0 32 25.5 53.5t59.5 21.5q27 0 44 -15.5t17 -40.5q0 -32 -24.5 -53.5t-59.5 -21.5q-28 0 -45 15.5t-17 40.5z " />
<glyph horiz-adv-x="284" d="M67 0l96 543h145l-96 -543h-145zM100 694h163l90 -113h-110z" />
<glyph horiz-adv-x="284" d="M67 0l96 543h145l-96 -543h-145zM117 594l16 90h263l-16 -90h-263z" />
<glyph horiz-adv-x="284" d="M-46 -161q0 91 133 161h-20l96 543h145l-96 -543q-132 -64 -132 -128q0 -16 10.5 -24.5t24.5 -8.5q33 0 72 17l-14 -80q-48 -24 -118 -24q-49 0 -75 24.5t-26 62.5z" />
<glyph horiz-adv-x="284" d="M67 0l96 543h145l-96 -543h-145zM79 615q48 89 119 89q25 0 68.5 -14t58.5 -14q21 0 41 26l70 -34q-47 -89 -119 -89q-25 0 -69 14t-59 14q-19 0 -39 -26z" />
<glyph horiz-adv-x="507" d="M49 196h145q-14 -110 50 -110q63 0 79 85l66 372h145l-64 -356q-17 -102 -83.5 -152t-160.5 -50q-40 0 -74 10t-62 33t-39.5 66t-1.5 102zM285 581l147 113h121l105 -113h-120l-58 37l-70 -37h-125z" />
<glyph horiz-adv-x="557" d="M67 0l96 543h145l-43 -241l198 241h148l-217 -256l153 -287h-160l-128 265l-47 -265h-145zM142 -248l55 195h137l-89 -195h-103z" />
<glyph horiz-adv-x="453" d="M70 0l96 543h145l-78 -442h201l-18 -101h-346zM145 581l122 113h173l-175 -113h-120z" />
<glyph horiz-adv-x="453" d="M70 0l96 543h145l-78 -442h201l-18 -101h-346zM367 367l42 235h132l-70 -235h-104z" />
<glyph horiz-adv-x="453" d="M70 0l96 543h145l-78 -442h201l-18 -101h-346zM99 -248l55 195h137l-89 -195h-103z" />
<glyph horiz-adv-x="453" d="M70 0l96 543h145l-78 -442h201l-18 -101h-346zM361 281q0 34 26 56t61 22q28 0 46 -16t18 -42q0 -33 -26 -55t-62 -22q-28 0 -45.5 16t-17.5 41z" />
<glyph horiz-adv-x="453" d="M22 131l21 119l78 41l45 252h145l-30 -170l114 59l-21 -120l-114 -59l-27 -152h201l-18 -101h-346l30 171z" />
<glyph horiz-adv-x="617" d="M67 0l96 543h129l160 -346l24 148l35 198h130l-96 -543h-128l-161 345l-23 -147l-35 -198h-131zM294 581l122 113h173l-175 -113h-120z" />
<glyph horiz-adv-x="617" d="M67 0l96 543h129l160 -346l24 148l35 198h130l-96 -543h-128l-161 345l-23 -147l-35 -198h-131zM236 694h120l57 -37l71 37h125l-147 -113h-121z" />
<glyph horiz-adv-x="617" d="M67 0l96 543h129l160 -346l24 148l35 198h130l-96 -543h-128l-161 345l-23 -147l-35 -198h-131zM191 -248l55 195h137l-89 -195h-103z" />
<glyph horiz-adv-x="617" d="M67 0l96 543h129l160 -346l24 148l35 198h130l-96 -543h-128l-161 345l-23 -147l-35 -198h-131zM233 615q48 89 119 89q25 0 68.5 -14t58.5 -14q22 0 41 26l70 -34q-47 -89 -119 -89q-25 0 -69 14t-59 14q-19 0 -39 -26z" />
<glyph horiz-adv-x="604" d="M75 219q0 146 94 242t229 96q105 0 163.5 -63.5t58.5 -170.5q0 -146 -94 -242t-229 -96q-104 0 -163 63.5t-59 170.5zM227 219q0 -59 22.5 -96t65.5 -37q72 0 112.5 69t40.5 167q0 60 -22.5 97t-65.5 37q-71 0 -112 -69.5t-41 -167.5zM288 581l122 113h173l-175 -113 h-120z" />
<glyph horiz-adv-x="604" d="M75 219q0 146 94 242t229 96q105 0 163.5 -63.5t58.5 -170.5q0 -146 -94 -242t-229 -96q-104 0 -163 63.5t-59 170.5zM227 219q0 -59 22.5 -96t65.5 -37q72 0 112.5 69t40.5 167q0 60 -22.5 97t-65.5 37q-71 0 -112 -69.5t-41 -167.5zM270 694h97q-3 -15 8.5 -24.5 t40.5 -9.5q54 0 61 34h98q-11 -60 -60 -90t-114 -30t-103.5 30t-27.5 90z" />
<glyph horiz-adv-x="604" d="M75 219q0 146 94 242t229 96q105 0 163.5 -63.5t58.5 -170.5q0 -146 -94 -242t-229 -96q-104 0 -163 63.5t-59 170.5zM216 581l147 113h121l105 -113h-120l-58 37l-70 -37h-125zM227 219q0 -59 22.5 -96t65.5 -37q72 0 112.5 69t40.5 167q0 60 -22.5 97t-65.5 37 q-71 0 -112 -69.5t-41 -167.5z" />
<glyph horiz-adv-x="604" d="M75 219q0 146 94 242t229 96q105 0 163.5 -63.5t58.5 -170.5q0 -146 -94 -242t-229 -96q-104 0 -163 63.5t-59 170.5zM227 219q0 -59 22.5 -96t65.5 -37q72 0 112.5 69t40.5 167q0 60 -22.5 97t-65.5 37q-71 0 -112 -69.5t-41 -167.5zM249 637q0 32 25.5 53.5t59.5 21.5 q27 0 44.5 -16t17.5 -41q0 -32 -25 -53t-60 -21q-28 0 -45 15.5t-17 40.5zM432 637q0 32 25 53.5t59 21.5q28 0 45 -15.5t17 -40.5q0 -32 -25 -53.5t-60 -21.5q-27 0 -44 15.5t-17 40.5z" />
<glyph horiz-adv-x="604" d="M75 219q0 146 94 242t229 96q105 0 163.5 -63.5t58.5 -170.5q0 -146 -94 -242t-229 -96q-104 0 -163 63.5t-59 170.5zM227 219q0 -59 22.5 -96t65.5 -37q72 0 112.5 69t40.5 167q0 60 -22.5 97t-65.5 37q-71 0 -112 -69.5t-41 -167.5zM264 694h163l90 -113h-110z" />
<glyph horiz-adv-x="604" d="M75 219q0 146 94 242t229 96q105 0 163.5 -63.5t58.5 -170.5q0 -146 -94 -242t-229 -96q-104 0 -163 63.5t-59 170.5zM219 581l104 113h156l-151 -113h-109zM227 219q0 -59 22.5 -96t65.5 -37q72 0 112.5 69t40.5 167q0 60 -22.5 97t-65.5 37q-71 0 -112 -69.5 t-41 -167.5zM406 581l103 113h157l-151 -113h-109z" />
<glyph horiz-adv-x="604" d="M75 219q0 146 94 242t229 96q105 0 163.5 -63.5t58.5 -170.5q0 -146 -94 -242t-229 -96q-104 0 -163 63.5t-59 170.5zM227 219q0 -59 22.5 -96t65.5 -37q72 0 112.5 69t40.5 167q0 60 -22.5 97t-65.5 37q-71 0 -112 -69.5t-41 -167.5zM266 594l16 90h278l-16 -90h-278z " />
<glyph horiz-adv-x="604" d="M75 219q0 146 94 242t229 96q105 0 163.5 -63.5t58.5 -170.5q0 -146 -94 -242t-229 -96q-104 0 -163 63.5t-59 170.5zM227 219q0 -59 22.5 -96t65.5 -37q72 0 112.5 69t40.5 167q0 60 -22.5 97t-65.5 37q-71 0 -112 -69.5t-41 -167.5zM234 615q48 89 119 89 q25 0 68.5 -14t58.5 -14q22 0 41 26l70 -34q-47 -89 -119 -89q-25 0 -69 14t-59 14q-20 0 -39 -26z" />
<glyph horiz-adv-x="525" d="M67 0l96 543h199q83 0 135 -40.5t52 -116.5q0 -70 -36.5 -117t-99.5 -68l104 -201h-153l-81 183h-39l-32 -183h-145zM235 581l122 113h173l-175 -113h-120zM261 276h54q37 0 64 23.5t27 75.5q0 70 -61 70h-55z" />
<glyph horiz-adv-x="525" d="M67 0l96 543h199q83 0 135 -40.5t52 -116.5q0 -70 -36.5 -117t-99.5 -68l104 -201h-153l-81 183h-39l-32 -183h-145zM187 694h120l57 -37l71 37h125l-147 -113h-121zM261 276h54q37 0 64 23.5t27 75.5q0 70 -61 70h-55z" />
<glyph horiz-adv-x="525" d="M67 0l96 543h199q83 0 135 -40.5t52 -116.5q0 -70 -36.5 -117t-99.5 -68l104 -201h-153l-81 183h-39l-32 -183h-145zM137 -248l55 195h137l-89 -195h-103zM261 276h54q37 0 64 23.5t27 75.5q0 70 -61 70h-55z" />
<glyph horiz-adv-x="516" d="M67 166h141q-3 -42 20 -63.5t59 -21.5q40 0 67.5 18t27.5 54q0 30 -26 44t-77 24q-36 7 -61.5 15.5t-53.5 24.5t-42.5 43t-14.5 63q0 88 70 139t174 51q100 0 153 -45t45 -129h-141q2 38 -18.5 57.5t-55.5 19.5q-38 0 -63 -17t-25 -51q0 -29 25 -42t78 -24 q35 -7 61.5 -15.5t54 -24.5t42.5 -42t15 -61q0 -89 -76 -143.5t-176 -54.5q-103 0 -159 46t-44 135zM241 581l122 113h173l-175 -113h-120z" />
<glyph horiz-adv-x="516" d="M67 166h141q-3 -42 20 -63.5t59 -21.5q40 0 67.5 18t27.5 54q0 30 -26 44t-77 24q-36 7 -61.5 15.5t-53.5 24.5t-42.5 43t-14.5 63q0 88 70 139t174 51q100 0 153 -45t45 -129h-141q2 38 -18.5 57.5t-55.5 19.5q-38 0 -63 -17t-25 -51q0 -29 25 -42t78 -24 q35 -7 61.5 -15.5t54 -24.5t42.5 -42t15 -61q0 -89 -76 -143.5t-176 -54.5q-103 0 -159 46t-44 135zM191 694h120l57 -37l71 37h125l-147 -113h-121z" />
<glyph horiz-adv-x="516" d="M67 166h141q-3 -42 20 -63.5t59 -21.5q40 0 67.5 18t27.5 54q0 30 -26 44t-77 24q-36 7 -61.5 15.5t-53.5 24.5t-42.5 43t-14.5 63q0 88 70 139t174 51q100 0 153 -45t45 -129h-141q2 38 -18.5 57.5t-55.5 19.5q-38 0 -63 -17t-25 -51q0 -29 25 -42t78 -24 q35 -7 61.5 -15.5t54 -24.5t42.5 -42t15 -61q0 -89 -76 -143.5t-176 -54.5q-103 0 -159 46t-44 135zM131 -248l55 195h137l-89 -195h-103z" />
<glyph horiz-adv-x="516" d="M67 166h141q-3 -42 20 -63.5t59 -21.5q40 0 67.5 18t27.5 54q0 30 -26 44t-77 24q-36 7 -61.5 15.5t-53.5 24.5t-42.5 43t-14.5 63q0 88 70 139t174 51q100 0 153 -45t45 -129h-141q2 38 -18.5 57.5t-55.5 19.5q-38 0 -63 -17t-25 -51q0 -29 25 -42t78 -24 q35 -7 61.5 -15.5t54 -24.5t42.5 -42t15 -61q0 -89 -76 -143.5t-176 -54.5q-103 0 -159 46t-44 135zM170 581l147 113h121l105 -113h-120l-58 37l-70 -37h-125z" />
<glyph horiz-adv-x="516" d="M67 166h141q-3 -42 20 -63.5t59 -21.5q40 0 67.5 18t27.5 54q0 30 -26 44t-77 24q-36 7 -61.5 15.5t-53.5 24.5t-42.5 43t-14.5 63q0 88 70 139t174 51q100 0 153 -45t45 -129h-141q2 38 -18.5 57.5t-55.5 19.5q-38 0 -63 -17t-25 -51q0 -29 25 -42t78 -24 q35 -7 61.5 -15.5t54 -24.5t42.5 -42t15 -61q0 -82 -65.5 -135t-157.5 -62l-45 -49q41 2 70 -16t29 -55q0 -55 -47 -84.5t-113 -29.5q-40 0 -69 15l11 63q26 -13 61 -13q19 0 34 8.5t15 26.5q0 25 -38 25q-19 0 -36 -5l-18 44l67 72q-81 11 -122.5 56t-30.5 122z" />
<glyph horiz-adv-x="457" d="M104 442l17 101h420l-17 -101h-139l-21 -121h88l-18 -102h-88l-38 -219h-145l39 219h-80l18 102h80l21 121h-137z" />
<glyph horiz-adv-x="457" d="M104 442l17 101h420l-17 -101h-139l-77 -442h-145l78 442h-137zM176 694h120l57 -37l71 37h125l-147 -113h-121z" />
<glyph horiz-adv-x="457" d="M94 -233l11 63q26 -13 61 -13q19 0 34 8.5t15 26.5q0 25 -38 25q-19 0 -36 -5l-18 44l78 84h-38l78 442h-137l17 101h420l-17 -101h-139l-77 -442h-27l-57 -63q41 2 70 -16t29 -55q0 -55 -47 -84.5t-113 -29.5q-40 0 -69 15z" />
<glyph horiz-adv-x="457" d="M104 442l17 101h420l-17 -101h-139l-77 -442h-145l78 442h-137zM107 -248l55 195h137l-89 -195h-103z" />
<glyph horiz-adv-x="623" d="M106 195l62 348h144l-58 -333q-23 -124 80 -124q100 0 120 109l62 348h131l-59 -333q-19 -106 -95 -165.5t-179 -59.5q-114 0 -170 53.5t-38 156.5zM304 581l122 113h173l-175 -113h-120z" />
<glyph horiz-adv-x="623" d="M106 195l62 348h144l-58 -333q-23 -124 80 -124q100 0 120 109l62 348h131l-59 -333q-19 -106 -95 -165.5t-179 -59.5q-114 0 -170 53.5t-38 156.5zM281 694h97q-3 -15 8.5 -24.5t40.5 -9.5q54 0 61 34h98q-11 -60 -60 -90t-114 -30t-103.5 30t-27.5 90z" />
<glyph horiz-adv-x="623" d="M106 195l62 348h144l-58 -333q-23 -124 80 -124q100 0 120 109l62 348h131l-59 -333q-19 -106 -95 -165.5t-179 -59.5q-114 0 -170 53.5t-38 156.5zM227 581l147 113h121l105 -113h-120l-58 37l-70 -37h-125z" />
<glyph horiz-adv-x="623" d="M106 195l62 348h144l-58 -333q-23 -124 80 -124q100 0 120 109l62 348h131l-59 -333q-19 -106 -95 -165.5t-179 -59.5q-114 0 -170 53.5t-38 156.5zM261 637q0 32 25.5 53.5t59.5 21.5q27 0 44.5 -16t17.5 -41q0 -32 -25 -53t-60 -21q-28 0 -45 15.5t-17 40.5zM444 637 q0 32 25 53.5t59 21.5q28 0 45 -15.5t17 -40.5q0 -32 -25 -53.5t-60 -21.5q-27 0 -44 15.5t-17 40.5z" />
<glyph horiz-adv-x="623" d="M106 195l62 348h144l-58 -333q-23 -124 80 -124q100 0 120 109l62 348h131l-59 -333q-19 -106 -95 -165.5t-179 -59.5q-114 0 -170 53.5t-38 156.5zM270 694h163l90 -113h-110z" />
<glyph horiz-adv-x="623" d="M106 195l62 348h144l-58 -333q-23 -124 80 -124q100 0 120 109l62 348h131l-59 -333q-19 -106 -95 -165.5t-179 -59.5q-114 0 -170 53.5t-38 156.5zM230 581l104 113h156l-151 -113h-109zM417 581l103 113h157l-151 -113h-109z" />
<glyph horiz-adv-x="623" d="M106 195l62 348h144l-58 -333q-23 -124 80 -124q100 0 120 109l62 348h131l-59 -333q-19 -106 -95 -165.5t-179 -59.5q-114 0 -170 53.5t-38 156.5zM277 594l16 90h278l-16 -90h-278z" />
<glyph horiz-adv-x="623" d="M106 195l62 348h144l-58 -333q-23 -124 80 -124q100 0 120 109l62 348h131l-59 -333q-15 -80 -63 -134t-118 -77q-130 -64 -130 -127q0 -16 10.5 -24.5t24.5 -8.5q33 0 72 17l-14 -80q-48 -24 -118 -24q-49 0 -75 24.5t-26 62.5q0 83 112 149q-89 12 -130.5 64.5 t-26.5 142.5z" />
<glyph horiz-adv-x="623" d="M106 195l62 348h144l-58 -333q-23 -124 80 -124q100 0 120 109l62 348h131l-59 -333q-19 -106 -95 -165.5t-179 -59.5q-114 0 -170 53.5t-38 156.5zM314 628q0 40 35 65.5t88 25.5q44 0 70 -19t26 -50q0 -41 -35 -66.5t-89 -25.5q-44 0 -69.5 19t-25.5 51zM401 644 q-9 -16 10 -27q26 -7 33 16q10 16 -9 27q-25 7 -34 -16z" />
<glyph horiz-adv-x="623" d="M106 195l62 348h144l-58 -333q-23 -124 80 -124q100 0 120 109l62 348h131l-59 -333q-19 -106 -95 -165.5t-179 -59.5q-114 0 -170 53.5t-38 156.5zM245 615q48 89 119 89q25 0 68.5 -14t58.5 -14q21 0 41 26l70 -34q-47 -89 -119 -89q-25 0 -69 14t-59 14q-19 0 -39 -26 z" />
<glyph horiz-adv-x="774" d="M101 543h145l17 -203l12 -154l63 154l87 203h127l20 -203l14 -154l64 154l84 203h136l-248 -543h-129l-22 198l-11 155l-62 -155l-86 -198h-141zM387 581l122 113h173l-175 -113h-120z" />
<glyph horiz-adv-x="774" d="M101 543h145l17 -203l12 -154l63 154l87 203h127l20 -203l14 -154l64 154l84 203h136l-248 -543h-129l-22 198l-11 155l-62 -155l-86 -198h-141zM308 581l147 113h121l105 -113h-120l-58 37l-70 -37h-125z" />
<glyph horiz-adv-x="774" d="M101 543h145l17 -203l12 -154l63 154l87 203h127l20 -203l14 -154l64 154l84 203h136l-248 -543h-129l-22 198l-11 155l-62 -155l-86 -198h-141zM341 637q0 32 25.5 53.5t59.5 21.5q27 0 44.5 -16t17.5 -41q0 -32 -25 -53t-60 -21q-28 0 -45 15.5t-17 40.5zM524 637 q0 32 25 53.5t59 21.5q28 0 45 -15.5t17 -40.5q0 -32 -25 -53.5t-60 -21.5q-27 0 -44 15.5t-17 40.5z" />
<glyph horiz-adv-x="774" d="M101 543h145l17 -203l12 -154l63 154l87 203h127l20 -203l14 -154l64 154l84 203h136l-248 -543h-129l-22 198l-11 155l-62 -155l-86 -198h-141zM346 694h163l90 -113h-110z" />
<glyph horiz-adv-x="503" d="M110 543h147l67 -224l143 224h132l-233 -349l-34 -194h-145l37 207zM261 581l122 113h173l-175 -113h-120z" />
<glyph horiz-adv-x="503" d="M110 543h147l67 -224l143 224h132l-233 -349l-34 -194h-145l37 207zM179 581l147 113h121l105 -113h-120l-58 37l-70 -37h-125z" />
<glyph horiz-adv-x="503" d="M110 543h147l67 -224l143 224h132l-233 -349l-34 -194h-145l37 207zM213 637q0 32 25.5 53.5t59.5 21.5q27 0 44.5 -16t17.5 -41q0 -32 -25 -53t-60 -21q-28 0 -45 15.5t-17 40.5zM396 637q0 32 25 53.5t59 21.5q28 0 45 -15.5t17 -40.5q0 -32 -25 -53.5t-60 -21.5 q-27 0 -44 15.5t-17 40.5z" />
<glyph horiz-adv-x="503" d="M110 543h147l67 -224l143 224h132l-233 -349l-34 -194h-145l37 207zM207 694h163l90 -113h-110z" />
<glyph horiz-adv-x="434" d="M32 0l18 101l282 341h-219l17 101h378l-17 -101l-282 -341h221l-18 -101h-380zM219 581l122 113h173l-175 -113h-120z" />
<glyph horiz-adv-x="434" d="M32 0l18 101l282 341h-219l17 101h378l-17 -101l-282 -341h221l-18 -101h-380zM165 694h120l57 -37l71 37h125l-147 -113h-121z" />
<glyph horiz-adv-x="434" d="M32 0l18 101l282 341h-219l17 101h378l-17 -101l-282 -341h221l-18 -101h-380zM264 635q0 34 26 56t61 22q28 0 46 -16t18 -42q0 -33 -26 -55t-62 -22q-28 0 -45.5 16t-17.5 41z" />
<glyph horiz-adv-x="781" d="M-5 0l460 543h383l-18 -101h-223l-19 -110h206l-18 -101h-207l-23 -130h223l-17 -101h-368l20 116h-154l-91 -116h-154zM319 217h93l28 159l-80 -107zM458 581l122 113h173l-175 -113h-120z" />
<glyph horiz-adv-x="642" d="M70 426l17 97h82l10 55q16 90 73.5 135.5t137.5 45.5q58 0 92 -18l-14 -86q-34 8 -57 8q-69 0 -85 -84l-9 -56h335l-100 -565q-32 -181 -219 -181q-49 0 -85 18l16 86q25 -8 57 -8q28 0 52 21t32 63l82 469h-188l-75 -426h-147l75 426h-82zM516 651q0 42 30.5 72.5 t71.5 30.5q34 0 52.5 -21t18.5 -54q0 -42 -30 -72.5t-72 -30.5q-33 0 -52 21t-19 54z" />
<glyph horiz-adv-x="694" d="M70 426l17 97h82l10 55q16 90 73.5 135.5t137.5 45.5q64 0 100 -18l-15 -86q-34 8 -64 8q-69 0 -85 -84l-10 -56h188l24 137h147l-24 -137h106l-17 -97h-106l-75 -426h-147l75 426h-188l-75 -426h-147l75 426h-82z" />
<glyph horiz-adv-x="984" d="M70 426l17 97h82l10 55q16 90 73.5 135.5t137.5 45.5q64 0 100 -18l-15 -86q-34 8 -64 8q-69 0 -85 -84l-10 -56h196l9 55q17 90 74 135.5t137 45.5q57 0 93 -18l-15 -86q-34 8 -56 8q-70 0 -85 -84l-10 -56h335l-99 -565q-33 -181 -220 -181q-48 0 -84 18l15 86 q27 -8 57 -8q29 0 52.5 20.5t31.5 63.5l82 469h-187l-75 -426h-148l75 426h-195l-75 -426h-147l75 426h-82zM859 651q0 43 30.5 73t71.5 30q34 0 52.5 -21t18.5 -54q0 -42 -30.5 -72.5t-71.5 -30.5q-34 0 -52.5 21t-18.5 54z" />
<glyph horiz-adv-x="1037" d="M70 426l17 97h82l10 55q16 90 73.5 135.5t137.5 45.5q64 0 100 -18l-15 -86q-34 8 -64 8q-69 0 -85 -84l-9 -56h195l9 55q17 90 74 135.5t137 45.5q66 0 100 -18l-14 -86q-34 8 -64 8q-70 0 -85 -84l-10 -56h187l24 137h148l-24 -137h105l-16 -97h-106l-75 -426h-148 l75 426h-187l-75 -426h-148l75 426h-195l-75 -426h-147l75 426h-82z" />
<glyph horiz-adv-x="722" d="M70 426l17 97h104l24 137h148l-24 -137h192l24 137h148l-24 -137h105l-16 -97h-106l-75 -426h-148l75 426h-192l-75 -426h-148l75 426h-104z" />
<glyph horiz-adv-x="349" d="M112 551q0 84 45 140t115 56q44 0 70 -34l4 25h107l-51 -298h-108l5 28q-46 -37 -92 -37t-70.5 32.5t-24.5 87.5zM221 563q0 -55 39 -55q26 0 49 20l22 123q-13 19 -40 19q-32 0 -51 -27.5t-19 -79.5z" />
<glyph horiz-adv-x="349" d="M103 440l74 424h107l-27 -154q46 37 92 37q47 0 71.5 -32t24.5 -86q0 -84 -45 -141t-115 -57q-45 0 -71 34l-4 -25h-107zM225 528q15 -20 40 -20q33 0 52 29t19 81t-40 52q-26 0 -49 -20l7 44z" />
<glyph horiz-adv-x="330" d="M113 559q0 84 54 136t135 52q58 0 94.5 -31.5t31.5 -85.5h-104q1 46 -35 46q-33 0 -50 -34t-17 -81q0 -58 37 -58q31 0 49 41h104q-15 -52 -62.5 -82.5t-103.5 -30.5q-63 0 -98 34.5t-35 93.5z" />
<glyph horiz-adv-x="349" d="M112 551q0 84 45 140t115 56q44 0 70 -34l26 151h108l-74 -424h-108l5 28q-46 -37 -92 -37t-70.5 32.5t-24.5 87.5zM221 563q0 -55 39 -55q26 0 49 20l22 123q-13 19 -40 19q-32 0 -51 -27.5t-19 -79.5z" />
<glyph horiz-adv-x="334" d="M113 560q0 82 55.5 134.5t132.5 52.5q72 0 106.5 -43.5t13.5 -133.5h-200v-12q0 -55 39 -55q32 0 44 27h105q-14 -45 -61 -72t-100 -27q-64 0 -99.5 35t-35.5 94zM230 624h94q6 54 -36 54q-40 0 -58 -54z" />
<glyph horiz-adv-x="248" d="M123 664l13 74h49l5 23q19 112 138 112q42 0 66 -11l-12 -67q-16 4 -38 4q-40 0 -47 -38l-4 -23h79l-13 -74h-79l-39 -224h-107l38 224h-49z" />
<glyph horiz-adv-x="349" d="M91 417h105q-3 -19 8.5 -26t32.5 -7q47 0 55 47l8 43q-46 -36 -92 -36q-47 0 -71.5 31.5t-24.5 84.5q0 84 44.5 138.5t115.5 54.5q44 0 70 -34l4 25h107l-51 -297q-11 -62 -64 -95t-114 -33q-66 0 -103 25t-30 79zM222 567q0 -52 39 -52q27 0 49 20l21 116q-13 19 -40 19 q-69 0 -69 -103z" />
<glyph horiz-adv-x="362" d="M103 440l74 424h107l-28 -162q56 45 113 45q41 0 66.5 -23t15.5 -75l-36 -209h-108l31 179q8 45 -35 45q-25 0 -58 -24l1 9l-36 -209h-107z" />
<glyph horiz-adv-x="157" d="M105 440l52 298h107l-52 -298h-107zM165 815q0 28 20.5 47.5t50.5 19.5q24 0 37.5 -14t13.5 -35q0 -27 -21 -46.5t-50 -19.5q-23 0 -37 13.5t-14 34.5z" />
<glyph horiz-adv-x="157" d="M84 321l73 417h107l-73 -417h-107zM165 815q0 28 20.5 47.5t50.5 19.5q24 0 37.5 -14t13.5 -35q0 -27 -21 -46.5t-50 -19.5q-23 0 -37 13.5t-14 34.5z" />
<glyph horiz-adv-x="327" d="M103 440l74 424h107l-44 -253l107 127h110l-122 -138l80 -160h-114l-66 142l-25 -142h-107z" />
<glyph horiz-adv-x="157" d="M103 440l74 424h107l-74 -424h-107z" />
<glyph horiz-adv-x="558" d="M103 440l52 298h107l-6 -36q56 45 111 45q66 0 79 -49q63 49 121 49q40 0 65 -22.5t16 -75.5l-37 -209h-108l31 179q8 45 -32 45q-28 0 -57 -25l-34 -199h-108l31 179q8 45 -33 45q-25 0 -56 -24l2 10l-37 -210h-107z" />
<glyph horiz-adv-x="362" d="M103 440l52 298h107l-6 -36q56 45 113 45q41 0 66.5 -23t15.5 -75l-36 -209h-108l31 179q8 45 -35 45q-25 0 -58 -24l2 10l-37 -210h-107z" />
<glyph horiz-adv-x="347" d="M113 562q0 81 54.5 133t137.5 52q63 0 99.5 -34.5t36.5 -94.5q0 -82 -54 -134.5t-138 -52.5q-63 0 -99.5 35.5t-36.5 95.5zM221 560q0 -57 41 -57q35 0 53.5 33t18.5 84q0 56 -41 56q-32 0 -52 -31t-20 -85z" />
<glyph horiz-adv-x="349" d="M82 321l73 417h107l-5 -28q46 37 92 37q47 0 71.5 -32t24.5 -86q0 -84 -45 -141t-115 -57q-45 0 -71 35l-25 -145h-107zM225 528q15 -20 40 -20q33 0 52 29t19 81t-40 52q-26 0 -49 -20l8 48z" />
<glyph horiz-adv-x="349" d="M112 551q0 84 45 140t115 56q44 0 70 -34l4 25h107l-72 -417h-108l26 147q-46 -37 -92 -37t-70.5 32.5t-24.5 87.5zM221 563q0 -55 39 -55q26 0 49 20l22 123q-13 19 -40 19q-32 0 -51 -27.5t-19 -79.5z" />
<glyph horiz-adv-x="265" d="M103 440l52 298h107l-9 -52q44 61 95 61q25 0 36 -11l-16 -92q-19 9 -44 9q-51 0 -82 -33l7 44l-38 -224h-108z" />
<glyph horiz-adv-x="313" d="M107 531h103q-2 -16 8.5 -25t32.5 -9q18 0 31 8t13 22q0 12 -12.5 17t-42.5 9q-23 3 -39 7.5t-35.5 13t-29.5 25t-10 39.5q0 55 45 82t110 27q63 0 97.5 -24t28.5 -68h-104q2 14 -6.5 20.5t-27.5 6.5q-17 0 -28.5 -7t-11.5 -19q0 -6 3 -10t12 -7t15.5 -4.5t22.5 -3.5 q25 -3 40 -7t35 -12.5t30 -24.5t10 -39q0 -55 -46.5 -86t-112.5 -31q-62 0 -99.5 26.5t-31.5 73.5z" />
<glyph horiz-adv-x="246" d="M123 664l13 74h50l14 78h107l-14 -78h69l-12 -74h-70l-20 -113q-4 -26 1.5 -36t23.5 -10q16 0 39 7l-12 -68q-43 -13 -75 -13q-105 0 -86 106l22 127h-50z" />
<glyph horiz-adv-x="358" d="M118 528l37 210h107l-31 -181q-4 -24 3.5 -34t29.5 -10q30 0 57 24l35 201h107l-52 -298h-107l6 35q-59 -46 -110 -46q-40 0 -66 23t-16 76z" />
<glyph horiz-adv-x="343" d="M136 738h109l11 -79l14 -113l52 113l39 79h105l-165 -298h-101z" />
<glyph horiz-adv-x="522" d="M136 738h105l9 -75l8 -110l51 110l36 75h90l11 -75l13 -111l48 111l34 75h104l-158 -298h-94l-10 75l-10 110l-52 -110l-37 -75h-95z" />
<glyph horiz-adv-x="348" d="M84 440l137 151l-83 147h111l38 -75l64 75h108l-127 -141l88 -157h-110l-44 86l-73 -86h-109z" />
<glyph horiz-adv-x="343" d="M133 321l67 120l-64 297h109l11 -79l14 -113l52 113l39 79h105l-229 -417h-104z" />
<glyph horiz-adv-x="279" d="M90 440l13 74l162 150h-129l12 74h248l-12 -74l-162 -150h135l-13 -74h-254z" />
<glyph horiz-adv-x="349" d="M13 -9q0 84 45 140t115 56q44 0 70 -34l4 25h107l-51 -298h-108l5 28q-46 -37 -92 -37t-70.5 32.5t-24.5 87.5zM122 3q0 -55 39 -55q26 0 49 20l22 123q-13 19 -40 19q-32 0 -51 -27.5t-19 -79.5z" />
<glyph horiz-adv-x="349" d="M4 -120l74 424h107l-27 -154q46 37 92 37q47 0 71.5 -32t24.5 -86q0 -84 -45 -141t-115 -57q-45 0 -71 34l-4 -25h-107zM126 -32q15 -20 40 -20q33 0 52 29t19 81t-40 52q-26 0 -49 -20l7 44z" />
<glyph horiz-adv-x="330" d="M14 -1q0 84 54 136t135 52q58 0 94.5 -31.5t31.5 -85.5h-104q1 46 -35 46q-33 0 -50 -34t-17 -81q0 -58 37 -58q31 0 49 41h104q-15 -52 -62.5 -82.5t-103.5 -30.5q-63 0 -98 34.5t-35 93.5z" />
<glyph horiz-adv-x="349" d="M13 -9q0 84 45 140t115 56q44 0 70 -34l26 151h108l-74 -424h-108l5 28q-46 -37 -92 -37t-70.5 32.5t-24.5 87.5zM122 3q0 -55 39 -55q26 0 49 20l22 123q-13 19 -40 19q-32 0 -51 -27.5t-19 -79.5z" />
<glyph horiz-adv-x="334" d="M14 0q0 82 55.5 134.5t132.5 52.5q72 0 106.5 -43.5t13.5 -133.5h-200v-12q0 -55 39 -55q32 0 44 27h105q-14 -45 -61 -72t-100 -27q-64 0 -99.5 35t-35.5 94zM131 64h94q6 54 -36 54q-40 0 -58 -54z" />
<glyph horiz-adv-x="248" d="M24 104l13 74h49l5 23q19 112 138 112q42 0 66 -11l-12 -67q-16 4 -38 4q-40 0 -47 -38l-4 -23h79l-13 -74h-79l-39 -224h-107l38 224h-49z" />
<glyph horiz-adv-x="349" d="M-7 -143h105q-3 -19 8.5 -26t32.5 -7q47 0 55 47l8 43q-47 -36 -92 -36q-47 0 -71.5 31.5t-24.5 84.5q0 84 44.5 138.5t115.5 54.5q44 0 70 -34l4 25h107l-51 -297q-11 -62 -64 -95t-114 -33q-66 0 -103 25t-30 79zM124 7q0 -52 39 -52q27 0 49 20l21 116q-13 19 -40 19 q-69 0 -69 -103z" />
<glyph horiz-adv-x="362" d="M4 -120l74 424h107l-28 -162q56 45 113 45q41 0 66.5 -23t15.5 -75l-36 -209h-108l31 179q8 45 -35 45q-25 0 -58 -24l1 9l-36 -209h-107z" />
<glyph horiz-adv-x="157" d="M6 -120l52 298h107l-52 -298h-107zM66 255q0 28 20.5 47.5t50.5 19.5q23 0 37 -14t14 -35q0 -27 -21 -46.5t-50 -19.5q-23 0 -37 13.5t-14 34.5z" />
<glyph horiz-adv-x="157" d="M-14 -239l73 417h107l-73 -417h-107zM67 255q0 28 20.5 47.5t50.5 19.5q24 0 37.5 -14t13.5 -35q0 -27 -21 -46.5t-50 -19.5q-23 0 -37 13.5t-14 34.5z" />
<glyph horiz-adv-x="327" d="M4 -120l74 424h107l-44 -253l107 127h110l-122 -138l80 -160h-114l-66 142l-25 -142h-107z" />
<glyph horiz-adv-x="157" d="M4 -120l74 424h107l-74 -424h-107z" />
<glyph horiz-adv-x="558" d="M4 -120l52 298h107l-6 -36q56 45 111 45q66 0 79 -49q63 49 121 49q40 0 65 -22.5t16 -75.5l-37 -209h-108l31 179q8 45 -32 45q-28 0 -57 -25l-34 -199h-108l31 179q8 45 -33 45q-25 0 -56 -24l2 10l-37 -210h-107z" />
<glyph horiz-adv-x="362" d="M4 -120l52 298h107l-6 -36q56 45 113 45q41 0 66.5 -23t15.5 -75l-36 -209h-108l31 179q8 45 -35 45q-25 0 -58 -24l2 10l-37 -210h-107z" />
<glyph horiz-adv-x="347" d="M14 2q0 81 54.5 133t137.5 52q63 0 99.5 -34.5t36.5 -94.5q0 -82 -54 -134.5t-138 -52.5q-63 0 -99.5 35.5t-36.5 95.5zM122 0q0 -57 41 -57q35 0 53.5 33t18.5 84q0 56 -41 56q-32 0 -52 -31t-20 -85z" />
<glyph horiz-adv-x="349" d="M-16 -239l73 417h107l-5 -28q46 37 92 37q47 0 71.5 -32t24.5 -86q0 -84 -45 -141t-115 -57q-45 0 -71 35l-25 -145h-107zM127 -32q15 -20 40 -20q33 0 52 29t19 81t-40 52q-26 0 -49 -20l8 48z" />
<glyph horiz-adv-x="349" d="M14 -9q0 84 45 140t115 56q44 0 70 -34l4 25h107l-72 -417h-108l26 147q-46 -37 -92 -37t-70.5 32.5t-24.5 87.5zM123 3q0 -55 39 -55q26 0 49 20l22 123q-13 19 -40 19q-32 0 -51 -27.5t-19 -79.5z" />
<glyph horiz-adv-x="265" d="M4 -120l52 298h107l-9 -52q44 61 95 61q25 0 36 -11l-16 -92q-20 9 -44 9q-51 0 -82 -33l7 44l-38 -224h-108z" />
<glyph horiz-adv-x="313" d="M8 -29h103q-2 -16 8.5 -25t32.5 -9q18 0 31 8t13 22q0 12 -12.5 17t-42.5 9q-23 3 -39 7.5t-35.5 13t-29.5 25t-10 39.5q0 55 45 82t110 27q63 0 97.5 -24t28.5 -68h-104q2 14 -6.5 20.5t-27.5 6.5q-17 0 -28.5 -7t-11.5 -19q0 -6 3 -10t12 -7t15.5 -4.5t22.5 -3.5 q25 -3 40 -7t35 -12.5t30 -24.5t10 -39q0 -55 -46.5 -86t-112.5 -31q-62 0 -99.5 26.5t-31.5 73.5z" />
<glyph horiz-adv-x="246" d="M24 104l13 74h50l14 78h107l-14 -78h69l-12 -74h-70l-20 -113q-4 -26 1.5 -36t23.5 -10q16 0 39 7l-12 -68q-43 -13 -75 -13q-105 0 -86 106l22 127h-50z" />
<glyph horiz-adv-x="358" d="M19 -32l37 210h107l-31 -181q-4 -24 3.5 -34t29.5 -10q30 0 57 24l35 201h107l-52 -298h-107l6 35q-59 -46 -110 -46q-40 0 -66 23t-16 76z" />
<glyph horiz-adv-x="343" d="M38 178h109l11 -79l14 -113l52 113l39 79h105l-165 -298h-101z" />
<glyph horiz-adv-x="522" d="M38 178h105l9 -75l8 -110l51 110l36 75h90l11 -75l13 -111l48 111l34 75h104l-158 -298h-94l-10 75l-10 110l-52 -110l-37 -75h-95z" />
<glyph horiz-adv-x="348" d="M-15 -120l137 151l-83 147h111l38 -75l64 75h108l-127 -141l88 -157h-110l-44 86l-73 -86h-109z" />
<glyph horiz-adv-x="343" d="M35 -239l67 120l-64 297h109l11 -79l14 -113l52 113l39 79h105l-229 -417h-104z" />
<glyph horiz-adv-x="279" d="M-8 -120l13 74l162 150h-129l12 74h248l-12 -74l-162 -150h135l-13 -74h-254z" />
<glyph d="M70 215h156q-6 -63 23 -91.5t78 -28.5q57 0 92.5 26.5t35.5 78.5q0 19 -9 33.5t-19.5 23t-35.5 17.5t-38 12t-46 11q-39 9 -68.5 21.5t-58.5 33t-45 53t-16 74.5q0 94 66 156t172 76l19 109h139l-20 -114q77 -18 116.5 -71.5t31.5 -140.5h-157q5 57 -20.5 84t-72.5 27 q-55 0 -87.5 -25t-32.5 -75q0 -18 8 -32t19.5 -23t31.5 -16.5t37 -12t43 -10.5q6 -1 9 -2q40 -10 69 -21t59 -31t46 -51.5t16 -73.5q0 -92 -70 -158t-172 -84l-20 -110h-139l20 112q-85 17 -128.5 73t-31.5 150z" />
<glyph d="M104 200q0 126 61.5 215t162.5 114l20 118h140l-21 -117q64 -18 97.5 -69t26.5 -128h-143q4 61 -11 86.5t-54 25.5q-41 0 -71.5 -37.5t-45 -92t-14.5 -115.5q0 -122 69 -122q68 0 99 104h143q-22 -74 -72 -123t-119 -66l-20 -113h-139l19 114q-128 35 -128 206z" />
<glyph d="M32 0l21 113h74l31 179h-74l20 113h74l16 94q18 101 89.5 158.5t177.5 57.5q110 0 164.5 -54.5t42.5 -161.5h-157q4 46 -14.5 68.5t-53.5 22.5q-80 0 -93 -76l-19 -109h192l-21 -113h-191l-31 -179h291l-21 -113h-518z" />
<glyph d="M80 85l20 113h161l16 94h-161l20 113h129l-125 295h156l90 -246l176 246h146l-226 -295h130l-21 -113h-161l-16 -94h161l-19 -113h-162l-15 -85h-153l15 85h-161z" />
<glyph d="M-11 -47h131q-3 -66 38 -66q45 0 57 68l40 227h-156l20 114h156l39 218q18 100 75 150.5t147 50.5q168 0 150 -169h-131q1 33 -7 46t-27 13q-38 0 -50 -68l-43 -241h156l-20 -114h-156l-36 -204q-18 -99 -77.5 -150t-150.5 -51q-172 0 -155 176z" />
<glyph d="M64 182l21 114h51q5 53 13 93h-48l20 114h63q42 99 112 155.5t156 56.5q107 0 158.5 -66.5t36.5 -198.5h-158q6 83 -5 117t-53 34q-62 0 -106 -98h111l-20 -114h-125q-9 -43 -12 -93h121l-20 -114h-100q11 -84 65 -84q42 0 65 34.5t43 117.5h158q-31 -132 -106 -198.5 t-182 -66.5q-166 0 -186 197h-73z" />
<glyph d="M30 0l123 700h184q92 0 135.5 -44.5t43.5 -137.5q0 -60 -17.5 -127t-59.5 -185h-95q6 19 19.5 63.5t18 62.5t12.5 49t10.5 53.5t2.5 44.5q0 122 -97 122h-72l-106 -601h-102zM176 0l88 494h102l-70 -396h59q82 0 120.5 72t61.5 240q16 113 21 290h95q1 -18 1 -91 q0 -142 -15.5 -250t-42 -175.5t-66.5 -109.5t-83.5 -58t-98.5 -16h-172z" />
<glyph d="M23 -120l82 253q-14 53 -14 115q0 144 51 255t137 166l49 151h148l-34 -105q35 -2 60 -7l36 112h148l-63 -196q39 -66 26 -174h-165q12 144 -71 144q-64 0 -116.5 -99t-52.5 -247q0 -67 21 -104.5t61 -37.5q85 0 122 144h166q-45 -187 -192 -244l-41 -126h-148l35 107 q-33 5 -57 16l-40 -123h-148z" />
<glyph d="M30 0l91 516h125l-9 -49q27 31 60 47.5t57 16.5q62 0 76 -52l102 157h148l-75 -116q47 -28 31 -116l-71 -404h-125l65 365l-111 -170l-34 -195h-92l-71 -110h-148l71 110h-90zM168 74l110 170l23 129q8 46 -23 46q-24 0 -55 -31z" />
<glyph d="M56 189l19 114h53l17 93h-53l20 113h52l34 191h129l117 -428l30 190l41 238h132l-34 -191h54l-20 -113h-53l-17 -93h53l-19 -114h-54l-33 -189h-129l-117 427l-30 -190l-41 -237h-132l33 189h-52z" />
<glyph d="M118 409l20 113h276q-14 64 -85 64h-180l20 114h60h443l-20 -114h-114q26 -29 35 -64h68l-20 -113h-54q-23 -78 -88.5 -122.5t-153.5 -55.5l206 -231h-175l-198 227l20 109h108q83 0 116 73h-284z" />
<glyph d="M45 189l19 114h73l4 93h-60l20 113h46l9 191h127l-32 -296l-26 -203l56 203l88 296h125l-17 -296l-15 -204l45 204l72 296h110l-56 -191h46l-20 -113h-60l-27 -93h70l-19 -114h-85l-56 -189h-128l13 263l18 204l-56 -204l-80 -263h-127l9 189h-86z" />
<glyph d="M39 0l18 101h519l-18 -101h-519zM96 305q0 117 69 187.5t162 70.5q85 0 118 -57l-2 -9l16 90h-100l18 101h100l10 56h142l-10 -56h61l-18 -101h-61l-76 -433h-142l8 46q-69 -60 -152 -60q-67 0 -105 43.5t-38 121.5zM243 327q0 -40 19 -63t52 -23q43 0 90 33l28 156 q-33 31 -73 31q-48 0 -82 -36.5t-34 -97.5z" />
<glyph d="M75 311l20 114h67l48 275h153l-48 -275h11l209 275h146l-215 -275h158l-19 -114h-153l115 -311h-156l-112 311h-4l-55 -311h-153l55 311h-67z" />
<glyph d="M118 79l23 127l126 44l11 62l-126 -44l22 126l126 44l26 148h-174l20 114h500l-19 -114h-174l-16 -91l127 45l-22 -127l-128 -44l-11 -62l128 44l-23 -126l-127 -45l-32 -180h-152l22 123z" />
<glyph d="M85 0l71 402h-70l19 114h71l32 184h181q91 0 148 -46.5t61 -137.5h63l-19 -114h-60q-29 -88 -104.5 -134t-171.5 -46h-29l-39 -222h-153zM298 340h29q66 0 97 62h-115zM329 516h112q-9 67 -72 67h-28z" />
<glyph d="M71 138q0 92 82 153h-76l20 114h285q107 54 107 130q0 33 -20.5 51.5t-57.5 18.5q-103 0 -128 -106h-157q56 216 306 216q98 0 155 -40.5t57 -112.5q0 -94 -85 -157h87l-20 -114h-297q-50 -26 -77 -55.5t-27 -70.5q0 -34 20.5 -52t57.5 -18q48 0 83 26t48 80h156 q-56 -216 -308 -216q-98 0 -154.5 40.5t-56.5 112.5z" />
<glyph d="M91 248q0 175 74 299t193 158l20 115h139l-19 -111q83 -18 124 -83t27 -176h-165q12 144 -71 144q-64 0 -116.5 -99t-52.5 -247q0 -67 21 -104.5t61 -37.5q85 0 122 144h166q-26 -111 -90 -176t-154 -83l-19 -111h-139l20 115q-141 44 -141 253z" />
<glyph d="M50 0l123 700h155l21 120h140l-22 -123q171 -21 171 -148q0 -58 -36.5 -108.5t-96.5 -68.5q106 -28 106 -132q0 -110 -77 -170t-189 -69l-22 -121h-140l21 120h-154zM222 110h108q54 0 89.5 30t35.5 85q0 75 -92 75h-107zM274 408h83q53 0 88 26.5t35 82.5q0 37 -25.5 55 t-64.5 18h-83z" />
<glyph d="M36 145l89 75q-16 43 -16 92q0 120 66 203l-54 67l91 78l58 -71q64 32 139 32q67 0 115 -29l89 75l79 -93l-90 -76q15 -40 15 -90q0 -121 -67 -204l55 -67l-91 -78l-58 70q-62 -31 -138 -31q-68 0 -116 28l-87 -74zM260 306q0 -114 74 -114q55 0 93.5 62t38.5 159 q0 114 -73 114q-55 0 -94 -62t-39 -159z" />
<glyph d="M37 0l78 181h-48l22 121h79l48 111h-58l21 121h89l72 166h132l-72 -166h81l72 166h133l-72 -166h48l-20 -121h-80l-48 -111h58l-22 -121h-89l-78 -181h-133l78 181h-81l-78 -181h-132zM300 302h81l48 111h-81z" />
<glyph horiz-adv-x="516" d="M67 166h141q-3 -42 19 -63.5t60 -21.5q40 0 67.5 18t27.5 54q0 29 -25.5 43t-77.5 25q-36 7 -61.5 15t-53.5 24t-42.5 42.5t-14.5 63.5q0 76 53.5 125.5t137.5 61.5l14 83h129l-15 -87q65 -14 97.5 -56.5t25.5 -109.5h-141q2 38 -17.5 57.5t-56.5 19.5q-38 0 -63 -17 t-25 -51q0 -29 25.5 -42t77.5 -23q36 -7 62 -15.5t53.5 -24.5t42.5 -42t15 -61q0 -75 -56 -127t-139 -67l-14 -83h-129l15 84q-71 15 -106.5 59t-25.5 116z" />
<glyph horiz-adv-x="484" d="M82 157q0 96 47.5 164.5t128.5 90.5l15 87h129l-15 -86q109 -29 100 -154h-128q2 39 -9 56.5t-41 17.5q-41 0 -68 -47t-27 -125q0 -88 52 -88q27 0 43.5 15.5t26.5 51.5h127q-34 -117 -150 -147l-15 -86h-129l15 87q-102 33 -102 163z" />
<glyph horiz-adv-x="508" d="M35 0l18 101h57l21 118h-56l17 102h57l10 58q14 80 77.5 129t153.5 49q88 0 134.5 -43.5t37.5 -126.5h-142q2 39 -9.5 56t-38.5 17q-54 0 -66 -69l-12 -70h145l-17 -102h-146l-21 -118h224l-18 -101h-426z" />
<glyph horiz-adv-x="503" d="M66 66l18 101h132l11 59h-133l18 101h87l-89 216h147l73 -197l137 197h132l-159 -216h82l-18 -101h-133l-10 -59h133l-17 -101h-134l-11 -66h-145l12 66h-133z" />
<glyph horiz-adv-x="584" d="M-31 -17h142q-1 -33 8 -46.5t32 -13.5q54 0 67 69l25 143h-113l18 101h113l25 143q14 79 80 128.5t155 49.5q84 0 126.5 -42t34.5 -115h-142q3 60 -41 60q-54 0 -66 -69l-28 -155h115l-17 -101h-115l-23 -131q-14 -79 -79 -128.5t-149 -49.5q-87 0 -131.5 39t-36.5 118z " />
<glyph horiz-adv-x="588" d="M53 142l16 94h55q2 31 6 59h-50l16 94h63q36 79 103 123.5t156 44.5q94 0 147.5 -53.5t41.5 -154.5h-143q3 56 -12.5 81.5t-52.5 25.5q-55 0 -93 -67h104l-16 -94h-119q-5 -26 -7 -59h115l-16 -94h-93q15 -56 63 -56q36 0 60 25.5t39 81.5h143q-24 -101 -96 -154.5 t-166 -53.5q-79 0 -126.5 41t-61.5 116h-76z" />
<glyph horiz-adv-x="727" d="M82 0l96 543h225q92 0 135.5 -38.5t43.5 -117.5q0 -78 -57 -227h-110q47 132 47 194q0 44 -19 64.5t-63 20.5h-105l-77 -439h-116zM238 0l67 383h116l-49 -280h79q73 0 106.5 52.5t47.5 160.5q12 90 17 227h110v-79q0 -242 -68.5 -353t-222.5 -111h-203z" />
<glyph horiz-adv-x="557" d="M-18 -93l105 222q-12 41 -12 88q0 113 56 199t148 121l46 99h137l-38 -81q21 -3 42 -9l42 90h136l-77 -164q31 -52 22 -123h-143q3 54 -17 80.5t-58 26.5q-40 0 -69.5 -23.5t-45 -62t-23 -78t-7.5 -79.5q0 -57 20 -92t59 -35q81 0 113 107h143q-20 -85 -80.5 -138 t-140.5 -66l-39 -82h-136l42 90q-21 8 -38 18l-51 -108h-136z" />
<glyph horiz-adv-x="786" d="M72 0l72 406h132l-10 -51q77 65 148 65q68 0 89 -49l86 122h129l-52 -73h3q117 0 93 -141l-49 -279h-132l46 257q9 57 -33 61l-106 -150l-30 -168h-90l-60 -85h-129l176 248l17 94q5 32 -4.5 46.5t-36.5 14.5q-39 0 -77 -33l-50 -285h-132z" />
<glyph horiz-adv-x="618" d="M47 142l16 94h67l10 59h-66l16 94h67l27 154h129l124 -336l24 148l33 188h131l-27 -154h66l-16 -94h-67l-10 -59h66l-16 -94h-67l-25 -142h-129l-125 335l-23 -147l-33 -188h-131l25 142h-66z" />
<glyph horiz-adv-x="479" d="M78 302l17 94h229q-13 53 -81 53h-139l17 94h58h366l-17 -94h-83q17 -25 23 -53h50l-16 -94h-42q-34 -117 -184 -147l150 -155h-171l-136 147l16 94h71q76 0 107 61h-235z" />
<glyph horiz-adv-x="793" d="M43 142l16 94h97l-5 59h-81l16 94h56l-15 154h149l9 -205l1 -154l63 154l87 205h128l19 -205l12 -155l54 155l77 205h132l-65 -154h51l-16 -94h-75l-25 -59h89l-16 -94h-113l-60 -142h-129l-20 201l-12 154l-62 -154l-85 -201h-141l-14 142h-122z" />
<glyph horiz-adv-x="470" d="M42 0l17 94h408l-17 -94h-408zM89 249q0 82 53.5 135t120.5 53q65 0 94 -45l12 65h-80l14 79h80l7 41h117l-7 -41h45l-14 -79h-45l-58 -323h-116l6 37q-54 -48 -121 -48q-49 0 -78.5 34t-29.5 92zM216 263q0 -51 44 -51q36 0 70 26l15 86q-24 24 -57 24q-30 0 -51 -21.5 t-21 -63.5z" />
<glyph horiz-adv-x="530" d="M52 238l16 94h65l37 211h145l-32 -184l155 184h141l-181 -211h161l-16 -94h-152l124 -238h-161l-99 205l-36 -205h-145l42 238h-64z" />
<glyph horiz-adv-x="457" d="M70 32l19 107l104 33l10 54l-104 -32l19 108l104 33l19 107h-137l17 101h420l-17 -101h-139l-10 -60l104 33l-18 -108l-105 -33l-10 -54l105 33l-19 -109l-105 -32l-19 -112h-145l11 64z" />
<glyph horiz-adv-x="530" d="M57 306l18 101h64l24 136h177q76 0 126.5 -35t59.5 -101h66l-18 -101h-60q-25 -69 -91.5 -105.5t-149.5 -36.5h-32l-29 -164h-145l54 306h-64zM258 262h32q53 0 78 44h-102zM283 407h95q-14 38 -55 38h-33z" />
<glyph horiz-adv-x="559" d="M82 223l16 94h237q45 19 68.5 39t23.5 50q0 54 -64 54q-71 0 -90 -73h-141q22 83 86.5 126.5t163.5 43.5q80 0 130.5 -32.5t50.5 -90.5q0 -70 -55 -117h58l-17 -94h-242q-42 -18 -64.5 -38t-22.5 -49q0 -55 63 -55q75 0 92 74h142q-22 -82 -88 -126t-165 -44 q-81 0 -131 32.5t-50 90.5q0 69 53 115h-54z" />
<glyph horiz-adv-x="557" d="M75 217q0 126 69 217t176 115l15 87h129l-15 -85q71 -16 110 -67.5t30 -134.5h-143q3 54 -17 80.5t-58 26.5q-40 0 -69.5 -23.5t-45 -62t-23 -78t-7.5 -79.5q0 -57 20 -92t59 -35q81 0 113 107h143q-19 -83 -76.5 -134.5t-133.5 -67.5l-15 -84h-129l15 86 q-71 19 -109 77.5t-38 146.5z" />
<glyph horiz-adv-x="543" d="M67 0l96 543h128l16 93h128l-17 -95q147 -14 147 -119q0 -44 -28.5 -81.5t-76.5 -52.5q84 -22 84 -104q0 -86 -63 -131.5t-158 -51.5l-16 -94h-128l16 93h-128zM229 95h86q39 0 62.5 19.5t23.5 60.5q0 27 -17.5 40.5t-44.5 13.5h-86zM268 321h67q84 0 84 75 q0 26 -17.5 39t-43.5 13h-67z" />
<glyph horiz-adv-x="558" d="M57 118l72 60q-12 30 -12 68q0 76 43 137l-48 56l101 84l52 -60q45 18 98 18q51 0 91 -20l75 62l71 -84l-73 -61q11 -31 11 -66q0 -77 -44 -137l49 -57l-101 -84l-52 61q-48 -19 -98 -19q-51 0 -89 20l-75 -62zM250 247q0 -39 15.5 -61.5t43.5 -22.5q48 0 72.5 39.5 t24.5 108.5q0 38 -15.5 60.5t-43.5 22.5q-48 0 -72.5 -39.5t-24.5 -107.5z" />
<glyph horiz-adv-x="593" d="M58 0l62 140h-61l17 94h85l38 86h-67l16 94h93l57 129h126l-57 -129h79l57 129h125l-57 -129h60l-16 -94h-86l-38 -86h68l-17 -94h-92l-62 -140h-125l62 140h-79l-62 -140h-126zM287 234h79l38 86h-79z" />
<glyph horiz-adv-x="629" d="M78 260q0 195 98.5 325t251.5 130q107 0 164 -72.5t57 -202.5q0 -195 -98.5 -325t-251.5 -130q-107 0 -164 72.5t-57 202.5zM215 262q0 -14 2 -40l238 367q-20 12 -47 12q-84 0 -138.5 -96t-54.5 -243zM272 110q20 -12 47 -12q84 0 138.5 96t54.5 243q0 15 -2 41z" />
<glyph horiz-adv-x="568" d="M68 213q0 160 84 267.5t220 107.5q98 0 148 -61.5t50 -165.5q0 -159 -84.5 -267.5t-220.5 -108.5q-98 0 -147.5 62t-49.5 166zM215 198q0 -119 69 -119q61 0 100.5 84.5t39.5 212.5q0 118 -70 118q-61 0 -100 -84t-39 -212z" />
<glyph horiz-adv-x="588" d="M93 213q0 159 84.5 267t219.5 108q99 0 149 -61.5t50 -165.5q0 -159 -84.5 -267.5t-220.5 -108.5q-98 0 -148 62t-50 166zM224 212q0 -15 1 -21l194 293q-16 10 -39 10q-75 0 -115.5 -79.5t-40.5 -202.5zM270 89q16 -10 39 -10q75 0 116 80.5t41 202.5q0 15 -1 22z" />
<glyph horiz-adv-x="408" d="M65 345l24 138l180 90h149l-102 -573h-148l77 435z" />
<glyph horiz-adv-x="560" d="M44 0l20 114q202 113 275 173.5t73 127.5q0 68 -66 68q-40 0 -71 -30.5t-44 -89.5h-143q21 110 94 167.5t183 57.5q92 0 143 -40t51 -115q0 -89 -61.5 -156.5t-216.5 -162.5h233l-21 -114h-449z" />
<glyph horiz-adv-x="572" d="M31 62h151q-5 -52 21 -79t75 -27q56 0 89.5 33.5t33.5 94.5q0 40 -28.5 63.5t-87.5 23.5h-77l17 105h78q67 0 103.5 38.5t36.5 92.5q0 38 -20.5 57t-56.5 19q-47 0 -81 -27t-46 -79h-144q25 100 104.5 155.5t189.5 55.5q92 0 147 -43t55 -123q0 -60 -40 -113.5 t-100 -76.5q50 -13 74 -51t24 -86q0 -108 -84.5 -176t-206.5 -68q-120 0 -179.5 54t-47.5 157z" />
<glyph horiz-adv-x="577" d="M30 0l20 114l266 459h151l-269 -459h140l30 167h133l-30 -167h91l-20 -114h-91l-24 -134h-133l24 134h-288z" />
<glyph horiz-adv-x="557" d="M38 65h151q-5 -54 18 -81.5t65 -27.5q54 0 88.5 50t34.5 129q0 98 -81 98q-59 0 -106 -52h-131l70 392h430l-20 -114h-300l-33 -184q26 29 74 49t90 20q73 0 114.5 -47.5t41.5 -135.5q0 -140 -86 -225t-205 -85q-112 0 -169 56.5t-46 157.5z" />
<glyph horiz-adv-x="568" d="M69 249q0 232 98.5 371t254.5 139q97 0 153 -52.5t47 -155.5h-144q4 52 -18 79t-58 27q-61 0 -109.5 -78t-66.5 -208q34 35 89 58.5t102 23.5q75 0 117.5 -46.5t42.5 -131.5q0 -130 -87.5 -210t-206.5 -80q-106 0 -160 68t-54 196zM218 244q0 -73 21.5 -113.5t62.5 -40.5 q54 0 87 44t33 111q0 97 -80 97q-28 0 -64 -13t-59 -33q-1 -17 -1 -52z" />
<glyph horiz-adv-x="474" d="M37 -134l339 593h-292l20 114h432l-20 -114l-333 -593h-146z" />
<glyph horiz-adv-x="596" d="M58 169q0 68 42.5 129.5t125.5 89.5q-42 17 -65.5 53.5t-23.5 82.5q0 106 83 170.5t202 64.5q94 0 153 -47.5t59 -129.5q0 -67 -40 -118.5t-106 -75.5q51 -20 76 -62.5t25 -93.5q0 -112 -86.5 -179.5t-217.5 -67.5q-103 0 -165 49t-62 135zM206 183q0 -43 26 -68t72 -25 q63 0 100.5 37t37.5 97q0 42 -25 69.5t-72 27.5q-64 0 -101.5 -41t-37.5 -97zM283 526q0 -40 22 -64t60 -24q54 0 87.5 36.5t33.5 94.5q0 41 -23 63t-60 22q-52 0 -86 -33.5t-34 -94.5z" />
<glyph horiz-adv-x="596" d="M40 51h144q-4 -54 23 -76t63 -22q63 0 108.5 65t61.5 185q-34 -33 -89.5 -55.5t-101.5 -22.5q-75 0 -117.5 45.5t-42.5 130.5q0 129 87 208t206 79q102 0 158.5 -66t56.5 -191q0 -229 -96.5 -354.5t-250.5 -125.5q-100 0 -159 49t-51 151zM243 333q0 -41 19.5 -69 t60.5 -28q28 0 64.5 14t59.5 33q1 16 1 50q0 150 -85 150q-56 0 -88 -41t-32 -109z" />
<glyph d="M92 258q0 128 40 231.5t117 164.5t177 61q103 0 154 -72.5t51 -200.5q0 -196 -91.5 -326.5t-242.5 -130.5q-103 0 -154 72.5t-51 200.5zM247 247q0 -141 72 -141q67 0 111.5 97.5t44.5 249.5q0 141 -70 141q-67 0 -112.5 -98t-45.5 -249z" />
<glyph d="M92 258q0 128 40 231.5t117 164.5t177 61q103 0 154 -72.5t51 -200.5q0 -196 -91.5 -326.5t-242.5 -130.5q-103 0 -154 72.5t-51 200.5zM223 235l230 353q-19 13 -48 13q-55 0 -97.5 -51t-63.5 -131t-21 -172v-12zM270 111q20 -13 49 -13q55 0 97 51.5t63 131.5t21 172 v12z" />
<glyph d="M64 0l20 113h166l79 448l-181 -89l24 138l181 90h153l-103 -587h159l-20 -113h-312h-166z" />
<glyph d="M79 0l22 121q212 169 237 190q111 96 135 162q10 26 10 53q0 76 -68 76q-39 0 -70 -29t-44 -91h-157q26 114 103 173.5t187 59.5q94 0 149.5 -44.5t55.5 -126.5q0 -42 -14 -80.5t-36.5 -73t-69.5 -79.5t-94.5 -85t-130.5 -105h280l-21 -121h-474z" />
<glyph d="M76 196h157q-5 -50 19.5 -74t67.5 -24q54 0 86.5 31.5t32.5 78.5q0 89 -117 89h-71l20 113h70q65 0 101.5 36t36.5 88q0 32 -17.5 50t-49.5 18q-41 0 -72.5 -26.5t-43.5 -71.5h-157q25 99 104.5 155t189.5 56q92 0 146.5 -43t54.5 -124q0 -60 -39.5 -111.5t-99.5 -74.5 q51 -13 75 -49.5t24 -83.5q0 -108 -85 -176t-207 -68q-120 0 -178.5 54t-47.5 157z" />
<glyph d="M73 115l19 114l268 471h151l-271 -471h135l28 161h138l-28 -161h84l-19 -114h-86l-20 -115h-138l20 115h-281z" />
<glyph d="M85 191h157q-4 -48 17.5 -70.5t59.5 -22.5q55 0 85.5 48.5t30.5 120.5q0 92 -72 92q-28 0 -57.5 -13t-50.5 -38h-131l69 392h430l-19 -114h-300l-33 -187q27 30 75 51t91 21q73 0 114 -46.5t41 -133.5q0 -140 -85.5 -223t-205.5 -83q-113 0 -170 53t-46 153z" />
<glyph d="M97 240q0 209 99.5 342t246.5 133q94 0 147.5 -48.5t46.5 -139.5h-157q1 42 -13 60t-45 18q-50 0 -93 -64.5t-64 -165.5q35 34 85.5 56t95.5 22q76 0 118.5 -46.5t42.5 -131.5q0 -130 -88 -210t-207 -80q-101 0 -158 68t-57 187zM252 234q0 -136 80 -136q52 0 84.5 45.5 t32.5 105.5q0 92 -78 92q-29 0 -62 -13t-55 -34q-2 -38 -2 -60z" />
<glyph d="M131 0l358 586h-313l19 114h453l-19 -114l-352 -586h-146z" />
<glyph d="M69 156q0 69 41 126t123 79q-42 18 -65.5 53.5t-23.5 77.5q0 104 81 163.5t201 59.5q95 0 153.5 -44t58.5 -125q0 -62 -39 -111.5t-104 -73.5q52 -15 77 -54t25 -89q0 -112 -83.5 -172.5t-216.5 -60.5q-104 0 -166 44t-62 127zM222 179q0 -38 25.5 -59.5t70.5 -21.5 q58 0 93.5 30.5t35.5 81.5q0 36 -24.5 60t-70.5 24q-60 0 -95 -33.5t-35 -81.5zM292 491q0 -37 21 -58t60 -21q53 0 83.5 32t30.5 83q0 36 -22 55.5t-60 19.5q-50 0 -81.5 -29.5t-31.5 -81.5z" />
<glyph d="M90 185h157q-5 -90 65 -90q52 0 96 69t63 176q-34 -35 -85.5 -58t-96.5 -23q-76 0 -118 45.5t-42 130.5q0 128 86.5 204t206.5 76q102 0 159 -67.5t57 -187.5q0 -209 -99 -342t-248 -133q-97 0 -153 50.5t-48 149.5zM284 461q0 -90 80 -90q29 0 62 13.5t55 34.5 q1 15 1 46q0 137 -80 137q-53 0 -85.5 -41.5t-32.5 -99.5z" />
<glyph d="M99 220q0 159 84 263.5t220 104.5q100 0 149.5 -62.5t49.5 -171.5q0 -158 -84.5 -263.5t-220.5 -105.5q-98 0 -148 63t-50 172zM246 198q0 -119 69 -119q57 0 98.5 85.5t41.5 211.5q0 118 -69 118q-57 0 -98.5 -85t-41.5 -211z" />
<glyph d="M99 220q0 159 84 263.5t220 104.5q100 0 149.5 -62.5t49.5 -171.5q0 -158 -84.5 -263.5t-220.5 -105.5q-98 0 -148 63t-50 172zM230 212q0 -15 1 -21l194 293q-16 10 -39 10q-75 0 -115.5 -79.5t-40.5 -202.5zM276 89q16 -10 39 -10q75 0 116 80.5t41 202.5q0 15 -1 22z " />
<glyph d="M70 0l17 100h170l59 334l-185 -90l25 139l184 90h149l-84 -473h158l-17 -100h-307h-169z" />
<glyph d="M88 0l20 114q202 113 275 173.5t73 127.5q0 68 -66 68q-40 0 -71 -30.5t-44 -89.5h-143q21 110 94 167.5t183 57.5q92 0 143 -40t51 -115q0 -89 -61.5 -156.5t-216.5 -162.5h233l-21 -114h-449z" />
<glyph d="M49 62h151q-5 -52 21 -79t75 -27q56 0 89.5 34t33.5 94q0 40 -28.5 63.5t-87.5 23.5h-78l18 105h78q67 0 103 38t36 93q0 76 -77 76q-47 0 -81 -27t-46 -79h-143q25 100 104.5 155.5t188.5 55.5q92 0 147 -43t55 -123q0 -60 -40 -113.5t-100 -76.5q51 -13 75 -51t24 -86 q0 -108 -84.5 -176t-206.5 -68q-121 0 -180 54t-47 157z" />
<glyph d="M52 0l21 114l266 459h146l-270 -459h138l30 167h133l-30 -167h91l-20 -114h-91l-24 -134h-133l24 134h-281z" />
<glyph d="M60 65h151q-4 -54 18.5 -81.5t65.5 -27.5q53 0 87.5 50t34.5 129q0 98 -81 98q-59 0 -106 -52h-130l69 392h430l-20 -114h-300l-33 -184q26 29 74 49t90 20q73 0 115 -47.5t42 -135.5q0 -140 -86 -225t-206 -85q-112 0 -169 56.5t-46 157.5z" />
<glyph d="M95 249q0 232 98.5 371t254.5 139q97 0 153 -52.5t47 -155.5h-143q4 52 -18 79t-58 27q-61 0 -110 -78t-67 -208q34 35 89 58.5t102 23.5q75 0 117.5 -46.5t42.5 -131.5q0 -130 -87.5 -210t-206.5 -80q-106 0 -160 68t-54 196zM244 244q0 -73 21.5 -113.5t62.5 -40.5 q55 0 88 44t33 111q0 97 -81 97q-28 0 -64 -13t-59 -33q-1 -17 -1 -52z" />
<glyph d="M127 -134l343 593h-302l20 114h442l-20 -114l-338 -593h-145z" />
<glyph d="M70 169q0 68 42.5 129.5t124.5 89.5q-42 17 -65 53.5t-23 82.5q0 106 83 170.5t202 64.5q94 0 153 -47.5t59 -129.5q0 -67 -40 -118.5t-107 -75.5q52 -20 77 -62.5t25 -93.5q0 -112 -86.5 -179.5t-217.5 -67.5q-103 0 -165 49t-62 135zM218 183q0 -43 26 -68t72 -25 q63 0 100.5 37t37.5 97q0 42 -25 69.5t-73 27.5q-63 0 -100.5 -41t-37.5 -97zM295 526q0 -40 22 -64t60 -24q54 0 87.5 36.5t33.5 94.5q0 41 -23 63t-60 22q-52 0 -86 -33.5t-34 -94.5z" />
<glyph d="M54 51h143q-3 -54 23.5 -76t62.5 -22q63 0 109 65t62 185q-35 -33 -90 -55.5t-101 -22.5q-76 0 -118.5 45.5t-42.5 130.5q0 129 87 208t206 79q103 0 159.5 -66t56.5 -191q0 -229 -97 -354.5t-250 -125.5q-100 0 -159.5 49t-50.5 151zM256 333q0 -41 19.5 -69t60.5 -28 q28 0 65.5 14t59.5 34q1 16 1 49q0 150 -86 150q-55 0 -87.5 -41t-32.5 -109z" />
<glyph horiz-adv-x="544" d="M75 213q0 150 82.5 247t210.5 97q92 0 142 -61.5t50 -166.5q0 -148 -82.5 -246t-210.5 -98q-92 0 -142 61.5t-50 166.5zM222 210q0 -123 64 -123q57 0 92 69t35 176q0 123 -64 123q-57 0 -92 -68.5t-35 -176.5z" />
<glyph horiz-adv-x="544" d="M75 213q0 149 82.5 246.5t211.5 97.5q93 0 142.5 -61t49.5 -166q0 -150 -82 -247.5t-211 -97.5q-93 0 -143 61.5t-50 166.5zM204 215q0 -21 1 -30l179 270q-16 8 -33 8q-61 0 -104 -68t-43 -180zM250 89q16 -10 36 -10q60 0 102.5 68t42.5 181q0 21 -1 31z" />
<glyph horiz-adv-x="374" d="M88 351l21 122l145 70h144l-96 -543h-144l74 420z" />
<glyph horiz-adv-x="480" d="M45 0l18 102q21 15 60 44q76 55 109 81t72 61.5t52.5 61.5t13.5 54q0 53 -53 53q-28 0 -49 -22t-31 -61h-142q20 87 86.5 135t154.5 48q80 0 127 -37t47 -102q0 -75 -56.5 -144t-205.5 -172h212l-18 -102h-397z" />
<glyph horiz-adv-x="500" d="M49 152h142q-3 -68 71 -68q42 0 65.5 24t23.5 59q0 60 -91 60h-56l16 95h57q51 0 77.5 25t26.5 59q0 24 -14 37.5t-40 13.5q-32 0 -55 -17.5t-32 -48.5h-141q19 75 90.5 120.5t159.5 45.5q85 0 132 -33t47 -96q0 -51 -32.5 -90.5t-87.5 -56.5q45 -11 66 -39.5t21 -65.5 q0 -84 -69.5 -137.5t-178.5 -53.5q-96 0 -151 44.5t-47 122.5z" />
<glyph horiz-adv-x="475" d="M42 84l18 102l211 357h143l-214 -357h92l20 116h136l-20 -116h60l-18 -102h-60l-15 -84h-136l15 84h-232z" />
<glyph horiz-adv-x="474" d="M56 148h142q-4 -64 57 -64q36 0 60 33t24 83q0 69 -57 69q-47 0 -75 -38h-122l55 312h370l-20 -109h-247l-21 -118q22 21 59.5 35t72.5 14q60 0 95.5 -38.5t35.5 -106.5q0 -110 -68 -172.5t-177 -62.5q-90 0 -141 43t-43 120z" />
<glyph horiz-adv-x="504" d="M74 189q0 163 81 265.5t210 102.5q75 0 121.5 -39.5t41.5 -109.5h-142q-2 45 -47 45q-36 0 -65.5 -42.5t-45.5 -110.5q63 51 142 51q62 0 98 -37t36 -104q0 -100 -73.5 -162.5t-175.5 -62.5q-90 0 -135.5 53.5t-45.5 150.5zM214 176q0 -92 60 -92q41 0 64.5 31.5 t23.5 75.5q0 73 -63 73q-42 0 -82 -28q-3 -30 -3 -60z" />
<glyph horiz-adv-x="397" d="M70 0l265 441h-227l18 102h362l-17 -102l-261 -441h-140z" />
<glyph horiz-adv-x="509" d="M63 123q0 51 34 95t95 62q-34 13 -52.5 42t-18.5 63q0 81 69.5 126.5t171.5 45.5q82 0 134 -34.5t52 -98.5q0 -47 -31 -86.5t-83 -57.5q41 -13 61 -43.5t20 -69.5q0 -86 -71.5 -134t-182.5 -48q-89 0 -143.5 36t-54.5 102zM211 138q0 -28 18 -42.5t49 -14.5q42 0 67 21 t25 60q0 28 -18 44.5t-50 16.5q-42 0 -66.5 -23.5t-24.5 -61.5zM263 381q0 -27 16 -42t43 -15q35 0 58 22.5t23 61.5q0 26 -16.5 39t-42.5 13q-34 0 -57.5 -19.5t-23.5 -59.5z" />
<glyph horiz-adv-x="509" d="M65 145h142q1 -56 51 -56q39 0 70.5 46t46.5 120q-65 -53 -144 -53q-63 0 -99 34.5t-36 100.5q0 100 73 160t176 60q90 0 136 -53.5t46 -150.5q0 -163 -81.5 -265.5t-209.5 -102.5q-75 0 -125.5 43.5t-45.5 116.5zM239 356q0 -67 63 -67q43 0 82 29q2 32 2 48 q0 91 -59 91q-42 0 -65 -29t-23 -72z" />
<glyph horiz-adv-x="439" d="M132 607q0 114 68.5 188t171.5 74q77 0 120.5 -47.5t43.5 -128.5q0 -115 -68.5 -188.5t-172.5 -73.5q-75 0 -119 47.5t-44 128.5zM261 602q0 -79 50 -79q39 0 67 50t28 124q0 80 -50 80q-39 0 -67 -50t-28 -125z" />
<glyph horiz-adv-x="272" d="M136 700l18 106l116 54h127l-74 -420h-127l55 314z" />
<glyph horiz-adv-x="383" d="M113 440l16 94q27 18 63.5 43t55.5 38t43.5 30.5t36 28.5t23.5 24.5t16.5 25.5t4.5 25q0 33 -37 33q-44 0 -58 -53h-126q16 68 69.5 104t129.5 36q69 0 108 -29t39 -81q0 -31 -9.5 -54.5t-40.5 -53t-58.5 -50t-93.5 -67.5h167l-16 -94h-333z" />
<glyph horiz-adv-x="402" d="M121 558h126q-2 -21 9 -31t39 -10q30 0 45.5 15t15.5 37q0 39 -68 39h-49l16 89h48q75 0 75 55q0 30 -37 30q-43 0 -57 -40h-126q16 60 69 93.5t129 33.5q67 0 107.5 -26.5t40.5 -76.5q0 -35 -24 -65.5t-68 -42.5q69 -15 69 -80q0 -66 -59.5 -106.5t-142.5 -40.5t-124 32 t-34 95z" />
<glyph horiz-adv-x="382" d="M100 497l16 95l168 268h120l-170 -268h72l14 82h115l-14 -82h55l-16 -95h-56l-10 -57h-115l10 57h-189z" />
<glyph horiz-adv-x="379" d="M120 555h126q0 -38 40 -38q29 0 44.5 22t15.5 58q0 44 -42 44q-32 0 -59 -24h-102l43 243h303l-17 -95h-201l-13 -74q44 33 99 33q53 0 84 -29.5t31 -85.5q0 -81 -60 -129.5t-141 -48.5q-78 0 -117.5 31.5t-33.5 92.5z" />
<glyph horiz-adv-x="391" d="M122 590q0 125 67.5 202t166.5 77q71 0 110 -30.5t35 -85.5h-127q-5 29 -33 29q-29 0 -51 -29t-32 -83q42 42 105 42q58 0 89.5 -28t31.5 -81q0 -78 -60.5 -125t-142.5 -47q-76 0 -117.5 42t-41.5 117zM250 582q0 -65 47 -65q29 0 44.5 20.5t15.5 48.5q0 43 -45 43 q-31 0 -61 -20q-1 -9 -1 -27z" />
<glyph horiz-adv-x="327" d="M122 440l208 325h-183l17 95h302l-17 -95l-205 -325h-122z" />
<glyph horiz-adv-x="403" d="M111 536q0 41 26.5 74.5t78.5 46.5q-28 10 -43.5 32t-15.5 48q0 62 56 97t142 35q71 0 113.5 -27t42.5 -76q0 -37 -25.5 -66t-66.5 -43q34 -9 51 -33t17 -55q0 -67 -57 -102.5t-152 -35.5q-79 0 -123 26.5t-44 78.5zM239 556q0 -39 54 -39q70 0 70 55q0 38 -53 38 q-71 0 -71 -54zM280 729q0 -35 44 -35q59 0 59 52q0 36 -44 36q-59 0 -59 -53z" />
<glyph horiz-adv-x="391" d="M119 550h127q4 -33 33 -33t51.5 29.5t32.5 83.5q-43 -42 -104 -42q-60 0 -91 28t-31 81q0 77 60.5 124.5t141.5 47.5q76 0 118 -42t42 -117q0 -125 -68 -202t-167 -77q-71 0 -110 31t-35 88zM264 714q0 -43 44 -43q32 0 62 20q1 9 1 27q0 64 -47 64q-30 0 -45 -20 t-15 -48z" />
<glyph horiz-adv-x="369" d="M130 611l17 96h114l20 112h96l-20 -112h114l-17 -96h-114l-20 -110h-96l20 110h-114z" />
<glyph horiz-adv-x="369" d="M130 612l17 95h324l-17 -95h-324z" />
<glyph horiz-adv-x="369" d="M117 537l17 95h324l-17 -95h-324zM144 687l16 95h324l-17 -95h-323z" />
<glyph horiz-adv-x="172" d="M82 339l47 191h115l-64 -191h-98z" />
<glyph horiz-adv-x="187" d="M109 490q0 35 24.5 59t61.5 24q28 0 44 -16.5t16 -41.5q0 -35 -24.5 -59.5t-60.5 -24.5q-29 0 -45 16.5t-16 42.5z" />
<glyph horiz-adv-x="260" d="M131 598q0 57 17 110.5t47 95.5t60.5 73.5t65.5 57.5h116q-76 -61 -124.5 -154.5t-48.5 -186.5q0 -65 19 -127.5t53 -101.5h-116q-37 38 -63 98.5t-26 134.5z" />
<glyph horiz-adv-x="260" d="M51 365q76 60 125 153.5t49 186.5q0 65 -19.5 128t-53.5 102h118q37 -39 62.5 -99.5t25.5 -133.5q0 -192 -189 -337h-118z" />
<glyph horiz-adv-x="439" d="M33 47q0 114 68.5 188t171.5 74q77 0 120.5 -47.5t43.5 -128.5q0 -115 -68.5 -188.5t-172.5 -73.5q-75 0 -119 47.5t-44 128.5zM162 42q0 -79 50 -79q39 0 67 50t28 124q0 80 -50 80q-39 0 -67 -50t-28 -125z" />
<glyph horiz-adv-x="272" d="M37 140l18 106l116 54h127l-74 -420h-127l55 314z" />
<glyph horiz-adv-x="383" d="M14 -120l16 94q27 18 63.5 43t55.5 38t43.5 30.5t36 28.5t23.5 24.5t16.5 25.5t4.5 25q0 33 -37 33q-44 0 -58 -53h-126q16 68 69.5 104t129.5 36q69 0 108 -29t39 -81q0 -31 -9.5 -54.5t-40.5 -53t-58.5 -50t-93.5 -67.5h167l-16 -94h-333z" />
<glyph horiz-adv-x="402" d="M22 -2h126q-2 -20 9.5 -30.5t38.5 -10.5q31 0 46 14.5t15 37.5q0 39 -68 39h-48l15 89h48q76 0 76 55q0 30 -38 30q-43 0 -56 -40h-127q16 60 69.5 93.5t128.5 33.5q67 0 107.5 -26.5t40.5 -76.5q0 -35 -24 -65.5t-67 -42.5q68 -15 68 -80q0 -66 -59.5 -106.5 t-141.5 -40.5q-84 0 -125 32t-34 95z" />
<glyph horiz-adv-x="382" d="M1 -63l16 95l168 268h120l-170 -268h72l14 82h115l-14 -82h55l-16 -95h-56l-10 -57h-115l10 57h-189z" />
<glyph horiz-adv-x="379" d="M21 -5h126q0 -38 40 -38q29 0 44.5 22t15.5 58q0 44 -42 44q-32 0 -59 -24h-102l43 243h303l-17 -95h-201l-13 -74q43 33 99 33q53 0 84 -29.5t31 -85.5q0 -81 -60 -129.5t-141 -48.5q-78 0 -117.5 31.5t-33.5 92.5z" />
<glyph horiz-adv-x="391" d="M23 30q0 125 67.5 202t166.5 77q71 0 110 -30.5t35 -85.5h-127q-5 29 -33 29q-29 0 -51 -29t-32 -83q42 42 105 42q58 0 89.5 -28t31.5 -81q0 -78 -60.5 -125t-142.5 -47q-76 0 -117.5 42t-41.5 117zM151 22q0 -65 47 -65q29 0 44.5 20.5t15.5 48.5q0 43 -45 43 q-31 0 -61 -20q-1 -9 -1 -27z" />
<glyph horiz-adv-x="327" d="M23 -120l208 325h-183l17 95h302l-17 -95l-205 -325h-122z" />
<glyph horiz-adv-x="403" d="M12 -24q0 41 26.5 74.5t78.5 46.5q-28 10 -43.5 32t-15.5 48q0 62 56 97t142 35q71 0 113.5 -27t42.5 -76q0 -37 -25.5 -66t-66.5 -43q34 -9 51 -33t17 -55q0 -67 -57 -102.5t-152 -35.5q-79 0 -123 26.5t-44 78.5zM140 -4q0 -39 54 -39q70 0 70 55q0 38 -53 38 q-71 0 -71 -54zM181 169q0 -35 44 -35q59 0 59 52q0 36 -44 36q-59 0 -59 -53z" />
<glyph horiz-adv-x="391" d="M20 -10h127q4 -33 33 -33t51.5 29.5t32.5 83.5q-44 -42 -104 -42t-91 28t-31 81q0 77 60.5 124.5t141.5 47.5q76 0 118 -42t42 -117q0 -125 -68 -202t-167 -77q-71 0 -110 31t-35 88zM165 154q0 -43 44 -43q32 0 62 20q1 9 1 27q0 64 -47 64q-29 0 -44.5 -20t-15.5 -48z " />
<glyph horiz-adv-x="369" d="M31 51l17 96h114l20 112h96l-20 -112h114l-17 -96h-114l-20 -110h-96l20 110h-114z" />
<glyph horiz-adv-x="369" d="M31 52l17 95h324l-17 -95h-324z" />
<glyph horiz-adv-x="369" d="M18 -23l17 95h324l-17 -95h-324zM45 127l16 95h324l-17 -95h-323z" />
<glyph horiz-adv-x="172" d="M-17 -221l47 191h115l-64 -191h-98z" />
<glyph horiz-adv-x="199" d="M10 -70q0 35 24.5 59t61.5 24q28 0 44 -16.5t16 -41.5q0 -35 -24 -59.5t-61 -24.5q-29 0 -45 16.5t-16 42.5z" />
<glyph horiz-adv-x="260" d="M32 38q0 194 190 337h116q-76 -61 -124.5 -154.5t-48.5 -186.5q0 -65 19 -127.5t53 -101.5h-116q-37 38 -63 98.5t-26 134.5z" />
<glyph horiz-adv-x="260" d="M-47 -195q76 61 125 154.5t49 185.5q0 65 -19.5 128t-53.5 102h118q36 -39 61.5 -99.5t25.5 -133.5q0 -193 -188 -337h-118z" />
<glyph horiz-adv-x="439" d="M104 447q0 114 68.5 188t171.5 74q77 0 120.5 -47.5t43.5 -128.5q0 -115 -68.5 -188.5t-172.5 -73.5q-75 0 -119 47.5t-44 128.5zM233 442q0 -79 50 -79q39 0 67 50t28 124q0 80 -50 80q-39 0 -67 -50t-28 -125z" />
<glyph horiz-adv-x="272" d="M107 540l18 106l116 54h127l-74 -420h-127l55 314z" />
<glyph horiz-adv-x="383" d="M84 280l16 94q27 18 63.5 43t55.5 38t43.5 30.5t36 28.5t23.5 24.5t16.5 25.5t4.5 25q0 33 -37 33q-44 0 -58 -53h-126q16 68 69.5 104t129.5 36q69 0 108 -29t39 -81q0 -31 -9.5 -54.5t-40.5 -53t-58.5 -50t-93.5 -67.5h167l-16 -94h-333z" />
<glyph horiz-adv-x="402" d="M93 398h126q-2 -21 9 -31t39 -10q30 0 45.5 15t15.5 37q0 39 -68 39h-49l16 89h48q75 0 75 55q0 30 -37 30q-43 0 -57 -40h-126q16 60 69 93.5t129 33.5q67 0 107.5 -26.5t40.5 -76.5q0 -35 -24 -65.5t-68 -42.5q69 -15 69 -80q0 -66 -59.5 -106.5t-142.5 -40.5t-124 32 t-34 95z" />
<glyph horiz-adv-x="382" d="M71 337l16 95l168 268h120l-170 -268h72l14 82h115l-14 -82h55l-16 -95h-56l-10 -57h-115l10 57h-189z" />
<glyph horiz-adv-x="379" d="M92 395h126q0 -38 40 -38q29 0 44.5 22t15.5 58q0 44 -42 44q-32 0 -59 -24h-102l43 243h303l-17 -95h-201l-13 -74q44 33 99 33q53 0 84 -29.5t31 -85.5q0 -81 -60 -129.5t-141 -48.5q-78 0 -117.5 31.5t-33.5 92.5z" />
<glyph horiz-adv-x="391" d="M94 430q0 125 67.5 202t166.5 77q71 0 110 -30.5t35 -85.5h-127q-5 29 -33 29q-29 0 -51 -29t-32 -83q42 42 105 42q58 0 89.5 -28t31.5 -81q0 -78 -60.5 -125t-142.5 -47q-76 0 -117.5 42t-41.5 117zM222 422q0 -65 47 -65q29 0 44.5 20.5t15.5 48.5q0 43 -45 43 q-31 0 -61 -20q-1 -9 -1 -27z" />
<glyph horiz-adv-x="327" d="M93 280l208 325h-183l17 95h302l-17 -95l-205 -325h-122z" />
<glyph horiz-adv-x="403" d="M83 376q0 41 26.5 74.5t78.5 46.5q-28 10 -43.5 32t-15.5 48q0 62 56 97t142 35q71 0 113.5 -27t42.5 -76q0 -37 -25.5 -66t-66.5 -43q34 -9 51 -33t17 -55q0 -67 -57 -102.5t-152 -35.5q-79 0 -123 26.5t-44 78.5zM211 396q0 -39 54 -39q70 0 70 55q0 38 -53 38 q-71 0 -71 -54zM252 569q0 -35 44 -35q59 0 59 52q0 36 -44 36q-59 0 -59 -53z" />
<glyph horiz-adv-x="391" d="M91 390h127q4 -33 33 -33t51.5 29.5t32.5 83.5q-43 -42 -104 -42q-60 0 -91 28t-31 81q0 77 60.5 124.5t141.5 47.5q76 0 118 -42t42 -117q0 -125 -68 -202t-167 -77q-71 0 -110 31t-35 88zM236 554q0 -43 44 -43q32 0 62 20q1 9 1 27q0 64 -47 64q-30 0 -45 -20t-15 -48 z" />
<glyph horiz-adv-x="439" d="M54 167q0 114 68.5 188t171.5 74q77 0 120.5 -47.5t43.5 -128.5q0 -115 -68.5 -188.5t-172.5 -73.5q-75 0 -119 47.5t-44 128.5zM183 162q0 -79 50 -79q39 0 67 50t28 124q0 80 -50 80q-39 0 -67 -50t-28 -125z" />
<glyph horiz-adv-x="272" d="M58 260l18 106l116 54h127l-74 -420h-127l55 314z" />
<glyph horiz-adv-x="383" d="M35 0l16 94q27 18 63.5 43t55.5 38t43.5 30.5t36 28.5t23.5 24.5t16.5 25.5t4.5 25q0 33 -37 33q-44 0 -58 -53h-126q16 68 69.5 104t129.5 36q69 0 108 -29t39 -81q0 -31 -9.5 -54.5t-40.5 -53t-58.5 -50t-93.5 -67.5h167l-16 -94h-333z" />
<glyph horiz-adv-x="402" d="M43 118h126q-2 -21 9 -31t39 -10q30 0 45.5 15t15.5 37q0 39 -68 39h-49l16 89h48q75 0 75 55q0 30 -37 30q-43 0 -57 -40h-126q16 60 69 93.5t129 33.5q67 0 107.5 -26.5t40.5 -76.5q0 -35 -24 -65.5t-68 -42.5q69 -15 69 -80q0 -66 -59.5 -106.5t-142.5 -40.5t-124 32 t-34 95z" />
<glyph horiz-adv-x="382" d="M22 57l16 95l168 268h120l-170 -268h72l14 82h115l-14 -82h55l-16 -95h-56l-10 -57h-115l10 57h-189z" />
<glyph horiz-adv-x="379" d="M42 115h126q0 -38 40 -38q29 0 44.5 22t15.5 58q0 44 -42 44q-32 0 -59 -24h-102l43 243h303l-17 -95h-201l-13 -74q44 33 99 33q53 0 84 -29.5t31 -85.5q0 -81 -60 -129.5t-141 -48.5q-78 0 -117.5 31.5t-33.5 92.5z" />
<glyph horiz-adv-x="391" d="M44 150q0 125 67.5 202t166.5 77q71 0 110 -30.5t35 -85.5h-127q-5 29 -33 29q-29 0 -51 -29t-32 -83q42 42 105 42q58 0 89.5 -28t31.5 -81q0 -78 -60.5 -125t-142.5 -47q-76 0 -117.5 42t-41.5 117zM172 142q0 -65 47 -65q29 0 44.5 20.5t15.5 48.5q0 43 -45 43 q-31 0 -61 -20q-1 -9 -1 -27z" />
<glyph horiz-adv-x="327" d="M44 0l208 325h-183l17 95h302l-17 -95l-205 -325h-122z" />
<glyph horiz-adv-x="403" d="M33 96q0 41 26.5 74.5t78.5 46.5q-28 10 -43.5 32t-15.5 48q0 62 56 97t142 35q71 0 113.5 -27t42.5 -76q0 -37 -25.5 -66t-66.5 -43q34 -9 51 -33t17 -55q0 -67 -57 -102.5t-152 -35.5q-79 0 -123 26.5t-44 78.5zM161 116q0 -39 54 -39q70 0 70 55q0 38 -53 38 q-71 0 -71 -54zM202 289q0 -35 44 -35q59 0 59 52q0 36 -44 36q-59 0 -59 -53z" />
<glyph horiz-adv-x="391" d="M41 110h127q4 -33 33 -33t51.5 29.5t32.5 83.5q-44 -42 -104 -42t-91 28t-31 81q0 77 60.5 124.5t141.5 47.5q76 0 118 -42t42 -117q0 -125 -68 -202t-167 -77q-71 0 -110 31t-35 88zM186 274q0 -43 44 -43q32 0 62 20q1 9 1 27q0 64 -47 64q-30 0 -45 -20t-15 -48z" />
<glyph horiz-adv-x="778" d="M69 121l297 252l-206 254l99 78l203 -251l297 251l79 -94l-298 -252l207 -256l-100 -77l-204 251l-296 -250z" />
<glyph horiz-adv-x="995" d="M77 309l20 114h920l-20 -114h-920z" />
<glyph horiz-adv-x="495" d="M77 309l20 114h420l-20 -114h-420z" />
<glyph horiz-adv-x="311" d="M63 310l19 114h248l-20 -114h-247z" />
<glyph horiz-adv-x="340" d="M99 299l24 137l272 185l-29 -166l-133 -89l102 -87l-29 -165z" />
<glyph horiz-adv-x="340" d="M67 114l29 167l133 88l-102 88l29 164l207 -185l-24 -137z" />
<glyph horiz-adv-x="595" d="M99 299l24 137l272 185l-29 -165l-133 -89l102 -87l-29 -166zM354 299l24 137l272 185l-29 -165l-133 -89l102 -87l-29 -166z" />
<glyph horiz-adv-x="595" d="M67 114l29 166l133 89l-102 87l29 165l207 -185l-24 -137zM322 114l29 166l133 89l-102 87l29 165l207 -185l-24 -137z" />
<glyph horiz-adv-x="515" d="M46 140q0 54 25 95.5t60 66t69.5 46.5t57 51.5t19.5 67.5h146q2 -56 -19.5 -94t-54.5 -58.5t-66.5 -38.5t-57 -46.5t-23.5 -69.5q0 -29 18 -45.5t51 -16.5q79 0 101 94h156q-24 -101 -95.5 -154t-182.5 -53q-93 0 -148.5 40.5t-55.5 114.5zM283 610q0 45 30.5 75t76.5 30 q34 0 54.5 -21t20.5 -54q0 -45 -31 -74.5t-76 -29.5q-35 0 -55 20.5t-20 53.5z" />
<glyph horiz-adv-x="309" d="M58 0l106 467h117l-57 -467h-166zM160 610q0 45 30.5 75t76.5 30q34 0 55 -21t21 -54q0 -45 -31 -74.5t-76 -29.5q-35 0 -55.5 20.5t-20.5 53.5z" />
<glyph horiz-adv-x="969" d="M60 263q0 230 160.5 381t412.5 151q165 0 273 -95t108 -251q0 -94 -29.5 -170t-77 -121t-101.5 -69t-108 -24q-103 0 -124 73q-44 -41 -81 -57.5t-81 -16.5q-66 0 -105 58t-39 152q0 148 79 248t186 100q64 0 105 -61l7 42h155l-68 -382q-9 -55 29 -55q47 0 88.5 81.5 t41.5 190.5q0 123 -71 192t-205 69q-86 0 -164 -28.5t-137.5 -81t-94.5 -133t-35 -177.5q0 -170 90 -248t244 -78q56 0 131.5 13t117.5 29l-16 -95q-46 -17 -121 -30t-143 -13q-82 0 -157 25.5t-136 74t-97.5 128t-36.5 178.5zM426 288q0 -53 17.5 -83t47.5 -30q44 0 84 35 v-1l48 269q-25 34 -63 34q-58 0 -96 -65t-38 -159z" />
<glyph horiz-adv-x="837" d="M90 231l17 101h739l-18 -101h-738z" />
<glyph horiz-adv-x="435" d="M90 231l17 101h337l-17 -101h-337z" />
<glyph horiz-adv-x="301" d="M90 231l17 101h203l-18 -101h-202z" />
<glyph horiz-adv-x="427" d="M88 394q19 77 79.5 120t149.5 43q79 0 125.5 -33t46.5 -92q0 -44 -20 -76.5t-47.5 -50.5t-55 -33.5t-45 -36t-14.5 -47.5h-134q-3 44 14 73t43 43.5t52.5 26.5t45.5 31.5t19 49.5q0 23 -13.5 34t-33.5 11q-56 0 -71 -63h-141zM140 51q0 39 27.5 65.5t67.5 26.5 q31 0 49 -18t18 -48q0 -39 -27 -65.5t-68 -26.5q-31 0 -49 18t-18 48z" />
<glyph horiz-adv-x="412" d="M0 110q0 44 20 76.5t47.5 50.5t55 33.5t45 36t14.5 47.5h133q3 -44 -13.5 -73.5t-43 -44t-53 -26t-45.5 -31t-19 -49.5q0 -22 13.5 -33.5t33.5 -11.5q57 0 71 63h142q-19 -78 -80 -120.5t-150 -42.5q-79 0 -125 33t-46 92zM186 465q0 39 27.5 65.5t68.5 26.5q30 0 48 -18 t18 -48q0 -39 -27 -65.5t-67 -26.5q-32 0 -50 18t-18 48z" />
<glyph horiz-adv-x="270" d="M56 51q0 39 27.5 65.5t67.5 26.5q31 0 49 -18t18 -48q0 -39 -27 -65.5t-68 -26.5q-31 0 -49 18t-18 48zM104 188l44 355h149l-83 -355h-110z" />
<glyph horiz-adv-x="232" d="M20 0l82 355h110l-44 -355h-148zM98 466q0 39 27.5 65.5t67.5 26.5q31 0 49 -18t18 -48q0 -39 -27 -65.5t-68 -26.5q-31 0 -49 18t-18 48z" />
<glyph horiz-adv-x="362" d="M124 411q0 61 45.5 103.5t109.5 42.5q49 0 79.5 -30t30.5 -78q0 -61 -45.5 -103.5t-109.5 -42.5q-49 0 -79.5 30t-30.5 78zM219 406q20 -25 49 -8q17 7 25 23t1 32q-20 27 -49 8q-17 -6 -25 -22.5t-1 -32.5z" />
<glyph horiz-adv-x="228" d="M121 320l25 223h128l-53 -223h-100z" />
<glyph horiz-adv-x="391" d="M121 320l25 223h128l-53 -223h-100zM284 320l25 223h128l-53 -223h-100z" />
<glyph horiz-adv-x="266" d="M94 430l126 273h153l-157 -273h-122z" />
<glyph horiz-adv-x="468" d="M94 430l126 273h153l-157 -273h-122zM296 430l126 273h154l-158 -273h-122z" />
<glyph horiz-adv-x="266" d="M94 430l157 273h122l-126 -273h-153z" />
<glyph horiz-adv-x="468" d="M94 430l157 273h122l-126 -273h-153zM296 430l158 273h122l-126 -273h-154z" />
<glyph horiz-adv-x="468" d="M83 230l18 102h140l24 137h103l-24 -137h140l-18 -102h-140l-24 -138h-102l24 138h-141z" />
<glyph horiz-adv-x="465" d="M83 230l18 102h380l-18 -102h-380z" />
<glyph horiz-adv-x="460" d="M64 136l18 102h380l-18 -102h-380zM97 324l18 102h380l-18 -102h-380z" />
<glyph horiz-adv-x="354" d="M100 200q0 75 21.5 145t58.5 124.5t75 95t82 74.5h133q-96 -79 -157 -200.5t-61 -243.5q0 -83 23 -163t65 -129h-133q-45 49 -76 126t-31 171z" />
<glyph horiz-adv-x="353" d="M-32 -97q95 79 156.5 200.5t61.5 243.5q0 83 -23 163t-65 129h133q45 -48 75.5 -125.5t30.5 -171.5q0 -75 -21.5 -144.5t-58.5 -124.5t-74.5 -95t-81.5 -75h-133z" />
<glyph horiz-adv-x="341" d="M101 -97l130 736h216l-16 -89h-72l-99 -559h72l-15 -88h-216z" />
<glyph horiz-adv-x="341" d="M1 -97l15 88h71l99 559h-71l16 89h216l-130 -736h-216z" />
<glyph horiz-adv-x="349" d="M86 225l16 93q42 0 63 11.5t27 43.5l19 107q14 80 73.5 119.5t149.5 39.5h21l-15 -89h-18q-54 0 -65 -65l-18 -102q-8 -43 -35 -73t-61 -39q31 -9 47 -39.5t9 -72.5l-18 -102q-14 -66 42 -66h18l-15 -88h-21q-91 0 -136.5 39.5t-31.5 119.5l19 108q5 32 -11.5 43.5 t-58.5 11.5z" />
<glyph horiz-adv-x="356" d="M1 -97l15 88h18q52 0 64 66l18 102q8 42 35.5 72.5t61.5 39.5q-32 9 -48 39t-9 73l18 102q13 65 -42 65h-18l15 89h21q91 0 136.5 -39.5t31.5 -119.5l-19 -107q-5 -32 11.5 -43.5t58.5 -11.5l-16 -93q-42 0 -63 -11.5t-27 -43.5l-19 -108q-14 -80 -73 -119.5t-149 -39.5 h-21z" />
<glyph horiz-adv-x="431" d="M19 -31l358 605h151l-358 -605h-151z" />
<glyph horiz-adv-x="455" d="M135 574h137l146 -605h-137z" />
<glyph horiz-adv-x="580" d="M43 125q0 53 33.5 97.5t88.5 70.5q-36 49 -36 90q0 73 65 123.5t157 50.5q83 0 133 -42t44 -119h-142q4 64 -52 64q-28 0 -46 -16.5t-18 -44.5q0 -31 35 -72l108 -127q20 45 29 94h135q-17 -96 -92 -179l98 -115h-172l-27 32q-79 -47 -164 -47q-79 0 -128 37t-49 103z M177 150q0 -33 23.5 -49.5t57.5 -16.5q36 0 68 17l-107 126q-42 -29 -42 -77z" />
<glyph horiz-adv-x="894" d="M105 369l439 373l71 -86l-267 -227h582l-21 -120h-585l188 -228l-100 -85z" />
<glyph horiz-adv-x="894" d="M94 309l21 120h585l-188 228l100 85l307 -373l-439 -374l-71 87l267 227h-582z" />
<glyph horiz-adv-x="826" d="M111 403l439 373l307 -373l-101 -85l-187 227l-102 -584h-120l101 583l-266 -227z" />
<glyph horiz-adv-x="826" d="M99 335l100 85l187 -228l103 584h121l-103 -583l267 228l72 -86l-439 -374z" />
<glyph horiz-adv-x="738" d="M103 131l93 529h528l-21 -122h-323l339 -412l-99 -85l-340 413l-56 -323h-121z" />
<glyph horiz-adv-x="738" d="M62 126l484 412h-320l21 122h527l-93 -529h-120l56 322l-484 -412z" />
<glyph horiz-adv-x="738" d="M137 41l22 121h322l-339 412l99 85l339 -414l58 324h120l-93 -528h-528z" />
<glyph horiz-adv-x="738" d="M87 41l93 528h121l-57 -322l484 413l71 -87l-484 -411h321l-22 -121h-527z" />
<glyph horiz-adv-x="1704" d="M105 369l439 373l71 -86l-267 -227h1391l-21 -120h-1394l188 -228l-100 -85z" />
<glyph horiz-adv-x="1704" d="M94 309l21 120h1394l-187 228l99 85l308 -373l-439 -374l-71 87l266 227h-1391z" />
<glyph horiz-adv-x="232" d="M150 568l42 235h132l-70 -235h-104z" />
<glyph horiz-adv-x="424" d="M182 750l153 145h197l-220 -145h-130z" />
<glyph horiz-adv-x="457" d="M208 895h103q-4 -23 12.5 -37t54.5 -14q74 0 83 51h104q-13 -77 -73 -117t-133 -40t-118.5 40t-32.5 117z" />
<glyph horiz-adv-x="553" d="M208 895h138l75 -60l98 60h142l-177 -145h-151z" />
<glyph horiz-adv-x="553" d="M182 750l176 145h152l125 -145h-138l-76 60l-97 -60h-142z" />
<glyph horiz-adv-x="496" d="M196 821q0 40 29 66.5t71 26.5q33 0 53 -18.5t20 -49.5q0 -41 -29 -67.5t-72 -26.5q-32 0 -52 19t-20 50zM421 820q0 41 29 67.5t72 26.5q32 0 52 -19t20 -50q0 -40 -29.5 -66.5t-70.5 -26.5q-33 0 -53 19t-20 49z" />
<glyph horiz-adv-x="279" d="M196 819q0 42 31 70t74 28q34 0 55.5 -20t21.5 -52q0 -42 -31 -70t-76 -28q-34 0 -54.5 20t-20.5 52z" />
<glyph horiz-adv-x="424" d="M208 895h186l112 -145h-120z" />
<glyph horiz-adv-x="595" d="M182 750l130 145h176l-189 -145h-117zM397 750l129 145h176l-189 -145h-116z" />
<glyph horiz-adv-x="447" d="M187 779l18 102h348l-18 -102h-348z" />
<glyph horiz-adv-x="362" d="M194 809q0 51 44.5 85t105.5 34q51 0 83 -25t32 -66q0 -51 -44.5 -85t-106.5 -34q-51 0 -82.5 25t-31.5 66zM297 831q-15 -25 11 -41q16 -4 29.5 3.5t18.5 21.5q15 25 -12 40q-15 5 -28.5 -2t-18.5 -22z" />
<glyph horiz-adv-x="516" d="M189 792q28 53 67.5 82.5t78.5 29.5q33 0 86 -20.5t66 -20.5q32 0 56 39l75 -37q-28 -54 -66.5 -83.5t-77.5 -29.5q-33 0 -86 21t-66 21q-31 0 -57 -39z" />
<glyph horiz-adv-x="374" d="M152 581l122 113h173l-175 -113h-120z" />
<glyph horiz-adv-x="406" d="M173 694h97q-3 -15 8.5 -24.5t40.5 -9.5q54 0 61 34h98q-11 -60 -60 -90t-114 -30t-103.5 30t-27.5 90z" />
<glyph horiz-adv-x="473" d="M173 694h120l57 -37l71 37h125l-147 -113h-121z" />
<glyph horiz-adv-x="473" d="M152 581l147 113h121l105 -113h-120l-58 37l-70 -37h-125z" />
<glyph horiz-adv-x="427" d="M163 637q0 32 25.5 53.5t59.5 21.5q27 0 44.5 -16t17.5 -41q0 -32 -25 -53t-60 -21q-28 0 -45 15.5t-17 40.5zM346 637q0 32 25 53.5t59 21.5q28 0 45 -15.5t17 -40.5q0 -32 -25 -53.5t-60 -21.5q-27 0 -44 15.5t-17 40.5z" />
<glyph horiz-adv-x="249" d="M163 635q0 34 26 56t61 22q28 0 46 -16t18 -42q0 -33 -26 -55t-62 -22q-28 0 -45.5 16t-17.5 41z" />
<glyph horiz-adv-x="374" d="M173 694h163l90 -113h-110z" />
<glyph horiz-adv-x="526" d="M152 581l104 113h156l-151 -113h-109zM339 581l103 113h157l-151 -113h-109z" />
<glyph horiz-adv-x="378" d="M155 594l16 90h278l-16 -90h-278z" />
<glyph horiz-adv-x="317" d="M162 628q0 40 35 65.5t88 25.5q44 0 70 -19t26 -50q0 -41 -35 -66.5t-89 -25.5q-44 0 -69.5 19t-25.5 51zM249 644q-9 -16 10 -27q26 -7 33 16q10 16 -9 27q-25 7 -34 -16z" />
<glyph horiz-adv-x="447" d="M158 615q48 89 119 89q25 0 68.5 -14t58.5 -14q22 0 41 26l70 -34q-47 -89 -119 -89q-25 0 -69 14t-59 14q-20 0 -39 -26z" />
</font>
</defs>
</svg>
