<?xml version="1.0" standalone="no"?>
<!DOCTYPE svg PUBLIC "-//W3C//DTD SVG 1.1//EN" "http://www.w3.org/Graphics/SVG/1.1/DTD/svg11.dtd" >
<svg xmlns="http://www.w3.org/2000/svg">
<metadata></metadata>
<defs>
<font id="vegan_sans_premium_black_italic" horiz-adv-x="600" >
<font-face units-per-em="1000" ascent="800" descent="-200" />
<missing-glyph horiz-adv-x="300" />
<glyph unicode="fb" horiz-adv-x="955" d="M60 416l19 110h80l2 10q19 111 107.5 167t216.5 56q61 0 122.5 -10.5t96.5 -27.5l-43 -243q41 33 75.5 48t75.5 15q143 0 143 -209q0 -142 -74 -244.5t-181 -102.5q-75 0 -115 62l-8 -47h-170l114 648q-24 6 -54 6q-116 0 -136 -117l-2 -11h100l-19 -110h-101l-73 -416 h-170l73 416h-79zM599 126q29 -26 59 -26q62 0 94 63.5t32 153.5q0 109 -63 109q-35 0 -74 -27z" />
<glyph unicode="ff" horiz-adv-x="746" d="M60 416l19 110h80l7 40q17 96 78.5 144.5t142.5 48.5q72 0 109 -19l-16 -95q-28 7 -64 7q-65 0 -80 -85l-7 -41h180l7 40q17 96 78.5 144.5t142.5 48.5q72 0 109 -19l-16 -95q-28 7 -64 7q-65 0 -80 -85l-7 -41h130l-19 -110h-131l-73 -416h-170l73 416h-180l-73 -416 h-170l73 416h-79z" />
<glyph unicode="fh" horiz-adv-x="976" d="M60 416l19 110h80l2 10q19 111 107.5 167t216.5 56q61 0 122.5 -10.5t96.5 -27.5l-47 -264q99 84 197 84q56 0 89.5 -39.5t16.5 -134.5l-65 -367h-170l61 347q11 63 -55 63q-44 0 -88 -32l-67 -378h-170l115 648q-24 6 -54 6q-116 0 -136 -117l-2 -11h100l-19 -110h-101 l-73 -416h-170l73 416h-79z" />
<glyph unicode="fi" horiz-adv-x="659" d="M60 416l19 110h80l7 40q17 96 78.5 144.5t142.5 48.5q62 0 99 -19l-16 -95q-28 7 -54 7q-65 0 -80 -85l-7 -41h340l-93 -526h-170l73 416h-170l-73 -416h-170l73 416h-79zM512 651q0 48 33.5 82t80.5 34q38 0 58.5 -23t20.5 -61q0 -48 -33.5 -82t-80.5 -34 q-38 0 -58.5 23t-20.5 61z" />
<glyph unicode="fj" horiz-adv-x="659" d="M60 416l19 110h80l7 40q17 96 78.5 144.5t142.5 48.5q62 0 99 -19l-16 -95q-28 7 -54 7q-65 0 -80 -85l-7 -41h340l-130 -734h-170l110 624h-170l-73 -416h-170l73 416h-79zM512 651q0 48 33.5 82t80.5 34q38 0 58.5 -23t20.5 -61q0 -48 -33.5 -82t-80.5 -34 q-38 0 -58.5 23t-20.5 61z" />
<glyph unicode="fk" horiz-adv-x="930" d="M60 416l19 110h80l2 10q19 111 107.5 167t216.5 56q61 0 122.5 -10.5t96.5 -27.5l-73 -413l177 218h172l-206 -241l127 -285h-183l-99 240l-43 -240h-170l115 648q-24 6 -54 6q-116 0 -136 -117l-2 -11h100l-19 -110h-101l-73 -416h-170l73 416h-79z" />
<glyph unicode="fl" horiz-adv-x="656" d="M60 416l19 110h80l2 10q19 111 107.5 167t216.5 56q61 0 122.5 -10.5t96.5 -27.5l-128 -721h-170l115 648q-24 6 -54 6q-116 0 -136 -117l-2 -11h100l-19 -110h-101l-73 -416h-170l73 416h-79z" />
<glyph unicode="ft" horiz-adv-x="739" d="M60 416l19 110h80l7 40q17 96 78.5 144.5t142.5 48.5q72 0 109 -19l-16 -95q-28 7 -64 7q-65 0 -80 -85l-7 -41h169l24 134h170l-24 -134h121l-19 -110h-121l-42 -239q-15 -85 45 -85q18 0 62 10l-17 -95q-51 -22 -117 -22q-177 0 -145 179l44 252h-170l-73 -416h-170 l73 416h-79z" />
<glyph unicode="ffb" horiz-adv-x="1305" d="M60 416l19 110h80l7 40q17 96 78.5 144.5t142.5 48.5q72 0 109 -19l-16 -95q-28 7 -64 7q-65 0 -80 -85l-7 -41h180l2 10q19 111 107.5 167t216.5 56q61 0 122.5 -10.5t96.5 -27.5l-43 -243q41 33 75.5 48t75.5 15q143 0 143 -209q0 -142 -74 -244.5t-181 -102.5 q-75 0 -115 62l-8 -47h-170l114 648q-24 6 -54 6q-116 0 -136 -117l-2 -11h100l-19 -110h-101l-73 -416h-170l73 416h-180l-73 -416h-170l73 416h-79zM949 126q29 -26 59 -26q62 0 94 63.5t32 153.5q0 109 -63 109q-35 0 -74 -27z" />
<glyph unicode="ffh" horiz-adv-x="1336" d="M60 416l19 110h80l7 40q17 96 78.5 144.5t142.5 48.5q72 0 109 -19l-16 -95q-28 7 -64 7q-65 0 -80 -85l-7 -41h190l2 10q19 111 107.5 167t216.5 56q61 0 122.5 -10.5t96.5 -27.5l-47 -264q99 84 197 84q56 0 89.5 -39.5t16.5 -134.5l-65 -367h-170l61 347q11 63 -55 63 q-44 0 -88 -32l-67 -378h-170l115 648q-24 6 -54 6q-116 0 -136 -117l-2 -11h100l-19 -110h-101l-73 -416h-170l73 416h-190l-73 -416h-170l73 416h-79z" />
<glyph unicode="ffi" horiz-adv-x="1009" d="M60 416l19 110h80l7 40q17 96 78.5 144.5t142.5 48.5q72 0 109 -19l-16 -95q-28 7 -64 7q-65 0 -80 -85l-7 -41h180l7 40q17 96 78.5 144.5t142.5 48.5q62 0 99 -19l-16 -95q-28 7 -54 7q-65 0 -80 -85l-7 -41h340l-93 -526h-170l73 416h-170l-73 -416h-170l73 416h-180 l-73 -416h-170l73 416h-79zM862 651q0 48 33.5 82t80.5 34q38 0 58.5 -23t20.5 -61q0 -48 -33.5 -82t-80.5 -34q-38 0 -58.5 23t-20.5 61z" />
<glyph unicode="ffj" horiz-adv-x="1009" d="M60 416l19 110h80l7 40q17 96 78.5 144.5t142.5 48.5q72 0 109 -19l-16 -95q-28 7 -64 7q-65 0 -80 -85l-7 -41h180l7 40q17 96 78.5 144.5t142.5 48.5q62 0 99 -19l-16 -95q-28 7 -54 7q-65 0 -80 -85l-7 -41h340l-130 -734h-170l110 624h-170l-73 -416h-170l73 416 h-180l-73 -416h-170l73 416h-79zM862 651q0 48 33.5 82t80.5 34q38 0 58.5 -23t20.5 -61q0 -48 -33.5 -82t-80.5 -34q-38 0 -58.5 23t-20.5 61z" />
<glyph unicode="ffk" horiz-adv-x="1280" d="M60 416l19 110h80l7 40q17 96 78.5 144.5t142.5 48.5q72 0 109 -19l-16 -95q-28 7 -64 7q-65 0 -80 -85l-7 -41h180l2 10q19 111 107.5 167t216.5 56q61 0 122.5 -10.5t96.5 -27.5l-73 -413l177 218h172l-206 -241l127 -285h-183l-99 240l-43 -240h-170l115 648 q-24 6 -54 6q-116 0 -136 -117l-2 -11h100l-19 -110h-101l-73 -416h-170l73 416h-180l-73 -416h-170l73 416h-79z" />
<glyph unicode="ffl" horiz-adv-x="1006" d="M60 416l19 110h80l7 40q17 96 78.5 144.5t142.5 48.5q72 0 109 -19l-16 -95q-28 7 -64 7q-65 0 -80 -85l-7 -41h180l2 10q19 111 107.5 167t216.5 56q61 0 122.5 -10.5t96.5 -27.5l-128 -721h-170l115 648q-24 6 -54 6q-116 0 -136 -117l-2 -11h100l-19 -110h-100 l-74 -416h-170l74 416h-181l-73 -416h-170l73 416h-79z" />
<glyph unicode="fft" horiz-adv-x="1089" d="M60 416l19 110h80l7 40q17 96 78.5 144.5t142.5 48.5q72 0 109 -19l-16 -95q-28 7 -64 7q-65 0 -80 -85l-7 -41h180l7 40q17 96 78.5 144.5t142.5 48.5q72 0 109 -19l-16 -95q-28 7 -64 7q-65 0 -80 -85l-7 -41h169l24 134h170l-24 -134h121l-19 -110h-121l-42 -239 q-15 -85 45 -85q18 0 62 10l-17 -95q-51 -22 -117 -22q-177 0 -145 179l44 252h-170l-73 -416h-170l73 416h-180l-73 -416h-170l73 416h-79z" />
<glyph unicode="tt" horiz-adv-x="759" d="M60 416l19 110h79l24 134h170l-24 -134h190l24 134h170l-24 -134h121l-19 -110h-121l-42 -239q-15 -85 45 -85q18 0 62 10l-17 -95q-51 -22 -117 -22q-177 0 -145 179l44 252h-190l-42 -239q-15 -85 45 -85q18 0 62 10l-17 -95q-51 -22 -117 -22q-177 0 -145 179l44 252 h-79z" />
<glyph unicode="&#xd;" horiz-adv-x="0" />
<glyph unicode=" "  horiz-adv-x="300" />
<glyph unicode="&#x09;" horiz-adv-x="300" />
<glyph unicode="&#xa0;" horiz-adv-x="300" />
<glyph unicode="!" horiz-adv-x="305" d="M40 68q0 50 34 83t85 33q39 0 61.5 -22.5t22.5 -59.5q0 -50 -33.5 -83.5t-85.5 -33.5q-39 0 -61.5 23t-22.5 60zM103 242l53 458h189l-107 -458h-135z" />
<glyph unicode="&#x22;" horiz-adv-x="440" d="M140 400l33 300h150l-71 -300h-112zM330 400l33 300h150l-71 -300h-112z" />
<glyph unicode="#" horiz-adv-x="673" d="M20 0l77 177h-68l25 139h103l39 90h-76l24 139h112l67 155h165l-67 -155h100l67 155h165l-67 -155h67l-24 -139h-103l-39 -90h76l-25 -139h-111l-77 -177h-165l77 177h-100l-77 -177h-165zM322 316h100l39 90h-100z" />
<glyph unicode="$" horiz-adv-x="607" d="M63 218h178q-5 -57 20.5 -83t68.5 -26q50 0 80 22t30 67q0 26 -22.5 44.5t-43 25t-71.5 18.5q-7 2 -11 3q-184 44 -184 186q0 95 65 157.5t172 77.5l19 110h160l-20 -116q73 -20 110.5 -74t30.5 -140h-178q4 51 -18 76t-63 25q-48 0 -75 -22t-27 -65q0 -26 22.5 -44.5 t43 -25t71.5 -18.5q7 -2 11 -3q39 -9 68 -21.5t57.5 -32.5t44 -51.5t15.5 -73.5q0 -90 -69 -156t-170 -86l-20 -112h-160l20 114q-82 19 -124.5 75t-30.5 149z" />
<glyph unicode="%" horiz-adv-x="1082" d="M132 448q0 114 69.5 187.5t175.5 73.5q79 0 123.5 -47.5t44.5 -129.5q0 -114 -69.5 -187.5t-175.5 -73.5q-78 0 -123 48t-45 129zM212 0l598 700h183l-598 -700h-183zM278 442q0 -68 40 -68q33 0 57 49t24 115q0 68 -40 68q-33 0 -57 -49t-24 -115zM660 168 q0 114 69.5 187.5t175.5 73.5q79 0 123.5 -47.5t44.5 -129.5q0 -114 -69.5 -187.5t-175.5 -73.5q-78 0 -123 48t-45 129zM806 162q0 -68 40 -68q33 0 57 49t24 115q0 68 -40 68q-33 0 -57 -49t-24 -115z" />
<glyph unicode="&#x26;" horiz-adv-x="690" d="M30 167q0 66 39 122.5t106 88.5q-42 58 -42 111q0 97 77 161.5t198 64.5q115 0 175.5 -49t53.5 -146h-178q2 39 -18 55t-55 16q-32 0 -58 -19t-26 -57q0 -33 43 -84l140 -170q32 62 42 124h168q-23 -129 -116 -239l121 -146h-214l-32 39q-91 -54 -188 -54 q-100 0 -168 47.5t-68 134.5zM194 200q0 -46 29.5 -66.5t74.5 -20.5q37 0 76 21l-128 154q-52 -32 -52 -88z" />
<glyph unicode="'" horiz-adv-x="250" d="M140 400l33 300h150l-71 -300h-112z" />
<glyph unicode="(" horiz-adv-x="419" d="M100 257q0 320 300 568h159q-120 -102 -197.5 -260t-77.5 -316q0 -107 28.5 -209.5t79.5 -164.5h-159q-56 64 -94.5 163t-38.5 219z" />
<glyph unicode=")" horiz-adv-x="420" d="M-60 -125q120 102 197.5 260t77.5 316q0 107 -28.5 209.5t-79.5 164.5h159q56 -65 95 -163.5t39 -218.5q0 -319 -301 -568h-159z" />
<glyph unicode="*" horiz-adv-x="443" d="M90 484l130 38l-116 38l93 123l79 -87l-6 124h143l-49 -123l108 86l51 -123l-130 -38l116 -38l-93 -123l-78 85l5 -122h-143l50 123l-109 -86z" />
<glyph unicode="+" horiz-adv-x="563" d="M80 302l23 129h175l31 175h129l-31 -175h176l-23 -129h-176l-31 -176h-129l31 176h-175z" />
<glyph unicode="," horiz-adv-x="217" d="M-18 -160l78 330h167l-107 -330h-138z" />
<glyph unicode="-" horiz-adv-x="323" d="M70 212l23 129h250l-23 -129h-250z" />
<glyph unicode="." horiz-adv-x="239" d="M33 68q0 50 34 83t85 33q39 0 61.5 -22.5t22.5 -59.5q0 -50 -33.5 -83.5t-85.5 -33.5q-39 0 -61.5 23t-22.5 60z" />
<glyph unicode="/" horiz-adv-x="560" d="M20 -40l452 780h188l-452 -780h-188z" />
<glyph unicode="0" horiz-adv-x="632" d="M70 261q0 194 100.5 324t254.5 130q110 0 168.5 -72.5t58.5 -203.5q0 -194 -101 -324t-255 -130q-110 0 -168 72.5t-58 203.5zM248 264q0 -150 71 -150q54 0 90.5 55t50 124.5t13.5 142.5q0 150 -70 150q-41 0 -72.5 -31.5t-48.5 -81t-25.5 -103t-8.5 -106.5z" />
<glyph unicode="1" horiz-adv-x="433" d="M80 451l28 159l180 90h175l-123 -700h-175l95 541z" />
<glyph unicode="2" horiz-adv-x="582" d="M40 0l25 139q32 25 79 61.5t70.5 55t58 46.5t51 43t39 36.5t32.5 36t21 33t14.5 35t3.5 34.5q0 67 -57 67q-34 0 -59.5 -25.5t-36.5 -81.5h-178q27 116 104.5 175.5t191.5 59.5q96 0 154.5 -45.5t58.5 -128.5q0 -42 -12.5 -78.5t-33 -68t-65.5 -74.5t-90 -80t-127 -101 h265l-25 -139h-484z" />
<glyph unicode="3" horiz-adv-x="583" d="M42 200h178q-4 -44 17 -65.5t58 -21.5q48 0 74 26.5t26 64.5q0 42 -25 62t-81 20h-70l22 129h70q60 0 92.5 33.5t32.5 80.5q0 58 -54 58q-37 0 -63.5 -24.5t-35.5 -62.5h-178q25 102 106 158.5t195 56.5q94 0 150.5 -44t56.5 -126q0 -59 -38 -109.5t-94 -74.5 q46 -15 68.5 -50.5t22.5 -80.5q0 -109 -85.5 -177t-211.5 -68q-124 0 -184 54.5t-49 160.5z" />
<glyph unicode="4" horiz-adv-x="563" d="M40 106l22 129l257 465h172l-262 -465h120l27 155h155l-27 -155h79l-22 -129h-80l-19 -106h-155l19 106h-286z" />
<glyph unicode="5" horiz-adv-x="561" d="M52 200h178q-4 -44 13.5 -65.5t51.5 -21.5q48 0 72.5 45.5t24.5 105.5q0 82 -61 82q-22 0 -49 -11.5t-44 -31.5h-149l70 397h442l-22 -129h-293l-30 -169q24 28 73.5 49.5t91.5 21.5q72 0 111 -46t39 -132q0 -141 -86.5 -225.5t-209.5 -84.5q-117 0 -175.5 54.5 t-47.5 160.5z" />
<glyph unicode="6" horiz-adv-x="588" d="M70 245q0 209 101.5 339.5t246.5 130.5q97 0 151.5 -50t47.5 -147h-178q2 41 -8 57t-37 16q-39 0 -76 -60t-56 -152q33 32 82.5 53t89.5 21q72 0 113 -46t41 -130q0 -130 -88 -211t-209 -81q-103 0 -162 69t-59 191zM247 235q0 -61 15 -91.5t51 -30.5q44 0 69.5 42 t25.5 90q0 81 -66 81q-20 0 -47.5 -9t-45.5 -23q-2 -38 -2 -59z" />
<glyph unicode="7" horiz-adv-x="468" d="M60 0l326 571h-279l22 129h439l-22 -129l-321 -571h-165z" />
<glyph unicode="8" horiz-adv-x="588" d="M60 158q0 41 13.5 78.5t51.5 73t95 51.5q-42 17 -64 53t-22 77q0 105 82.5 164.5t204.5 59.5q96 0 156.5 -44t60.5 -128q0 -58 -38 -108t-102 -74q52 -16 75.5 -54.5t23.5 -86.5q0 -112 -84.5 -173.5t-220.5 -61.5q-107 0 -169.5 44.5t-62.5 128.5zM234 185 q0 -31 21.5 -51.5t60.5 -20.5q50 0 80.5 28t30.5 68q0 32 -21.5 53.5t-60.5 21.5q-50 0 -80.5 -29.5t-30.5 -69.5zM300 488q0 -32 18.5 -51t50.5 -19q43 0 70.5 28t27.5 74q0 32 -19 49.5t-51 17.5q-42 0 -69.5 -26.5t-27.5 -72.5z" />
<glyph unicode="9" horiz-adv-x="596" d="M61 192h178q-2 -46 11 -64.5t42 -18.5q40 0 78 64t57 161q-33 -33 -83.5 -55t-91.5 -22q-72 0 -112.5 46t-40.5 130q0 129 87 205.5t209 76.5q103 0 162 -69t59 -191q0 -209 -101.5 -339.5t-246.5 -130.5q-99 0 -156.5 52t-50.5 155zM275 465q0 -81 69 -81q20 0 48 9 t45 23q2 32 2 49q0 61 -15 91.5t-51 30.5q-44 0 -71 -37.5t-27 -84.5z" />
<glyph unicode=":" horiz-adv-x="239" d="M33 68q0 50 34 83t85 33q39 0 61.5 -22.5t22.5 -59.5q0 -50 -33.5 -83.5t-85.5 -33.5q-39 0 -61.5 23t-22.5 60zM94 415q0 50 34 83t86 33q39 0 61 -22.5t22 -59.5q0 -50 -33.5 -83.5t-84.5 -33.5q-39 0 -62 23t-23 60z" />
<glyph unicode=";" horiz-adv-x="239" d="M-8 -160l78 330h167l-107 -330h-138zM94 415q0 50 34 83t86 33q39 0 61 -22.5t22 -59.5q0 -50 -33.5 -83.5t-84.5 -33.5q-39 0 -62 23t-23 60z" />
<glyph unicode="&#x3c;" horiz-adv-x="538" d="M60 297l25 139l513 190l-24 -140l-327 -121l284 -120l-24 -138z" />
<glyph unicode="=" horiz-adv-x="563" d="M61 192l22 129h480l-22 -129h-480zM100 412l22 129h480l-22 -129h-480z" />
<glyph unicode="&#x3e;" horiz-adv-x="538" d="M40 107l24 140l327 121l-284 120l24 138l447 -190l-25 -139z" />
<glyph unicode="?" horiz-adv-x="506" d="M80 504q52 211 285 211q96 0 153.5 -42t57.5 -118q0 -53 -24.5 -93t-59 -63.5t-68.5 -44.5t-56.5 -48.5t-19.5 -63.5h-166q-2 47 13 81t39.5 51.5t53 34t53 29.5t41 37t16.5 57q0 25 -14.5 40t-42.5 15q-66 0 -83 -83h-178zM141 68q0 50 34 83t85 33q39 0 61.5 -22.5 t22.5 -59.5q0 -50 -33.5 -83.5t-85.5 -33.5q-39 0 -61.5 23t-22.5 60z" />
<glyph unicode="@" horiz-adv-x="1012" d="M60 183q0 230 163 381t415 151q168 0 276 -94.5t108 -251.5q0 -94 -30 -170t-78.5 -121.5t-104.5 -69t-112 -23.5q-44 0 -82 17t-51 55q-45 -41 -80.5 -57t-77.5 -16q-69 0 -105.5 59.5t-36.5 151.5q0 142 76.5 246.5t183.5 104.5q62 0 101 -61l7 41h180l-66 -373 q-9 -53 28 -53t74.5 78.5t37.5 179.5q0 122 -67.5 185.5t-197.5 63.5q-84 0 -160 -26.5t-135 -76.5t-94 -129t-35 -176q0 -313 328 -313q55 0 131 13t118 29l-18 -108q-46 -17 -121 -30t-143 -13q-82 0 -158 25.5t-138 74t-99 128t-37 178.5zM445 210q0 -45 14 -73t40 -28 q32 0 64 27l46 259q-19 26 -45 26q-54 0 -86.5 -64.5t-32.5 -146.5z" />
<glyph unicode="A" horiz-adv-x="645" d="M-10 0l359 700h173l113 -700h-179l-16 147h-211l-68 -147h-171zM287 273h140l-4 35l-19 230l-101 -230z" />
<glyph unicode="B" horiz-adv-x="632" d="M60 0l123 700h242q37 0 69 -4t64 -14.5t54 -27.5t36 -44t14 -62q0 -56 -34 -104.5t-95 -67.5q101 -32 101 -134q0 -64 -27.5 -112.5t-73.5 -75.5t-97.5 -40.5t-107.5 -13.5h-268zM257 124h93q41 0 74 25.5t33 75.5q0 36 -22 52.5t-55 16.5h-93zM308 416h67q44 0 75 21 t31 71q0 34 -22.5 51t-54.5 17h-67z" />
<glyph unicode="C" horiz-adv-x="649" d="M70 262q0 201 106.5 327t272.5 126q125 1 190 -69q50 -53 50 -146q0 -28 -5 -60h-178q2 20 2 37q0 109 -83 109q-43 0 -77 -28.5t-53.5 -76t-29.5 -102t-10 -112.5q0 -153 90 -153q98 0 129 146h178q-28 -136 -117.5 -205.5t-214.5 -69.5q-250 0 -250 277z" />
<glyph unicode="D" horiz-adv-x="703" d="M60 0l123 700h247q131 0 212 -77.5t81 -210.5q0 -185 -121.5 -298.5t-294.5 -113.5h-247zM258 129h72q94 0 150.5 75.5t56.5 196.5q0 82 -32.5 126t-96.5 44h-72z" />
<glyph unicode="E" horiz-adv-x="563" d="M60 0l123 700h440l-22 -129h-265l-25 -138h245l-22 -129h-245l-31 -175h265l-23 -129h-440z" />
<glyph unicode="F" horiz-adv-x="523" d="M60 0l123 700h430l-22 -129h-255l-28 -158h235l-23 -129h-235l-50 -284h-175z" />
<glyph unicode="G" horiz-adv-x="666" d="M70 254q0 207 106.5 334t279.5 127q116 0 178 -63q52 -53 52 -145q0 -18 -2 -37h-178q1 11 1 22q0 94 -75 94q-49 0 -85 -30t-54.5 -78.5t-27 -98t-8.5 -100.5q0 -167 111 -167q18 0 47 7.5t46 18.5l18 103h-113l20 119h278l-63 -360h-165l10 58q-31 -32 -84 -52.5 t-97 -20.5q-92 0 -143.5 71t-51.5 198z" />
<glyph unicode="H" horiz-adv-x="746" d="M60 0l123 700h175l-47 -267h243l47 267h175l-123 -700h-175l54 304h-243l-54 -304h-175z" />
<glyph unicode="I" horiz-adv-x="328" d="M60 0l123 700h175l-123 -700h-175z" />
<glyph unicode="J" d="M47 250h172q-5 -35 -5 -61q0 -33 8 -50q14 -31 53 -31q41 0 63 26.5t32 82.5l85 483h175l-81 -463q-23 -130 -101 -191t-195 -61q-213 0 -213 192q0 33 7 73z" />
<glyph unicode="K" horiz-adv-x="658" d="M60 0l123 700h175l-53 -303l241 303h172l-264 -330l181 -370h-190l-151 333l-59 -333h-175z" />
<glyph unicode="L" horiz-adv-x="508" d="M60 0l123 700h175l-100 -571h240l-23 -129h-415z" />
<glyph unicode="M" horiz-adv-x="844" d="M60 0l123 700h179l96 -407l237 407h179l-123 -700h-159l37 211l43 220l-166 -299h-155l-62 289l-34 -217l-36 -204h-159z" />
<glyph unicode="N" horiz-adv-x="726" d="M60 0l123 700h150l192 -428l34 217l37 211h160l-123 -700h-150l-191 427l-35 -217l-37 -210h-160z" />
<glyph unicode="O" horiz-adv-x="710" d="M70 277q0 193 108 315.5t286 122.5q129 0 197.5 -78t68.5 -214q0 -193 -108.5 -315.5t-286.5 -122.5q-129 0 -197 78t-68 214zM254 276q0 -72 25.5 -117t80.5 -45q47 0 82 24t54.5 58t31 79.5t15 80t3.5 68.5q0 72 -26 117t-80 45q-47 0 -82 -24t-54.5 -58t-31 -79.5 t-15 -80t-3.5 -68.5z" />
<glyph unicode="P" horiz-adv-x="608" d="M60 0l123 700h248q93 0 160 -53t67 -152q0 -70 -28.5 -126.5t-75 -90t-100.5 -51t-109 -17.5h-73l-37 -210h-175zM294 334h73q40 0 77 40.5t37 102.5q0 43 -21.5 71t-49.5 28h-73z" />
<glyph unicode="Q" horiz-adv-x="710" d="M70 277q0 193 108 315.5t286 122.5q129 0 197.5 -78t68.5 -214q0 -138 -57.5 -243t-159.5 -155l109 -176h-196l-78 136h-13q-129 0 -197 78t-68 214zM254 276q0 -72 25.5 -117t80.5 -45q47 0 82 24t54.5 58t31 79.5t15 80t3.5 68.5q0 72 -26 117t-80 45q-47 0 -82 -24 t-54.5 -58t-31 -79.5t-15 -80t-3.5 -68.5z" />
<glyph unicode="R" horiz-adv-x="625" d="M60 0l123 700h243q100 0 164.5 -48t64.5 -145q0 -94 -47.5 -155t-126.5 -89l123 -263h-186l-95 240h-46l-42 -240h-175zM299 362h68q41 0 76 33.5t35 93.5q0 39 -22 63t-51 24h-68z" />
<glyph unicode="S" horiz-adv-x="607" d="M63 218h178q-1 -9 -1 -18q0 -43 22 -65q26 -26 68 -26q50 0 80 22t30 67q0 26 -22.5 44.5t-43 25t-71.5 18.5q-7 2 -11 3q-184 44 -184 186q0 109 85 174.5t217 65.5q116 0 180 -57q56 -50 56 -141q0 -13 -1 -27h-178q1 8 1 15q0 40 -19 61q-22 25 -63 25q-48 0 -75 -22 t-27 -65q0 -26 22.5 -44.5t43 -25t71.5 -18.5q7 -2 11 -3q39 -9 68 -21.5t57.5 -32.5t44 -51.5t15.5 -73.5q0 -107 -94 -178t-217 -71q-120 0 -189 58q-57 48 -57 135q0 19 3 40z" />
<glyph unicode="T" horiz-adv-x="539" d="M100 571l22 129h507l-22 -129h-166l-101 -571h-175l101 571h-166z" />
<glyph unicode="U" horiz-adv-x="721" d="M102 237l81 463h175l-78 -443q-4 -25 -5 -45q0 -98 99 -98q115 0 136 123l81 463h160l-78 -443q-25 -139 -109.5 -205.5t-214.5 -66.5q-133 0 -201 61q-51 46 -52 130q0 28 6 61z" />
<glyph unicode="V" horiz-adv-x="625" d="M100 700h179l30 -268l20 -230l101 230l124 268h171l-349 -700h-173z" />
<glyph unicode="W" horiz-adv-x="933" d="M100 700h177l8 -268l4 -230l86 230l106 268h179l11 -268l6 -230l84 230l103 268h169l-309 -700h-183l-10 225l-6 230l-88 -230l-91 -225h-183z" />
<glyph unicode="X" horiz-adv-x="608" d="M-20 0l280 359l-152 341h189l78 -198l139 198h184l-266 -343l158 -357h-189l-83 215l-154 -215h-184z" />
<glyph unicode="Y" horiz-adv-x="581" d="M100 700h178l81 -280l167 280h165l-278 -425l-48 -275h-175l49 275z" />
<glyph unicode="Z" horiz-adv-x="545" d="M30 0l23 129l348 442h-270l22 129h472l-22 -129l-348 -442h270l-23 -129h-472z" />
<glyph unicode="[" horiz-adv-x="412" d="M100 -125l167 950h265l-19 -109h-90l-129 -732h90l-19 -109h-265z" />
<glyph unicode="\" horiz-adv-x="527" d="M140 740h169l178 -780h-169z" />
<glyph unicode="]" horiz-adv-x="432" d="M-10 -125l19 109h90l129 732h-90l19 109h265l-167 -950h-265z" />
<glyph unicode="^" horiz-adv-x="529" d="M60 300l230 400h139l90 -400h-138l-50 225l-131 -225h-140z" />
<glyph unicode="_" horiz-adv-x="502" d="M10 -144l22 129h420l-22 -129h-420z" />
<glyph unicode="`" horiz-adv-x="409" d="M183 754h197l82 -168h-140z" />
<glyph unicode="a" horiz-adv-x="598" d="M60 194q0 142 74 244.5t180 102.5q77 0 116 -62l8 47h170l-93 -526h-170l8 48q-75 -63 -151 -63q-142 0 -142 209zM231 209q0 -109 62 -109q33 0 74 27l49 273q-29 26 -60 26q-62 0 -93.5 -63.5t-31.5 -153.5z" />
<glyph unicode="b" horiz-adv-x="598" d="M50 0l131 744h170l-47 -266q41 33 75.5 48t75.5 15q143 0 143 -209q0 -142 -74 -244.5t-181 -102.5q-75 0 -115 62l-8 -47h-170zM242 126q29 -26 59 -26q62 0 94 63.5t32 153.5q0 109 -63 109q-35 0 -74 -27z" />
<glyph unicode="c" horiz-adv-x="536" d="M60 203q0 150 85.5 244t215.5 94q95 -1 149 -57q46 -48 46 -127q0 -15 -2 -31h-161q2 19 2 35q0 35 -8 51q-11 24 -46 24q-38 0 -64.5 -40t-37 -90.5t-10.5 -102.5q0 -113 55 -113q56 0 83 100h161q-29 -98 -99 -151.5t-166 -53.5q-103 0 -153 57t-50 161z" />
<glyph unicode="d" horiz-adv-x="598" d="M60 194q0 142 74 244.5t180 102.5q77 0 115 -61l47 264h170l-131 -744h-170l8 47q-75 -62 -151 -62q-142 0 -142 209zM231 209q0 -109 62 -109q33 0 74 27l49 273q-29 26 -60 26q-62 0 -93.5 -63.5t-31.5 -153.5z" />
<glyph unicode="e" horiz-adv-x="541" d="M60 199q0 152 86 247t210 95q118 1 168 -75q27 -41 28 -110q0 -57 -19 -132h-314v-29q0 -105 62 -105q55 0 78 75h161q-25 -86 -96.5 -133t-163.5 -47q-200 0 -200 214zM231 323h160q3 21 3 38q0 79 -57 79q-80 0 -106 -117z" />
<glyph unicode="f" horiz-adv-x="396" d="M60 416l19 110h80l7 40q17 96 78.5 144.5t142.5 48.5q72 0 109 -19l-16 -95q-28 7 -64 7q-65 0 -80 -85l-7 -41h130l-19 -110h-131l-73 -416h-170l73 416h-79z" />
<glyph unicode="g" horiz-adv-x="598" d="M30 -33h161q-1 -8 -1 -15q0 -18 4 -32q5 -18 16 -25.5t20 -10t22 -2.5q72 0 88 91l16 90q-76 -63 -151 -63q-145 0 -145 203q0 141 73.5 239.5t180.5 98.5q77 0 116 -62l8 47h170l-94 -533q-20 -111 -96.5 -163.5t-185.5 -52.5q-94 0 -151 43q-52 40 -52 128q0 9 1 19z M231 220q0 -105 65 -105q34 0 74 27l46 258q-29 26 -60 26q-64 0 -94.5 -59t-30.5 -147z" />
<glyph unicode="h" horiz-adv-x="620" d="M50 0l131 744h170l-51 -288q99 85 198 85q56 1 90 -39q22 -26 22 -77q0 -26 -6 -58l-65 -367h-170l61 347q2 9 2 17q0 46 -57 46q-46 0 -89 -33l-66 -377h-170z" />
<glyph unicode="i" horiz-adv-x="303" d="M50 0l93 526h170l-93 -526h-170zM156 651q0 48 33.5 82t80.5 34q38 0 58.5 -23t20.5 -61q0 -48 -33.5 -82t-80.5 -34q-38 0 -58.5 23t-20.5 61z" />
<glyph unicode="j" horiz-adv-x="303" d="M14 -208l129 734h170l-129 -734h-170zM156 651q0 48 33.5 82t80.5 34q38 0 58.5 -23t20.5 -61q0 -48 -33.5 -82t-80.5 -34q-38 0 -58.5 23t-20.5 61z" />
<glyph unicode="k" horiz-adv-x="574" d="M50 0l131 744h170l-77 -437l178 219h172l-206 -241l127 -285h-183l-100 240l-42 -240h-170z" />
<glyph unicode="l" horiz-adv-x="303" d="M50 0l131 744h170l-131 -744h-170z" />
<glyph unicode="m" horiz-adv-x="927" d="M50 0l93 526h170l-12 -69q98 84 194 84q92 0 106 -89q108 89 207 89q56 1 88 -39q21 -26 21 -76q0 -26 -6 -59l-65 -367h-170l61 347q2 9 2 17q0 46 -54 46q-41 0 -85 -32l-2 -11l-65 -367h-170l61 347q2 9 2 17q0 46 -54 46q-41 0 -85 -32l-67 -378h-170z" />
<glyph unicode="n" horiz-adv-x="620" d="M50 0l93 526h170l-12 -69q98 84 197 84q56 1 90 -39q22 -26 22 -77q0 -26 -6 -58l-65 -367h-170l61 347q2 9 2 17q0 46 -57 46q-44 0 -88 -32l-67 -378h-170z" />
<glyph unicode="o" horiz-adv-x="577" d="M60 207q0 148 85.5 241t221.5 93q98 0 154 -60t56 -162q0 -148 -86 -241t-222 -93q-98 0 -153.5 59.5t-55.5 162.5zM228 199q0 -109 62 -109q53 0 86 63.5t33 173.5q0 109 -62 109q-53 0 -86 -63.5t-33 -173.5z" />
<glyph unicode="p" horiz-adv-x="598" d="M13 -208l130 734h170l-8 -48q76 63 150 63q143 0 143 -209q0 -142 -74 -244.5t-181 -102.5q-75 0 -115 62l-45 -255h-170zM242 126q29 -26 59 -26q62 0 94 63.5t32 153.5q0 109 -63 109q-34 0 -73 -27z" />
<glyph unicode="q" horiz-adv-x="598" d="M60 194q0 142 74 244.5t180 102.5q77 0 116 -62l8 47h170l-130 -734h-170l45 255q-75 -62 -151 -62q-142 0 -142 209zM231 209q0 -109 62 -109q32 0 74 26l49 274q-29 26 -60 26q-62 0 -93.5 -63.5t-31.5 -153.5z" />
<glyph unicode="r" horiz-adv-x="457" d="M50 0l93 526h170l-18 -99q35 54 79.5 84t81.5 30q35 0 61 -18l-26 -149q-35 16 -75 16q-39 0 -77 -14.5t-59 -37.5l-60 -338h-170z" />
<glyph unicode="s" horiz-adv-x="519" d="M51 163h158v-9q0 -67 69 -67q73 0 73 55q0 15 -6 25t-23.5 17.5t-29 10.5t-41.5 10q-37 8 -60 16t-50.5 23.5t-41.5 42t-14 63.5q0 88 71.5 139.5t172.5 51.5q93 -1 149 -43q51 -38 51 -108q0 -7 -1 -15h-158q0 64 -60 64q-26 0 -47 -13t-21 -40q0 -18 15.5 -30.5t31 -17 t50.5 -12.5q9 -2 13 -3q30 -7 46.5 -11t41 -15t37 -24t22 -36t9.5 -53q0 -89 -71.5 -144t-177.5 -55q-95 0 -155 46q-53 41 -54 112q0 10 1 20z" />
<glyph unicode="t" horiz-adv-x="399" d="M60 416l19 110h79l24 134h170l-24 -134h121l-19 -110h-121l-42 -239q-3 -17 -3 -31q0 -54 48 -54q18 0 62 10l-17 -95q-51 -22 -117 -22q-150 0 -150 128q0 23 5 51l44 252h-79z" />
<glyph unicode="u" horiz-adv-x="616" d="M78 159l65 367h170l-62 -347q-2 -9 -2 -17q0 -46 55 -46q41 0 85 32l67 378h170l-93 -526h-170l12 69q-98 -84 -195 -84q-55 -1 -87 39q-21 26 -21 76q0 26 6 59z" />
<glyph unicode="v" horiz-adv-x="514" d="M60 526h174l13 -133l20 -220l96 220l60 133h161l-273 -526h-161z" />
<glyph unicode="w" horiz-adv-x="796" d="M60 526h163l6 -127l7 -220l96 220l57 127h150l13 -127l20 -221l88 221l49 126h157l-250 -526h-159l-9 112l-17 220l-95 -220l-50 -111h-164z" />
<glyph unicode="x" horiz-adv-x="543" d="M-20 0l232 268l-137 258h175l65 -141l114 141h174l-220 -254l145 -272h-175l-73 155l-126 -155h-174z" />
<glyph unicode="y" horiz-adv-x="504" d="M47 -208l108 208l-95 526h174l10 -105l19 -220l101 220l49 105h161l-381 -734h-146z" />
<glyph unicode="z" horiz-adv-x="483" d="M30 0l19 110l268 306h-203l19 110h390l-19 -110l-268 -306h213l-19 -110h-400z" />
<glyph unicode="{" horiz-adv-x="420" d="M80 286l23 129q54 0 78.5 12t32.5 53l24 131q39 214 277 214h25l-19 -109h-25q-38 0 -56 -23.5t-26 -71.5l-22 -128q-10 -57 -44 -94.5t-78 -48.5q39 -11 60 -48.5t11 -95.5l-22 -127q-8 -49 1 -72t47 -23h25l-19 -109h-25q-241 0 -203 214l24 132q8 41 -13.5 53 t-75.5 12z" />
<glyph unicode="|" horiz-adv-x="353" d="M60 -160l173 980h160l-173 -980h-160z" />
<glyph unicode="}" horiz-adv-x="429" d="M-10 -125l19 109h25q37 0 55 23.5t26 71.5l22 127q10 58 44.5 95.5t78.5 48.5q-40 11 -61 48t-11 95l22 128q8 49 -1 72t-47 23h-25l19 109h25q117 0 170.5 -49t32.5 -165l-24 -131q-8 -41 13.5 -53t75.5 -12l-23 -129q-54 0 -78.5 -12t-32.5 -53l-24 -132 q-21 -116 -90.5 -165t-185.5 -49h-25z" />
<glyph unicode="~" horiz-adv-x="589" d="M60 326q40 77 94.5 109.5t104.5 32.5q41 0 76.5 -15t63 -30.5t49.5 -15.5q37 0 74 55l107 -55q-40 -77 -94.5 -109.5t-103.5 -32.5q-41 0 -76.5 15.5t-63 31t-49.5 15.5q-36 0 -75 -56z" />
<glyph unicode="&#xa1;" horiz-adv-x="255" d="M-10 -208l107 458h135l-53 -458h-189zM92 390q0 50 33.5 83.5t85.5 33.5q39 0 61.5 -23t22.5 -60q0 -50 -34 -83t-85 -33q-39 0 -61.5 22.5t-22.5 59.5z" />
<glyph unicode="&#xa2;" horiz-adv-x="536" d="M60 203q0 123 59 210.5t157 115.5l22 122h160l-22 -121q62 -19 94 -71.5t24 -132.5h-161q5 61 -6 85.5t-46 24.5q-38 0 -64.5 -40t-37 -90.5t-10.5 -102.5q0 -113 55 -113q56 0 83 100h161q-22 -76 -70 -126t-115 -68l-21 -116h-160l21 116q-123 39 -123 207z" />
<glyph unicode="&#xa3;" horiz-adv-x="599" d="M30 0l23 129h69l28 162h-69l23 129h69l13 76q18 102 91 160.5t184 58.5q240 0 215 -225h-178q9 81 -57 81q-67 0 -77 -59l-16 -92h181l-23 -129h-181l-28 -162h280l-23 -129h-524z" />
<glyph unicode="&#xa4;" horiz-adv-x="664" d="M20 153l94 80q-10 33 -10 77q0 113 59 194l-59 72l105 88l59 -72q68 33 150 33q73 0 123 -29l92 78l91 -108l-95 -81q10 -38 10 -75q0 -114 -60 -196l59 -71l-105 -88l-59 71q-66 -32 -149 -32q-72 0 -123 28l-91 -77zM283 303q0 -104 60 -104q47 0 82 59.5t35 157.5 q0 104 -60 104q-47 0 -82 -59.5t-35 -157.5z" />
<glyph unicode="&#xa5;" horiz-adv-x="581" d="M50 82l22 129h155l14 80h-155l23 129h116l-115 280h178l78 -230l160 230h165l-214 -280h117l-23 -129h-155l-14 -80h155l-22 -129h-156l-14 -82h-175l14 82h-154z" />
<glyph unicode="&#xa6;" horiz-adv-x="353" d="M60 -160l80 455h160l-80 -455h-160zM162 420l71 400h160l-71 -400h-160z" />
<glyph unicode="&#xa7;" horiz-adv-x="623" d="M42 120h178q-8 -101 91 -101q50 0 78.5 24.5t28.5 62.5q0 16 -10.5 27t-31 17.5t-41.5 9.5t-52 7h-3.5t-3 0.5t-3.5 0.5q-39 4 -61 7.5t-54.5 13t-50 22t-31 35.5t-13.5 54q0 87 94 153q-38 35 -38 99q0 114 87.5 183.5t219.5 69.5q123 0 188.5 -56.5t56.5 -168.5h-178 q8 101 -91 101q-50 0 -78.5 -24.5t-28.5 -62.5q0 -13 7.5 -23t18.5 -16t31 -10.5t36 -7t42 -5.5h3t3 -0.5t3 -0.5q39 -4 61 -7.5t54.5 -13t50 -22t31 -35.5t13.5 -54q0 -87 -94 -153q39 -36 39 -98q0 -114 -87.5 -183.5t-219.5 -69.5q-123 0 -188.5 56.5t-56.5 168.5z M222 363q0 -15 9 -25t29 -16t38.5 -9t50.5 -6q84 -9 119 -18q23 25 23 47q0 15 -9 25t-29 16t-38.5 9t-50.5 6q-84 9 -119 18q-23 -25 -23 -47z" />
<glyph unicode="&#xa8;" horiz-adv-x="516" d="M166 652q0 46 32.5 77.5t79.5 31.5q37 0 58 -21.5t21 -56.5q0 -46 -32 -78t-80 -32q-36 0 -57.5 22t-21.5 57zM394 651q0 46 32 78t80 32q36 0 57.5 -22t21.5 -57q0 -46 -32.5 -77.5t-79.5 -31.5q-37 0 -58 21.5t-21 56.5z" />
<glyph unicode="&#xa9;" horiz-adv-x="830" d="M50 350q0 152 105 258.5t260 106.5t260 -106.5t105 -258.5t-105 -258.5t-260 -106.5t-260 106.5t-105 258.5zM144 350q0 -116 78 -196.5t193 -80.5t193 80.5t78 196.5t-78 196.5t-193 80.5t-193 -80.5t-78 -196.5zM230 350q0 97 49.5 155.5t132.5 58.5q78 0 125.5 -40.5 t50.5 -120.5h-124q-3 72 -52 72q-56 0 -56 -125q0 -126 56 -126q49 0 52 73h124q-3 -81 -50.5 -121.5t-125.5 -40.5q-182 0 -182 215z" />
<glyph unicode="&#xaa;" horiz-adv-x="352" d="M109 550q0 82 42.5 140.5t115.5 58.5q44 0 69 -34l4 25h122l-52 -300h-122l5 27q-45 -36 -91 -36q-48 0 -70.5 33t-22.5 86zM233 565q0 -49 32 -49q23 0 39 16l20 118q-10 14 -30 14q-29 0 -45 -26t-16 -73z" />
<glyph unicode="&#xab;" horiz-adv-x="610" d="M86 202l28 159l271 180l-33 -190l-113 -71l88 -70l-33 -188zM356 202l28 159l271 180l-33 -190l-113 -71l88 -70l-33 -188z" />
<glyph unicode="&#xac;" horiz-adv-x="563" d="M80 302l23 129h480l-54 -305h-129l31 176h-351z" />
<glyph unicode="&#xad;" horiz-adv-x="323" d="M70 212l23 129h250l-23 -129h-250z" />
<glyph unicode="&#xae;" horiz-adv-x="578" d="M50 477q0 100 68.5 169t170.5 69t170.5 -69t68.5 -169t-68.5 -169t-170.5 -69t-170.5 69t-68.5 169zM118 477q0 -73 49 -124.5t122 -51.5t122 51.5t49 124.5t-49 124.5t-122 51.5t-122 -51.5t-49 -124.5zM191 353v255h90q42 0 73 -20.5t31 -62.5q0 -49 -43 -71l58 -101 h-82l-43 87h-8v-87h-76zM267 492h14q31 0 31 33q0 32 -31 32h-14v-65z" />
<glyph unicode="&#xaf;" horiz-adv-x="430" d="M158 612l20 114h330l-20 -114h-330z" />
<glyph unicode="&#xb0;" horiz-adv-x="428" d="M144 525q0 79 58 134.5t138 55.5q62 0 100 -38.5t38 -99.5q0 -79 -58 -134.5t-138 -55.5q-62 0 -100 38.5t-38 99.5zM247 540q0 -25 14.5 -41t38.5 -16q31 0 53 23.5t22 55.5q0 25 -14 41t-38 16q-32 0 -54 -23.5t-22 -55.5z" />
<glyph unicode="&#xb1;" horiz-adv-x="578" d="M40 0l23 129h480l-23 -129h-480zM105 372l23 129h175l31 175h129l-31 -175h176l-23 -129h-176l-31 -176h-129l31 176h-175z" />
<glyph unicode="&#xb4;" horiz-adv-x="409" d="M153 586l132 168h207l-199 -168h-140z" />
<glyph unicode="&#xb5;" horiz-adv-x="616" d="M13 -208l130 734h170l-62 -347q-11 -63 53 -63q42 0 85 33l67 377h170l-93 -526h-170l12 70q-52 -46 -112 -70q-15 -6 -45 -12l-35 -196h-170z" />
<glyph unicode="&#xb6;" horiz-adv-x="670" d="M80 448q0 67 26 117.5t69.5 78.5t92 42t99.5 14h333l-123 -700h-125l102 576h-60l-102 -576h-125l48 270h-23q-89 0 -150.5 43.5t-61.5 134.5z" />
<glyph unicode="&#xb7;" horiz-adv-x="233" d="M60 349q0 48 34 82t85 34q39 0 61.5 -23.5t22.5 -60.5q0 -48 -34.5 -82t-84.5 -34q-39 0 -61.5 23.5t-22.5 60.5z" />
<glyph unicode="&#xb8;" horiz-adv-x="320" d="M9 -233l12 68q25 -13 61 -13q42 0 42 30q0 21 -33 21q-13 0 -33 -5l-20 48l78 84h87l-56 -61q40 1 69.5 -17t29.5 -55q0 -56 -48 -85.5t-119 -29.5q-41 0 -70 15z" />
<glyph unicode="&#xba;" horiz-adv-x="348" d="M111 563q0 82 55.5 134t139.5 52q65 0 102 -35t37 -95q0 -83 -55 -135.5t-140 -52.5q-64 0 -101.5 35.5t-37.5 96.5zM232 560q0 -49 32 -49q30 0 45 31.5t15 79.5t-32 48q-26 0 -43 -29.5t-17 -80.5z" />
<glyph unicode="&#xbb;" horiz-adv-x="610" d="M55 22l33 190l113 71l-88 70l33 188l208 -180l-28 -159zM325 22l33 190l113 71l-88 70l33 188l208 -180l-28 -159z" />
<glyph unicode="&#xbc;" horiz-adv-x="975" d="M142 527l21 119l117 54h144l-74 -420h-144l53 301zM156 0l598 700h183l-598 -700h-183zM565 51l18 107l160 262h135l-164 -262h59l13 76h128l-13 -76h51l-18 -107h-52l-9 -51h-128l9 51h-189z" />
<glyph unicode="&#xbd;" horiz-adv-x="1005" d="M142 527l21 119l117 54h144l-74 -420h-144l53 301zM156 0l598 700h183l-598 -700h-183zM610 0l18 107q26 17 62.5 41t54.5 36t42 28.5t35 26.5t22.5 22t15.5 23t4 22q0 27 -28 27q-37 0 -48 -45h-142q18 69 72.5 105t134.5 36q73 0 112.5 -29.5t39.5 -81.5 q0 -56 -38.5 -95t-151.5 -116h158l-18 -107h-345z" />
<glyph unicode="&#xbe;" horiz-adv-x="1023" d="M121 400h142q-2 -16 6.5 -24.5t31.5 -8.5q26 0 37.5 13t11.5 29q0 32 -62 32h-46l17 99h46q68 0 68 48q0 25 -28 25q-35 0 -45 -33h-142q16 61 71 95t133 34q69 0 111 -26.5t42 -76.5q0 -35 -23 -65.5t-65 -43.5q64 -16 64 -78q0 -67 -60.5 -107.5t-146.5 -40.5 t-128 32.5t-35 96.5zM204 0l598 700h183l-598 -700h-183zM613 51l18 107l160 262h135l-164 -262h59l13 76h128l-13 -76h51l-18 -107h-52l-9 -51h-128l9 51h-189z" />
<glyph unicode="&#xbf;" horiz-adv-x="486" d="M-20 -63q0 53 24.5 93t59 63.5t68.5 44.5t56.5 48.5t19.5 63.5h166q2 -47 -13 -81t-39.5 -51.5t-53 -34t-53 -29.5t-41 -37t-16.5 -57q0 -25 14.5 -40t42.5 -15q66 0 83 83h178q-52 -211 -285 -211q-96 0 -153.5 42t-57.5 118zM212 390q0 50 33.5 83.5t85.5 33.5 q39 0 61.5 -23t22.5 -60q0 -50 -34 -83t-85 -33q-39 0 -61.5 22.5t-22.5 59.5z" />
<glyph unicode="&#xc0;" horiz-adv-x="645" d="M-10 0l359 700h173l113 -700h-179l-16 147h-211l-68 -147h-171zM256 897h212l111 -148h-135zM287 273h140l-4 35l-19 230l-101 -230z" />
<glyph unicode="&#xc1;" horiz-adv-x="645" d="M-10 0l359 700h173l113 -700h-179l-16 147h-211l-68 -147h-171zM287 273h140l-4 35l-19 230l-101 -230zM310 749l153 148h222l-230 -148h-145z" />
<glyph unicode="&#xc2;" horiz-adv-x="645" d="M-10 0l359 700h173l113 -700h-179l-16 147h-211l-68 -147h-171zM204 749l178 148h177l126 -148h-158l-71 57l-90 -57h-162zM287 273h140l-4 35l-19 230l-101 -230z" />
<glyph unicode="&#xc3;" horiz-adv-x="645" d="M-10 0l359 700h173l113 -700h-179l-16 147h-211l-68 -147h-171zM232 791q29 57 71 88.5t83 31.5q35 0 90.5 -20t67.5 -20q31 0 54 38l87 -42q-29 -57 -70 -88.5t-82 -31.5q-35 0 -90.5 20t-68.5 20q-30 0 -55 -38zM287 273h140l-4 35l-19 230l-101 -230z" />
<glyph unicode="&#xc4;" horiz-adv-x="645" d="M-10 0l359 700h173l113 -700h-179l-16 147h-211l-68 -147h-171zM248 822q0 45 32.5 74.5t79.5 29.5q37 0 59 -20.5t22 -54.5q0 -46 -32 -75.5t-80 -29.5q-37 0 -59 21t-22 55zM287 273h140l-4 35l-19 230l-101 -230zM478 821q0 46 32 75.5t80 29.5q37 0 59 -21t22 -55 q0 -45 -32.5 -74.5t-79.5 -29.5q-37 0 -59 20.5t-22 54.5z" />
<glyph unicode="&#xc5;" horiz-adv-x="645" d="M-10 0l359 700h173l113 -700h-179l-16 147h-211l-68 -147h-171zM287 273h140l-4 35l-19 230l-101 -230zM317 810q0 52 47 87t112 35q54 0 88 -26t34 -68q0 -52 -47 -87t-113 -35q-53 0 -87 26t-34 68zM415 818q0 -15 9.5 -24.5t25.5 -9.5q21 0 35.5 13.5t14.5 32.5 q0 15 -10 24.5t-26 9.5q-21 0 -35 -13t-14 -33z" />
<glyph unicode="&#xc6;" horiz-adv-x="974" d="M-10 0l594 700h450l-22 -129h-265l-24 -135h245l-23 -134h-245l-31 -173h265l-23 -129h-440l26 147h-199l-113 -147h-195zM395 273h124l37 207l-134 -172z" />
<glyph unicode="&#xc7;" horiz-adv-x="649" d="M70 262q0 201 106.5 327t272.5 126q125 0 190 -69.5t45 -205.5h-178q15 146 -81 146q-43 0 -77 -28.5t-53.5 -76t-29.5 -102t-10 -112.5q0 -153 90 -153q98 0 129 146h178q-26 -127 -106.5 -196t-193.5 -78l-43 -47q40 1 69.5 -17t29.5 -55q0 -56 -48 -85.5t-119 -29.5 q-41 0 -70 15l12 68q25 -13 61 -13q42 0 42 30q0 21 -33 21q-13 0 -33 -5l-20 48l67 72q-197 28 -197 274z" />
<glyph unicode="&#xc8;" horiz-adv-x="563" d="M60 0l123 700h440l-22 -129h-265l-25 -138h245l-22 -129h-245l-31 -175h265l-23 -129h-440zM219 897h212l111 -148h-135z" />
<glyph unicode="&#xc9;" horiz-adv-x="563" d="M60 0l123 700h440l-22 -129h-265l-25 -138h245l-22 -129h-245l-31 -175h265l-23 -129h-440zM263 749l153 148h222l-230 -148h-145z" />
<glyph unicode="&#xca;" horiz-adv-x="563" d="M60 0l123 700h440l-22 -129h-265l-25 -138h245l-22 -129h-245l-31 -175h265l-23 -129h-440zM167 749l178 148h177l126 -148h-158l-71 57l-90 -57h-162z" />
<glyph unicode="&#xcb;" horiz-adv-x="563" d="M60 0l123 700h440l-22 -129h-265l-25 -138h245l-22 -129h-245l-31 -175h265l-23 -129h-440zM211 822q0 45 32.5 74.5t79.5 29.5q37 0 59 -20.5t22 -54.5q0 -46 -32 -75.5t-80 -29.5q-37 0 -59 21t-22 55zM441 821q0 46 32 75.5t80 29.5q37 0 59 -21t22 -55 q0 -45 -32.5 -74.5t-79.5 -29.5q-37 0 -59 20.5t-22 54.5z" />
<glyph unicode="&#xcc;" horiz-adv-x="328" d="M60 0l123 700h175l-123 -700h-175zM86 897h212l111 -148h-135z" />
<glyph unicode="&#xcd;" horiz-adv-x="328" d="M60 0l123 700h175l-123 -700h-175zM160 749l153 148h222l-230 -148h-145z" />
<glyph unicode="&#xce;" horiz-adv-x="328" d="M44 749l178 148h177l126 -148h-158l-71 57l-90 -57h-162zM60 0l123 700h175l-123 -700h-175z" />
<glyph unicode="&#xcf;" horiz-adv-x="328" d="M60 0l123 700h175l-123 -700h-175zM98 822q0 45 32.5 74.5t79.5 29.5q37 0 59 -20.5t22 -54.5q0 -46 -32 -75.5t-80 -29.5q-37 0 -59 21t-22 55zM308 821q0 46 32 75.5t80 29.5q37 0 59 -21t22 -55q0 -45 -32.5 -74.5t-79.5 -29.5q-37 0 -59 20.5t-22 54.5z" />
<glyph unicode="&#xd0;" horiz-adv-x="703" d="M20 284l23 129h90l50 287h247q131 0 212 -77.5t81 -210.5q0 -185 -121.5 -298.5t-294.5 -113.5h-247l50 284h-90zM258 129h72q94 0 150.5 75.5t56.5 196.5q0 82 -32.5 126t-96.5 44h-72l-28 -158h140l-23 -129h-140z" />
<glyph unicode="&#xd1;" horiz-adv-x="726" d="M60 0l123 700h150l192 -428l34 217l37 211h160l-123 -700h-150l-191 427l-35 -217l-37 -210h-160zM266 791q29 57 71 88.5t83 31.5q35 0 90.5 -20t67.5 -20q31 0 54 38l87 -42q-29 -57 -70 -88.5t-82 -31.5q-35 0 -90.5 20t-68.5 20q-30 0 -55 -38z" />
<glyph unicode="&#xd2;" horiz-adv-x="710" d="M70 277q0 193 108 315.5t286 122.5q129 0 197.5 -78t68.5 -214q0 -193 -108.5 -315.5t-286.5 -122.5q-129 0 -197 78t-68 214zM254 276q0 -72 25.5 -117t80.5 -45q47 0 82 24t54.5 58t31 79.5t15 80t3.5 68.5q0 72 -26 117t-80 45q-47 0 -82 -24t-54.5 -58t-31 -79.5 t-15 -80t-3.5 -68.5zM282 897h212l111 -148h-135z" />
<glyph unicode="&#xd3;" horiz-adv-x="710" d="M70 277q0 193 108 315.5t286 122.5q129 0 197.5 -78t68.5 -214q0 -193 -108.5 -315.5t-286.5 -122.5q-129 0 -197 78t-68 214zM254 276q0 -72 25.5 -117t80.5 -45q47 0 82 24t54.5 58t31 79.5t15 80t3.5 68.5q0 72 -26 117t-80 45q-47 0 -82 -24t-54.5 -58t-31 -79.5 t-15 -80t-3.5 -68.5zM336 749l153 148h222l-230 -148h-145z" />
<glyph unicode="&#xd4;" horiz-adv-x="710" d="M70 277q0 193 108 315.5t286 122.5q129 0 197.5 -78t68.5 -214q0 -193 -108.5 -315.5t-286.5 -122.5q-129 0 -197 78t-68 214zM230 749l178 148h177l126 -148h-158l-71 57l-90 -57h-162zM254 276q0 -72 25.5 -117t80.5 -45q47 0 82 24t54.5 58t31 79.5t15 80t3.5 68.5 q0 72 -26 117t-80 45q-47 0 -82 -24t-54.5 -58t-31 -79.5t-15 -80t-3.5 -68.5z" />
<glyph unicode="&#xd5;" horiz-adv-x="710" d="M70 277q0 193 108 315.5t286 122.5q129 0 197.5 -78t68.5 -214q0 -193 -108.5 -315.5t-286.5 -122.5q-129 0 -197 78t-68 214zM254 276q0 -72 25.5 -117t80.5 -45q47 0 82 24t54.5 58t31 79.5t15 80t3.5 68.5q0 72 -26 117t-80 45q-47 0 -82 -24t-54.5 -58t-31 -79.5 t-15 -80t-3.5 -68.5zM258 791q29 57 71 88.5t83 31.5q35 0 90.5 -20t67.5 -20q31 0 54 38l87 -42q-29 -57 -70 -88.5t-82 -31.5q-35 0 -90.5 20t-68.5 20q-30 0 -55 -38z" />
<glyph unicode="&#xd6;" horiz-adv-x="710" d="M70 277q0 193 108 315.5t286 122.5q129 0 197.5 -78t68.5 -214q0 -193 -108.5 -315.5t-286.5 -122.5q-129 0 -197 78t-68 214zM254 276q0 -72 25.5 -117t80.5 -45q47 0 82 24t54.5 58t31 79.5t15 80t3.5 68.5q0 72 -26 117t-80 45q-47 0 -82 -24t-54.5 -58t-31 -79.5 t-15 -80t-3.5 -68.5zM274 822q0 45 32.5 74.5t79.5 29.5q37 0 59 -20.5t22 -54.5q0 -46 -32 -75.5t-80 -29.5q-37 0 -59 21t-22 55zM504 821q0 46 32 75.5t80 29.5q37 0 59 -21t22 -55q0 -45 -32.5 -74.5t-79.5 -29.5q-37 0 -59 20.5t-22 54.5z" />
<glyph unicode="&#xd7;" horiz-adv-x="517" d="M60 234l162 138l-109 132l108 91l109 -132l162 138l85 -102l-163 -138l110 -134l-109 -90l-109 132l-162 -138z" />
<glyph unicode="&#xd8;" horiz-adv-x="710" d="M-1 -90l122 175q-51 73 -51 192q0 193 108 315.5t286 122.5q48 0 89 -12l61 87h186l-122 -174q52 -73 52 -193q0 -193 -108.5 -315.5t-286.5 -122.5q-50 0 -89 12l-61 -87h-186zM254 276q0 -72 25.5 -117t80.5 -45q47 0 82 24t54.5 58t31 79.5t15 80t3.5 68.5 q0 72 -26 117t-80 45q-47 0 -82 -24t-54.5 -58t-31 -79.5t-15 -80t-3.5 -68.5z" />
<glyph unicode="&#xd9;" horiz-adv-x="721" d="M102 237l81 463h175l-78 -443q-25 -143 94 -143q115 0 136 123l81 463h160l-78 -443q-25 -139 -109.5 -205.5t-214.5 -66.5q-133 0 -201.5 61t-45.5 191zM278 897h212l111 -148h-135z" />
<glyph unicode="&#xda;" horiz-adv-x="721" d="M102 237l81 463h175l-78 -443q-25 -143 94 -143q115 0 136 123l81 463h160l-78 -443q-25 -139 -109.5 -205.5t-214.5 -66.5q-133 0 -201.5 61t-45.5 191zM342 749l153 148h222l-230 -148h-145z" />
<glyph unicode="&#xdb;" horiz-adv-x="721" d="M102 237l81 463h175l-78 -443q-25 -143 94 -143q115 0 136 123l81 463h160l-78 -443q-25 -139 -109.5 -205.5t-214.5 -66.5q-133 0 -201.5 61t-45.5 191zM236 749l178 148h177l126 -148h-158l-71 57l-90 -57h-162z" />
<glyph unicode="&#xdc;" horiz-adv-x="721" d="M102 237l81 463h175l-78 -443q-25 -143 94 -143q115 0 136 123l81 463h160l-78 -443q-25 -139 -109.5 -205.5t-214.5 -66.5q-133 0 -201.5 61t-45.5 191zM280 822q0 45 32.5 74.5t79.5 29.5q37 0 59 -20.5t22 -54.5q0 -46 -32 -75.5t-80 -29.5q-37 0 -59 21t-22 55z M510 821q0 46 32 75.5t80 29.5q37 0 59 -21t22 -55q0 -45 -32.5 -74.5t-79.5 -29.5q-37 0 -59 20.5t-22 54.5z" />
<glyph unicode="&#xdd;" horiz-adv-x="581" d="M100 700h178l81 -280l167 280h165l-278 -425l-48 -275h-175l49 275zM285 749l153 148h222l-230 -148h-145z" />
<glyph unicode="&#xde;" horiz-adv-x="591" d="M60 0l123 700h175l-16 -95h73q98 0 162 -52t64 -153q0 -71 -27 -127t-72.5 -89.5t-100 -51t-113.5 -17.5h-73l-20 -115h-175zM277 239h73q40 0 77 40.5t37 102.5q0 44 -21 71.5t-50 27.5h-73z" />
<glyph unicode="&#xdf;" horiz-adv-x="680" d="M50 0l84 476q24 136 116 209.5t224 73.5q90 0 153 -36.5t63 -109.5q0 -42 -22 -77t-48.5 -54t-48.5 -41.5t-22 -42.5q0 -18 21 -37t45.5 -36t45.5 -51.5t21 -78.5q0 -55 -23.5 -97.5t-61 -66t-78 -35t-81.5 -11.5q-82 0 -126 45t-32 133h158q-6 -35 2.5 -52.5t28.5 -17.5 q47 0 47 62q0 24 -15 42.5t-36 32.5t-42.5 28.5t-36.5 38.5t-15 55t14 56t33.5 43l39 36t33.5 43t14 56q0 68 -61 68q-109 0 -140 -177l-84 -477h-170z" />
<glyph unicode="&#xe0;" horiz-adv-x="598" d="M60 194q0 142 74 244.5t180 102.5q77 0 116 -62l8 47h170l-93 -526h-170l8 48q-75 -63 -151 -63q-142 0 -142 209zM217 754h197l82 -168h-140zM231 209q0 -109 62 -109q33 0 74 27l49 273q-29 26 -60 26q-62 0 -93.5 -63.5t-31.5 -153.5z" />
<glyph unicode="&#xe1;" horiz-adv-x="598" d="M60 194q0 142 74 244.5t180 102.5q77 0 116 -62l8 47h170l-93 -526h-170l8 48q-75 -63 -151 -63q-142 0 -142 209zM231 209q0 -109 62 -109q33 0 74 27l49 273q-29 26 -60 26q-62 0 -93.5 -63.5t-31.5 -153.5zM247 586l132 168h207l-199 -168h-140z" />
<glyph unicode="&#xe2;" horiz-adv-x="598" d="M60 194q0 142 74 244.5t180 102.5q77 0 116 -62l8 47h170l-93 -526h-170l8 48q-75 -63 -151 -63q-142 0 -142 209zM181 586l162 168h157l102 -168h-138l-59 64l-82 -64h-142zM231 209q0 -109 62 -109q33 0 74 27l49 273q-29 26 -60 26q-62 0 -93.5 -63.5t-31.5 -153.5z " />
<glyph unicode="&#xe3;" horiz-adv-x="598" d="M60 194q0 142 74 244.5t180 102.5q77 0 116 -62l8 47h170l-93 -526h-170l8 48q-75 -63 -151 -63q-142 0 -142 209zM190 627q29 57 68 88.5t80 31.5q35 0 85.5 -20t62.5 -20q26 0 49 38l87 -42q-29 -57 -67.5 -88.5t-79.5 -31.5q-35 0 -85.5 20t-63.5 20q-25 0 -50 -38z M231 209q0 -109 62 -109q33 0 74 27l49 273q-29 26 -60 26q-62 0 -93.5 -63.5t-31.5 -153.5z" />
<glyph unicode="&#xe4;" horiz-adv-x="598" d="M60 194q0 142 74 244.5t180 102.5q77 0 116 -62l8 47h170l-93 -526h-170l8 48q-75 -63 -151 -63q-142 0 -142 209zM206 652q0 46 32.5 77.5t79.5 31.5q37 0 58 -21.5t21 -56.5q0 -46 -32 -78t-80 -32q-36 0 -57.5 22t-21.5 57zM231 209q0 -109 62 -109q33 0 74 27l49 273 q-29 26 -60 26q-62 0 -93.5 -63.5t-31.5 -153.5zM434 651q0 46 32 78t80 32q36 0 57.5 -22t21.5 -57q0 -46 -32.5 -77.5t-79.5 -31.5q-37 0 -58 21.5t-21 56.5z" />
<glyph unicode="&#xe5;" horiz-adv-x="598" d="M60 194q0 142 74 244.5t180 102.5q77 0 116 -62l8 47h170l-93 -526h-170l8 48q-75 -63 -151 -63q-142 0 -142 209zM231 209q0 -109 62 -109q33 0 74 27l49 273q-29 26 -60 26q-62 0 -93.5 -63.5t-31.5 -153.5zM265 654q0 52 46 84t113 32q54 0 88 -24.5t34 -65.5 q0 -52 -46 -84t-113 -32q-54 0 -88 24.5t-34 65.5zM363 662q0 -13 10 -21.5t26 -8.5q21 0 35 11.5t14 28.5q0 13 -10 21.5t-26 8.5q-21 0 -35 -11.5t-14 -28.5z" />
<glyph unicode="&#xe6;" horiz-adv-x="864" d="M40 104q0 88 75.5 143.5t212.5 55.5q28 0 59 -3l9 50q16 86 -56 86q-29 0 -54 -21t-34 -69h-161q10 66 55 112t100 64.5t114 18.5q108 0 156 -54q75 54 163 54q119 0 168.5 -75.5t8.5 -241.5h-314v-29q0 -105 62 -105q55 0 78 75h161q-25 -86 -96.5 -133t-163.5 -47 q-130 0 -180 81q-114 -81 -232 -81q-62 0 -96.5 32t-34.5 87zM213 146q0 -43 58 -43q46 0 105 40q-4 39 -2 67q-34 4 -53 4q-26 0 -48.5 -5.5t-41 -21.5t-18.5 -41zM554 323h160q15 117 -54 117q-80 0 -106 -117z" />
<glyph unicode="&#xe7;" horiz-adv-x="536" d="M60 203q0 150 85.5 244t215.5 94q95 0 149 -56.5t44 -158.5h-161q5 61 -6 85.5t-46 24.5q-38 0 -64.5 -40t-37 -90.5t-10.5 -102.5q0 -113 55 -113q56 0 83 100h161q-27 -91 -90 -144t-150 -60l-43 -47q40 1 69.5 -17t29.5 -55q0 -56 -48 -85.5t-119 -29.5q-41 0 -70 15 l12 68q25 -13 61 -13q42 0 42 30q0 21 -33 21q-13 0 -33 -5l-20 48l69 74q-145 30 -145 213z" />
<glyph unicode="&#xe8;" horiz-adv-x="541" d="M60 199q0 152 86 247t210 95q119 0 168.5 -75.5t8.5 -241.5h-314v-29q0 -105 62 -105q55 0 78 75h161q-25 -86 -96.5 -133t-163.5 -47q-200 0 -200 214zM204 754h197l82 -168h-140zM231 323h160q15 117 -54 117q-80 0 -106 -117z" />
<glyph unicode="&#xe9;" horiz-adv-x="541" d="M60 199q0 152 86 247t210 95q119 0 168.5 -75.5t8.5 -241.5h-314v-29q0 -105 62 -105q55 0 78 75h161q-25 -86 -96.5 -133t-163.5 -47q-200 0 -200 214zM231 323h160q15 117 -54 117q-80 0 -106 -117zM249 586l132 168h207l-199 -168h-140z" />
<glyph unicode="&#xea;" horiz-adv-x="541" d="M60 199q0 152 86 247t210 95q119 0 168.5 -75.5t8.5 -241.5h-314v-29q0 -105 62 -105q55 0 78 75h161q-25 -86 -96.5 -133t-163.5 -47q-200 0 -200 214zM148 586l162 168h157l102 -168h-138l-59 64l-82 -64h-142zM231 323h160q15 117 -54 117q-80 0 -106 -117z" />
<glyph unicode="&#xeb;" horiz-adv-x="541" d="M60 199q0 152 86 247t210 95q119 0 168.5 -75.5t8.5 -241.5h-314v-29q0 -105 62 -105q55 0 78 75h161q-25 -86 -96.5 -133t-163.5 -47q-200 0 -200 214zM163 652q0 46 32.5 77.5t79.5 31.5q37 0 58 -21.5t21 -56.5q0 -46 -32 -78t-80 -32q-36 0 -57.5 22t-21.5 57z M231 323h160q15 117 -54 117q-80 0 -106 -117zM391 651q0 46 32 78t80 32q36 0 57.5 -22t21.5 -57q0 -46 -32.5 -77.5t-79.5 -31.5q-37 0 -58 21.5t-21 56.5z" />
<glyph unicode="&#xec;" horiz-adv-x="303" d="M50 0l93 526h170l-93 -526h-170zM74 754h197l82 -168h-140z" />
<glyph unicode="&#xed;" horiz-adv-x="303" d="M50 0l93 526h170l-93 -526h-170zM124 586l132 168h207l-199 -168h-140z" />
<glyph unicode="&#xee;" horiz-adv-x="303" d="M28 586l162 168h157l102 -168h-138l-59 64l-82 -64h-142zM50 0l93 526h170l-93 -526h-170z" />
<glyph unicode="&#xef;" horiz-adv-x="303" d="M50 0l93 526h170l-93 -526h-170zM53 652q0 46 32.5 77.5t79.5 31.5q37 0 58 -21.5t21 -56.5q0 -46 -32 -78t-80 -32q-36 0 -57.5 22t-21.5 57zM261 651q0 46 32 78t80 32q36 0 57.5 -22t21.5 -57q0 -46 -32.5 -77.5t-79.5 -31.5q-37 0 -58 21.5t-21 56.5z" />
<glyph unicode="&#xf0;" horiz-adv-x="582" d="M60 201q0 141 76 228t167 87q54 0 90 -34q-12 44 -37 94l-122 -33l-52 99l107 29q-37 40 -80 73h198q20 -13 37 -31l116 31l52 -99l-98 -27q68 -126 68 -270q0 -159 -87.5 -261t-224.5 -102q-98 0 -154 57t-56 159zM229 198q0 -98 62 -98q119 0 119 247q0 14 -2 44 q-27 20 -52 20q-60 0 -93.5 -54.5t-33.5 -158.5z" />
<glyph unicode="&#xf1;" horiz-adv-x="620" d="M50 0l93 526h170l-12 -69q98 84 197 84q56 0 89.5 -39.5t16.5 -134.5l-65 -367h-170l61 347q11 63 -55 63q-44 0 -88 -32l-67 -378h-170zM186 627q29 57 68 88.5t80 31.5q35 0 85.5 -20t62.5 -20q26 0 49 38l87 -42q-29 -57 -67.5 -88.5t-79.5 -31.5q-35 0 -85.5 20 t-63.5 20q-25 0 -50 -38z" />
<glyph unicode="&#xf2;" horiz-adv-x="577" d="M60 207q0 148 85.5 241t221.5 93q98 0 154 -60t56 -162q0 -148 -86 -241t-222 -93q-98 0 -153.5 59.5t-55.5 162.5zM211 754h197l82 -168h-140zM228 199q0 -109 62 -109q53 0 86 63.5t33 173.5q0 109 -62 109q-53 0 -86 -63.5t-33 -173.5z" />
<glyph unicode="&#xf3;" horiz-adv-x="577" d="M60 207q0 148 85.5 241t221.5 93q98 0 154 -60t56 -162q0 -148 -86 -241t-222 -93q-98 0 -153.5 59.5t-55.5 162.5zM228 199q0 -109 62 -109q53 0 86 63.5t33 173.5q0 109 -62 109q-53 0 -86 -63.5t-33 -173.5zM261 586l132 168h207l-199 -168h-140z" />
<glyph unicode="&#xf4;" horiz-adv-x="577" d="M60 207q0 148 85.5 241t221.5 93q98 0 154 -60t56 -162q0 -148 -86 -241t-222 -93q-98 0 -153.5 59.5t-55.5 162.5zM165 586l162 168h157l102 -168h-138l-59 64l-82 -64h-142zM228 199q0 -109 62 -109q53 0 86 63.5t33 173.5q0 109 -62 109q-53 0 -86 -63.5t-33 -173.5z " />
<glyph unicode="&#xf5;" horiz-adv-x="577" d="M60 207q0 148 85.5 241t221.5 93q98 0 154 -60t56 -162q0 -148 -86 -241t-222 -93q-98 0 -153.5 59.5t-55.5 162.5zM174 627q29 57 68 88.5t80 31.5q35 0 85.5 -20t62.5 -20q26 0 49 38l87 -42q-29 -57 -67.5 -88.5t-79.5 -31.5q-35 0 -85.5 20t-63.5 20q-25 0 -50 -38z M228 199q0 -109 62 -109q53 0 86 63.5t33 173.5q0 109 -62 109q-53 0 -86 -63.5t-33 -173.5z" />
<glyph unicode="&#xf6;" horiz-adv-x="577" d="M60 207q0 148 85.5 241t221.5 93q98 0 154 -60t56 -162q0 -148 -86 -241t-222 -93q-98 0 -153.5 59.5t-55.5 162.5zM180 652q0 46 32.5 77.5t79.5 31.5q37 0 58 -21.5t21 -56.5q0 -46 -32 -78t-80 -32q-36 0 -57.5 22t-21.5 57zM228 199q0 -109 62 -109q53 0 86 63.5 t33 173.5q0 109 -62 109q-53 0 -86 -63.5t-33 -173.5zM408 651q0 46 32 78t80 32q36 0 57.5 -22t21.5 -57q0 -46 -32.5 -77.5t-79.5 -31.5q-37 0 -58 21.5t-21 56.5z" />
<glyph unicode="&#xf7;" horiz-adv-x="563" d="M80 302l23 129h480l-23 -129h-480zM209 169q0 43 30.5 71.5t74.5 28.5q34 0 54.5 -20t20.5 -52q0 -43 -30.5 -72t-74.5 -29q-35 0 -55 20.5t-20 52.5zM273 536q0 43 30.5 71.5t75.5 28.5q34 0 54.5 -20t20.5 -52q0 -43 -30.5 -72t-74.5 -29q-35 0 -55.5 20.5t-20.5 52.5z " />
<glyph unicode="&#xf8;" horiz-adv-x="577" d="M-16 -80l110 153q-34 56 -34 134q0 148 85.5 241t221.5 93q31 0 58 -6l51 71h174l-109 -151q36 -54 36 -136q0 -148 -86 -241t-222 -93q-33 0 -60 7l-51 -72h-174zM228 199q0 -109 62 -109q53 0 86 63.5t33 173.5q0 109 -62 109q-53 0 -86 -63.5t-33 -173.5z" />
<glyph unicode="&#xf9;" horiz-adv-x="616" d="M78 159l65 367h170l-62 -347q-11 -63 53 -63q41 0 85 32l67 378h170l-93 -526h-170l12 69q-98 -84 -195 -84q-55 0 -87 39.5t-15 134.5zM230 754h197l82 -168h-140z" />
<glyph unicode="&#xfa;" horiz-adv-x="616" d="M78 159l65 367h170l-62 -347q-11 -63 53 -63q41 0 85 32l67 378h170l-93 -526h-170l12 69q-98 -84 -195 -84q-55 0 -87 39.5t-15 134.5zM280 586l132 168h207l-199 -168h-140z" />
<glyph unicode="&#xfb;" horiz-adv-x="616" d="M78 159l65 367h170l-62 -347q-11 -63 53 -63q41 0 85 32l67 378h170l-93 -526h-170l12 69q-98 -84 -195 -84q-55 0 -87 39.5t-15 134.5zM184 586l162 168h157l102 -168h-138l-59 64l-82 -64h-142z" />
<glyph unicode="&#xfc;" horiz-adv-x="616" d="M78 159l65 367h170l-62 -347q-11 -63 53 -63q41 0 85 32l67 378h170l-93 -526h-170l12 69q-98 -84 -195 -84q-55 0 -87 39.5t-15 134.5zM199 652q0 46 32.5 77.5t79.5 31.5q37 0 58 -21.5t21 -56.5q0 -46 -32 -78t-80 -32q-36 0 -57.5 22t-21.5 57zM427 651q0 46 32 78 t80 32q36 0 57.5 -22t21.5 -57q0 -46 -32.5 -77.5t-79.5 -31.5q-37 0 -58 21.5t-21 56.5z" />
<glyph unicode="&#xfd;" horiz-adv-x="504" d="M47 -208l108 208l-95 526h174l10 -105l19 -220l101 220l49 105h161l-381 -734h-146zM214 586l132 168h207l-199 -168h-140z" />
<glyph unicode="&#xfe;" horiz-adv-x="598" d="M13 -208l168 952h170l-47 -266q41 33 75.5 48t75.5 15q143 0 143 -209q0 -142 -74 -244.5t-181 -102.5q-75 0 -115 62l14 79q29 -26 59 -26q62 0 94 63.5t32 153.5q0 109 -63 109q-35 0 -74 -27l-62 -352l-45 -255h-170z" />
<glyph unicode="&#xff;" horiz-adv-x="504" d="M47 -208l108 208l-95 526h174l10 -105l19 -220l101 220l49 105h161l-381 -734h-146zM142 652q0 46 32.5 77.5t79.5 31.5q37 0 58 -21.5t21 -56.5q0 -46 -32 -78t-80 -32q-36 0 -57.5 22t-21.5 57zM370 651q0 46 32 78t80 32q36 0 57.5 -22t21.5 -57q0 -46 -32.5 -77.5 t-79.5 -31.5q-37 0 -58 21.5t-21 56.5z" />
<glyph unicode="&#x100;" horiz-adv-x="645" d="M-10 0l359 700h173l113 -700h-179l-16 147h-211l-68 -147h-171zM269 777l20 114h360l-20 -114h-360zM287 273h140l-4 35l-19 230l-101 -230z" />
<glyph unicode="&#x101;" horiz-adv-x="598" d="M60 194q0 142 74 244.5t180 102.5q77 0 116 -62l8 47h170l-93 -526h-170l8 48q-75 -63 -151 -63q-142 0 -142 209zM231 209q0 -109 62 -109q33 0 74 27l49 273q-29 26 -60 26q-62 0 -93.5 -63.5t-31.5 -153.5zM231 612l20 114h330l-20 -114h-330z" />
<glyph unicode="&#x102;" horiz-adv-x="645" d="M-10 0l359 700h173l113 -700h-179l-16 147h-211l-68 -147h-171zM279 897h118q-3 -19 12.5 -31t53.5 -12q73 0 80 43h118q-14 -80 -78.5 -120.5t-140.5 -40.5t-126.5 40.5t-36.5 120.5zM287 273h140l-4 35l-19 230l-101 -230z" />
<glyph unicode="&#x103;" horiz-adv-x="598" d="M60 194q0 142 74 244.5t180 102.5q77 0 116 -62l8 47h170l-93 -526h-170l8 48q-75 -63 -151 -63q-142 0 -142 209zM231 209q0 -109 62 -109q33 0 74 27l49 273q-29 26 -60 26q-62 0 -93.5 -63.5t-31.5 -153.5zM240 754h118q-4 -23 7.5 -43t44.5 -20t51.5 20t22.5 43h118 q-9 -48 -32 -85t-54.5 -57t-63.5 -29.5t-63 -9.5q-70 0 -117.5 44t-31.5 137z" />
<glyph unicode="&#x104;" horiz-adv-x="645" d="M-10 0l359 700h173l113 -700q-66 -32 -96 -63.5t-30 -57.5q0 -14 10 -22t22 -8q33 0 70 15l-15 -88q-48 -24 -126 -24q-51 0 -78.5 25.5t-27.5 63.5q0 89 131 159h-39l-16 147h-211l-68 -147h-171zM287 273h140l-4 35l-19 230l-101 -230z" />
<glyph unicode="&#x105;" horiz-adv-x="598" d="M60 194q0 142 74 244.5t180 102.5q77 0 116 -62l8 47h170l-93 -526q-66 -32 -96 -63.5t-30 -57.5q0 -14 10 -22t22 -8q33 0 70 15l-15 -88q-48 -24 -126 -24q-51 0 -78.5 25.5t-27.5 63.5q0 89 131 159h-30l8 48q-75 -63 -151 -63q-142 0 -142 209zM231 209 q0 -109 62 -109q33 0 74 27l49 273q-29 26 -60 26q-62 0 -93.5 -63.5t-31.5 -153.5z" />
<glyph unicode="&#x106;" horiz-adv-x="649" d="M70 262q0 201 106.5 327t272.5 126q125 0 190 -69.5t45 -205.5h-178q15 146 -81 146q-43 0 -77 -28.5t-53.5 -76t-29.5 -102t-10 -112.5q0 -153 90 -153q98 0 129 146h178q-28 -136 -117.5 -205.5t-214.5 -69.5q-250 0 -250 277zM310 749l153 148h222l-230 -148h-145z " />
<glyph unicode="&#x107;" horiz-adv-x="536" d="M60 203q0 150 85.5 244t215.5 94q95 0 149 -56.5t44 -158.5h-161q5 61 -6 85.5t-46 24.5q-38 0 -64.5 -40t-37 -90.5t-10.5 -102.5q0 -113 55 -113q56 0 83 100h161q-29 -98 -99 -151.5t-166 -53.5q-103 0 -153 57t-50 161zM237 586l132 168h207l-199 -168h-140z" />
<glyph unicode="&#x108;" horiz-adv-x="649" d="M70 262q0 201 106.5 327t272.5 126q125 0 190 -69.5t45 -205.5h-178q15 146 -81 146q-43 0 -77 -28.5t-53.5 -76t-29.5 -102t-10 -112.5q0 -153 90 -153q98 0 129 146h178q-28 -136 -117.5 -205.5t-214.5 -69.5q-250 0 -250 277zM204 749l178 148h177l126 -148h-158 l-71 57l-90 -57h-162z" />
<glyph unicode="&#x109;" horiz-adv-x="536" d="M60 203q0 150 85.5 244t215.5 94q95 0 149 -56.5t44 -158.5h-161q5 61 -6 85.5t-46 24.5q-38 0 -64.5 -40t-37 -90.5t-10.5 -102.5q0 -113 55 -113q56 0 83 100h161q-29 -98 -99 -151.5t-166 -53.5q-103 0 -153 57t-50 161zM151 586l162 168h157l102 -168h-138l-59 64 l-82 -64h-142z" />
<glyph unicode="&#x10a;" horiz-adv-x="649" d="M70 262q0 201 106.5 327t272.5 126q125 0 190 -69.5t45 -205.5h-178q15 146 -81 146q-43 0 -77 -28.5t-53.5 -76t-29.5 -102t-10 -112.5q0 -153 90 -153q98 0 129 146h178q-28 -136 -117.5 -205.5t-214.5 -69.5q-250 0 -250 277zM357 820q0 47 34.5 78.5t84.5 31.5 q39 0 62.5 -22t23.5 -58q0 -48 -34.5 -79t-85.5 -31q-39 0 -62 22t-23 58z" />
<glyph unicode="&#x10b;" horiz-adv-x="536" d="M60 203q0 150 85.5 244t215.5 94q95 0 149 -56.5t44 -158.5h-161q5 61 -6 85.5t-46 24.5q-38 0 -64.5 -40t-37 -90.5t-10.5 -102.5q0 -113 55 -113q56 0 83 100h161q-29 -98 -99 -151.5t-166 -53.5q-103 0 -153 57t-50 161zM274 651q0 48 34.5 82t84.5 34 q39 0 61.5 -23.5t22.5 -60.5q0 -48 -34 -82t-85 -34q-39 0 -61.5 23.5t-22.5 60.5z" />
<glyph unicode="&#x10c;" horiz-adv-x="649" d="M70 262q0 201 106.5 327t272.5 126q125 0 190 -69.5t45 -205.5h-178q15 146 -81 146q-43 0 -77 -28.5t-53.5 -76t-29.5 -102t-10 -112.5q0 -153 90 -153q98 0 129 146h178q-28 -136 -117.5 -205.5t-214.5 -69.5q-250 0 -250 277zM230 897h158l70 -57l91 57h162l-178 -148 h-177z" />
<glyph unicode="&#x10d;" horiz-adv-x="536" d="M60 203q0 150 85.5 244t215.5 94q95 0 149 -56.5t44 -158.5h-161q5 61 -6 85.5t-46 24.5q-38 0 -64.5 -40t-37 -90.5t-10.5 -102.5q0 -113 55 -113q56 0 83 100h161q-29 -98 -99 -151.5t-166 -53.5q-103 0 -153 57t-50 161zM181 754h138l59 -64l82 64h142l-162 -168h-157 z" />
<glyph unicode="&#x10e;" horiz-adv-x="703" d="M60 0l123 700h247q131 0 212 -77.5t81 -210.5q0 -185 -121.5 -298.5t-294.5 -113.5h-247zM205 897h158l70 -57l91 57h162l-178 -148h-177zM258 129h72q94 0 150.5 75.5t56.5 196.5q0 82 -32.5 126t-96.5 44h-72z" />
<glyph unicode="&#x10f;" horiz-adv-x="598" d="M60 194q0 142 74 244.5t180 102.5q77 0 115 -61l47 264h170l-131 -744h-170l8 47q-75 -62 -151 -62q-142 0 -142 209zM231 209q0 -109 62 -109q33 0 74 27l49 273q-29 26 -60 26q-62 0 -93.5 -63.5t-31.5 -153.5zM674 563l43 240h151l-74 -240h-120z" />
<glyph unicode="&#x110;" horiz-adv-x="703" d="M20 284l23 129h90l50 287h247q131 0 212 -77.5t81 -210.5q0 -185 -121.5 -298.5t-294.5 -113.5h-247l50 284h-90zM258 129h72q94 0 150.5 75.5t56.5 196.5q0 82 -32.5 126t-96.5 44h-72l-28 -158h140l-23 -129h-140z" />
<glyph unicode="&#x111;" horiz-adv-x="598" d="M60 194q0 142 74 244.5t180 102.5q77 0 115 -61l17 92h-83l20 114h83l10 58h170l-10 -58h77l-20 -114h-77l-101 -572h-170l8 47q-75 -62 -151 -62q-142 0 -142 209zM231 209q0 -109 62 -109q33 0 74 27l49 273q-29 26 -60 26q-62 0 -93.5 -63.5t-31.5 -153.5z" />
<glyph unicode="&#x112;" horiz-adv-x="563" d="M60 0l123 700h440l-22 -129h-265l-25 -138h245l-22 -129h-245l-31 -175h265l-23 -129h-440zM232 777l20 114h360l-20 -114h-360z" />
<glyph unicode="&#x113;" horiz-adv-x="541" d="M60 199q0 152 86 247t210 95q119 0 168.5 -75.5t8.5 -241.5h-314v-29q0 -105 62 -105q55 0 78 75h161q-25 -86 -96.5 -133t-163.5 -47q-200 0 -200 214zM198 612l20 114h330l-20 -114h-330zM231 323h160q15 117 -54 117q-80 0 -106 -117z" />
<glyph unicode="&#x114;" horiz-adv-x="563" d="M60 0l123 700h440l-22 -129h-265l-25 -138h245l-22 -129h-245l-31 -175h265l-23 -129h-440zM242 897h118q-3 -19 12.5 -31t53.5 -12q73 0 80 43h118q-14 -80 -78.5 -120.5t-140.5 -40.5t-126.5 40.5t-36.5 120.5z" />
<glyph unicode="&#x115;" horiz-adv-x="541" d="M60 199q0 152 86 247t210 95q119 0 168.5 -75.5t8.5 -241.5h-314v-29q0 -105 62 -105q55 0 78 75h161q-25 -86 -96.5 -133t-163.5 -47q-200 0 -200 214zM207 754h118q-4 -23 7.5 -43t44.5 -20t51.5 20t22.5 43h118q-9 -48 -32 -85t-54.5 -57t-63.5 -29.5t-63 -9.5 q-70 0 -117.5 44t-31.5 137zM231 323h160q15 117 -54 117q-80 0 -106 -117z" />
<glyph unicode="&#x116;" horiz-adv-x="563" d="M60 0l123 700h440l-22 -129h-265l-25 -138h245l-22 -129h-245l-31 -175h265l-23 -129h-440zM320 820q0 47 34.5 78.5t84.5 31.5q39 0 62.5 -22t23.5 -58q0 -48 -34.5 -79t-85.5 -31q-39 0 -62 22t-23 58z" />
<glyph unicode="&#x117;" horiz-adv-x="541" d="M60 199q0 152 86 247t210 95q119 0 168.5 -75.5t8.5 -241.5h-314v-29q0 -105 62 -105q55 0 78 75h161q-25 -86 -96.5 -133t-163.5 -47q-200 0 -200 214zM231 323h160q15 117 -54 117q-80 0 -106 -117zM271 651q0 48 34.5 82t84.5 34q39 0 61.5 -23.5t22.5 -60.5 q0 -48 -34 -82t-85 -34q-39 0 -61.5 23.5t-22.5 60.5z" />
<glyph unicode="&#x118;" horiz-adv-x="563" d="M60 0l123 700h440l-22 -129h-265l-25 -138h245l-22 -129h-245l-31 -175h265l-23 -129q-66 -32 -96 -63.5t-30 -57.5q0 -14 10 -22t22 -8q32 0 70 15l-15 -88q-48 -24 -126 -24q-51 0 -78.5 25.5t-27.5 63.5q0 89 131 159h-300z" />
<glyph unicode="&#x119;" horiz-adv-x="541" d="M60 199q0 152 86 247t210 95q119 0 168.5 -75.5t8.5 -241.5h-314v-29q0 -105 62 -105q55 0 78 75h161q-14 -48 -43 -84q-66 -95 -89 -136.5t-23 -65.5q0 -14 10 -22t22 -8q33 0 70 15l-15 -88q-48 -24 -126 -24q-51 0 -78.5 25.5t-27.5 63.5q0 36 20.5 68t78.5 81 q-32 -5 -59 -5q-200 0 -200 214zM231 323h160q15 117 -54 117q-80 0 -106 -117z" />
<glyph unicode="&#x11a;" horiz-adv-x="563" d="M60 0l123 700h440l-22 -129h-265l-25 -138h245l-22 -129h-245l-31 -175h265l-23 -129h-440zM193 897h158l70 -57l91 57h162l-178 -148h-177z" />
<glyph unicode="&#x11b;" horiz-adv-x="541" d="M60 199q0 152 86 247t210 95q119 0 168.5 -75.5t8.5 -241.5h-314v-29q0 -105 62 -105q55 0 78 75h161q-25 -86 -96.5 -133t-163.5 -47q-200 0 -200 214zM178 754h138l59 -64l82 64h142l-162 -168h-157zM231 323h160q15 117 -54 117q-80 0 -106 -117z" />
<glyph unicode="&#x11c;" horiz-adv-x="666" d="M70 254q0 207 106.5 334t279.5 127q116 0 178 -63t50 -182h-178q9 116 -74 116q-49 0 -85 -30t-54.5 -78.5t-27 -98t-8.5 -100.5q0 -167 111 -167q18 0 47 7.5t46 18.5l18 103h-113l20 119h278l-63 -360h-165l10 58q-31 -32 -84 -52.5t-97 -20.5q-92 0 -143.5 71 t-51.5 198zM212 749l178 148h177l126 -148h-158l-71 57l-90 -57h-162z" />
<glyph unicode="&#x11d;" horiz-adv-x="598" d="M30 -33h161q-2 -28 3 -46.5t16 -26t20 -10t22 -2.5q72 0 88 91l16 90q-76 -63 -151 -63q-145 0 -145 203q0 141 73.5 239.5t180.5 98.5q77 0 116 -62l8 47h170l-94 -533q-20 -111 -96.5 -163.5t-185.5 -52.5q-94 0 -151 43.5t-51 146.5zM181 586l162 168h157l102 -168 h-138l-59 64l-82 -64h-142zM231 220q0 -105 65 -105q34 0 74 27l46 258q-29 26 -60 26q-64 0 -94.5 -59t-30.5 -147z" />
<glyph unicode="&#x11e;" horiz-adv-x="666" d="M70 254q0 207 106.5 334t279.5 127q116 0 178 -63t50 -182h-178q9 116 -74 116q-49 0 -85 -30t-54.5 -78.5t-27 -98t-8.5 -100.5q0 -167 111 -167q18 0 47 7.5t46 18.5l18 103h-113l20 119h278l-63 -360h-165l10 58q-31 -32 -84 -52.5t-97 -20.5q-92 0 -143.5 71 t-51.5 198zM287 897h118q-3 -19 12.5 -31t53.5 -12q73 0 80 43h118q-14 -80 -78.5 -120.5t-140.5 -40.5t-126.5 40.5t-36.5 120.5z" />
<glyph unicode="&#x11f;" horiz-adv-x="598" d="M30 -33h161q-2 -28 3 -46.5t16 -26t20 -10t22 -2.5q72 0 88 91l16 90q-76 -63 -151 -63q-145 0 -145 203q0 141 73.5 239.5t180.5 98.5q77 0 116 -62l8 47h170l-94 -533q-20 -111 -96.5 -163.5t-185.5 -52.5q-94 0 -151 43.5t-51 146.5zM231 220q0 -105 65 -105 q34 0 74 27l46 258q-29 26 -60 26q-64 0 -94.5 -59t-30.5 -147zM240 754h118q-4 -23 7.5 -43t44.5 -20t51.5 20t22.5 43h118q-9 -48 -32 -85t-54.5 -57t-63.5 -29.5t-63 -9.5q-70 0 -117.5 44t-31.5 137z" />
<glyph unicode="&#x120;" horiz-adv-x="666" d="M70 254q0 207 106.5 334t279.5 127q116 0 178 -63t50 -182h-178q9 116 -74 116q-49 0 -85 -30t-54.5 -78.5t-27 -98t-8.5 -100.5q0 -167 111 -167q18 0 47 7.5t46 18.5l18 103h-113l20 119h278l-63 -360h-165l10 58q-31 -32 -84 -52.5t-97 -20.5q-92 0 -143.5 71 t-51.5 198zM355 820q0 47 34.5 78.5t84.5 31.5q39 0 62.5 -22t23.5 -58q0 -48 -34.5 -79t-85.5 -31q-39 0 -62 22t-23 58z" />
<glyph unicode="&#x121;" horiz-adv-x="598" d="M30 -33h161q-2 -28 3 -46.5t16 -26t20 -10t22 -2.5q72 0 88 91l16 90q-76 -63 -151 -63q-145 0 -145 203q0 141 73.5 239.5t180.5 98.5q77 0 116 -62l8 47h170l-94 -533q-20 -111 -96.5 -163.5t-185.5 -52.5q-94 0 -151 43.5t-51 146.5zM231 220q0 -105 65 -105 q34 0 74 27l46 258q-29 26 -60 26q-64 0 -94.5 -59t-30.5 -147zM294 651q0 48 34.5 82t84.5 34q39 0 61.5 -23.5t22.5 -60.5q0 -48 -34 -82t-85 -34q-39 0 -61.5 23.5t-22.5 60.5z" />
<glyph unicode="&#x122;" horiz-adv-x="666" d="M70 254q0 207 106.5 334t279.5 127q116 0 178 -63t50 -182h-178q9 116 -74 116q-49 0 -85 -30t-54.5 -78.5t-27 -98t-8.5 -100.5q0 -167 111 -167q18 0 47 7.5t46 18.5l18 103h-113l20 119h278l-63 -360h-165l10 58q-31 -32 -84 -52.5t-97 -20.5q-92 0 -143.5 71 t-51.5 198zM188 -248l56 200h157l-95 -200h-118z" />
<glyph unicode="&#x123;" horiz-adv-x="598" d="M30 -33h161q-2 -28 3 -46.5t16 -26t20 -10t22 -2.5q72 0 88 91l16 90q-76 -63 -151 -63q-145 0 -145 203q0 141 73.5 239.5t180.5 98.5q77 0 116 -62l8 47h170l-94 -533q-20 -111 -96.5 -163.5t-185.5 -52.5q-94 0 -151 43.5t-51 146.5zM231 220q0 -105 65 -105 q34 0 74 27l46 258q-29 26 -60 26q-64 0 -94.5 -59t-30.5 -147zM288 580l95 200h118l-56 -200h-157z" />
<glyph unicode="&#x124;" horiz-adv-x="746" d="M60 0l123 700h175l-47 -267h243l47 267h175l-123 -700h-175l54 304h-243l-54 -304h-175zM248 749l178 148h177l126 -148h-158l-71 57l-90 -57h-162z" />
<glyph unicode="&#x125;" horiz-adv-x="629" d="M32 779l178 148h177l126 -148h-158l-71 57l-90 -57h-162zM50 0l131 744h170l-51 -288q99 85 198 85q56 0 89.5 -39.5t16.5 -134.5l-65 -367h-170l61 347q11 63 -55 63q-46 0 -89 -33l-66 -377h-170z" />
<glyph unicode="&#x126;" horiz-adv-x="746" d="M60 0l84 479h-69l22 129h70l16 92h175l-16 -92h243l16 92h175l-16 -92h70l-22 -129h-71l-84 -479h-175l46 259h-243l-46 -259h-175zM303 388h243l16 91h-243z" />
<glyph unicode="&#x127;" horiz-adv-x="629" d="M50 0l101 572h-73l20 114h73l10 58h170l-10 -58h87l-20 -114h-87l-21 -116q99 85 198 85q56 0 89.5 -39.5t16.5 -134.5l-65 -367h-170l61 347q11 63 -55 63q-46 0 -89 -33l-66 -377h-170z" />
<glyph unicode="&#x128;" horiz-adv-x="328" d="M60 0l123 700h175l-123 -700h-175zM72 791q29 57 71 88.5t83 31.5q35 0 90.5 -20t67.5 -20q31 0 54 38l87 -42q-29 -57 -70 -88.5t-82 -31.5q-35 0 -90.5 20t-68.5 20q-30 0 -55 -38z" />
<glyph unicode="&#x129;" horiz-adv-x="303" d="M37 627q29 57 68 88.5t80 31.5q35 0 85.5 -20t62.5 -20q26 0 49 38l87 -42q-29 -57 -67.5 -88.5t-79.5 -31.5q-35 0 -85.5 20t-63.5 20q-25 0 -50 -38zM50 0l93 526h170l-93 -526h-170z" />
<glyph unicode="&#x12a;" horiz-adv-x="328" d="M60 0l123 700h175l-123 -700h-175zM139 777l20 114h300l-20 -114h-300z" />
<glyph unicode="&#x12b;" horiz-adv-x="303" d="M50 0l93 526h170l-93 -526h-170zM108 612l20 114h270l-20 -114h-270z" />
<glyph unicode="&#x12c;" horiz-adv-x="328" d="M60 0l123 700h175l-123 -700h-175zM119 897h118q-3 -19 12.5 -31t53.5 -12q73 0 80 43h118q-14 -80 -78.5 -120.5t-140.5 -40.5t-126.5 40.5t-36.5 120.5z" />
<glyph unicode="&#x12d;" horiz-adv-x="303" d="M50 0l93 526h170l-93 -526h-170zM87 754h118q-4 -23 7.5 -43t44.5 -20t51.5 20t22.5 43h118q-9 -48 -32 -85t-54.5 -57t-63.5 -29.5t-63 -9.5q-70 0 -117.5 44t-31.5 137z" />
<glyph unicode="&#x12e;" horiz-adv-x="328" d="M-36 -159q0 89 131 159h-35l123 700h175l-123 -700q-66 -32 -96 -63.5t-30 -57.5q0 -14 10 -22t22 -8q33 0 70 15l-15 -88q-48 -24 -126 -24q-51 0 -78.5 25.5t-27.5 63.5z" />
<glyph unicode="&#x12f;" horiz-adv-x="303" d="M-51 -159q0 89 131 159h-30l93 526h170l-93 -526q-66 -32 -96 -63.5t-30 -57.5q0 -14 10 -22t22 -8q32 0 70 15l-15 -88q-48 -24 -126 -24q-51 0 -78.5 25.5t-27.5 63.5zM156 651q0 48 33.5 82t80.5 34q38 0 58.5 -23t20.5 -61q0 -48 -33.5 -82t-80.5 -34q-38 0 -58.5 23 t-20.5 61z" />
<glyph unicode="&#x130;" horiz-adv-x="328" d="M60 0l123 700h175l-123 -700h-175zM197 820q0 47 34.5 78.5t84.5 31.5q39 0 62.5 -22t23.5 -58q0 -48 -34.5 -79t-85.5 -31q-39 0 -62 22t-23 58z" />
<glyph unicode="&#x131;" horiz-adv-x="303" d="M50 0l93 526h170l-93 -526h-170z" />
<glyph unicode="&#x132;" horiz-adv-x="928" d="M60 0l123 700h175l-123 -700h-175zM375 250h172q-11 -80 3 -111t53 -31q41 0 63 26.5t32 82.5l85 483h175l-81 -463q-23 -130 -101 -191t-195 -61q-250 0 -206 265z" />
<glyph unicode="&#x133;" horiz-adv-x="606" d="M50 0l93 526h170l-93 -526h-170zM156 651q0 48 33.5 82t80.5 34q38 0 58.5 -23t20.5 -61q0 -48 -33.5 -82t-80.5 -34q-38 0 -58.5 23t-20.5 61zM317 -208l129 734h170l-129 -734h-170zM459 651q0 48 33.5 82t80.5 34q38 0 58.5 -23t20.5 -61q0 -48 -33.5 -82t-80.5 -34 q-38 0 -58.5 23t-20.5 61z" />
<glyph unicode="&#x134;" d="M47 250h172q-11 -80 3 -111t53 -31q41 0 63 26.5t32 82.5l85 483h175l-81 -463q-23 -130 -101 -191t-195 -61q-250 0 -206 265zM316 749l178 148h177l126 -148h-158l-71 57l-90 -57h-162z" />
<glyph unicode="&#x135;" horiz-adv-x="303" d="M14 -208l129 734h170l-129 -734h-170zM28 586l162 168h157l102 -168h-138l-59 64l-82 -64h-142z" />
<glyph unicode="&#x136;" horiz-adv-x="658" d="M60 0l123 700h175l-53 -303l241 303h172l-264 -330l181 -370h-190l-151 333l-59 -333h-175zM165 -248l56 200h157l-95 -200h-118z" />
<glyph unicode="&#x137;" horiz-adv-x="574" d="M50 0l131 744h170l-77 -437l178 219h172l-206 -241l127 -285h-183l-100 240l-42 -240h-170zM125 -248l56 200h157l-95 -200h-118z" />
<glyph unicode="&#x138;" horiz-adv-x="574" d="M50 0l93 526h170l-39 -219l178 219h172l-206 -241l127 -285h-183l-100 240l-42 -240h-170z" />
<glyph unicode="&#x139;" horiz-adv-x="508" d="M60 0l123 700h175l-100 -571h240l-23 -129h-415zM150 749l153 148h222l-230 -148h-145z" />
<glyph unicode="&#x13a;" horiz-adv-x="303" d="M50 0l131 744h170l-131 -744h-170zM138 779l153 148h222l-230 -148h-145z" />
<glyph unicode="&#x13b;" horiz-adv-x="508" d="M60 0l123 700h175l-100 -571h240l-23 -129h-415zM120 -248l56 200h157l-95 -200h-118z" />
<glyph unicode="&#x13c;" horiz-adv-x="303" d="M-2 -248l56 200h157l-95 -200h-118zM50 0l131 744h170l-131 -744h-170z" />
<glyph unicode="&#x13d;" horiz-adv-x="508" d="M60 0l123 700h175l-100 -571h240l-23 -129h-415zM384 563l43 240h151l-74 -240h-120z" />
<glyph unicode="&#x13e;" horiz-adv-x="303" d="M50 0l131 744h170l-131 -744h-170zM379 563l43 240h151l-74 -240h-120z" />
<glyph unicode="&#x13f;" horiz-adv-x="508" d="M60 0l123 700h175l-100 -571h240l-23 -129h-415zM338 349q0 48 34 82t85 34q39 0 61.5 -23.5t22.5 -60.5q0 -48 -34.5 -82t-84.5 -34q-39 0 -61.5 23.5t-22.5 60.5z" />
<glyph unicode="&#x140;" horiz-adv-x="446" d="M50 0l131 744h170l-131 -744h-170zM323 349q0 48 34 82t85 34q39 0 61.5 -23.5t22.5 -60.5q0 -48 -34.5 -82t-84.5 -34q-39 0 -61.5 23.5t-22.5 60.5z" />
<glyph unicode="&#x141;" horiz-adv-x="508" d="M1 174l26 149l99 52l57 325h175l-39 -223l144 76l-27 -149l-143 -76l-35 -199h240l-23 -129h-415l40 226z" />
<glyph unicode="&#x142;" horiz-adv-x="303" d="M9 219l21 124l89 47l62 354h170l-45 -255l99 52l-21 -124l-100 -53l-64 -364h-170l47 265z" />
<glyph unicode="&#x143;" horiz-adv-x="726" d="M60 0l123 700h150l192 -428l34 217l37 211h160l-123 -700h-150l-191 427l-35 -217l-37 -210h-160zM344 749l153 148h222l-230 -148h-145z" />
<glyph unicode="&#x144;" horiz-adv-x="620" d="M50 0l93 526h170l-12 -69q98 84 197 84q56 0 89.5 -39.5t16.5 -134.5l-65 -367h-170l61 347q11 63 -55 63q-44 0 -88 -32l-67 -378h-170zM253 586l132 168h207l-199 -168h-140z" />
<glyph unicode="&#x145;" horiz-adv-x="726" d="M60 0l123 700h150l192 -428l34 217l37 211h160l-123 -700h-150l-191 427l-35 -217l-37 -210h-160zM214 -248l56 200h157l-95 -200h-118z" />
<glyph unicode="&#x146;" horiz-adv-x="620" d="M50 0l93 526h170l-12 -69q98 84 197 84q56 0 89.5 -39.5t16.5 -134.5l-65 -367h-170l61 347q11 63 -55 63q-44 0 -88 -32l-67 -378h-170zM152 -248l56 200h157l-95 -200h-118z" />
<glyph unicode="&#x147;" horiz-adv-x="726" d="M60 0l123 700h150l192 -428l34 217l37 211h160l-123 -700h-150l-191 427l-35 -217l-37 -210h-160zM264 897h158l70 -57l91 57h162l-178 -148h-177z" />
<glyph unicode="&#x148;" horiz-adv-x="620" d="M50 0l93 526h170l-12 -69q98 84 197 84q56 0 89.5 -39.5t16.5 -134.5l-65 -367h-170l61 347q11 63 -55 63q-44 0 -88 -32l-67 -378h-170zM207 754h138l59 -64l82 64h142l-162 -168h-157z" />
<glyph unicode="&#x14a;" horiz-adv-x="726" d="M60 0l123 700h150l192 -428l34 217l37 211h160l-123 -700q-40 -223 -262 -223q-54 0 -93 21l21 116q41 -14 93 -14q32 0 57 24.5t34 75.5l-191 427l-35 -217l-37 -210h-160z" />
<glyph unicode="&#x14b;" horiz-adv-x="620" d="M50 0l93 526h170l-12 -69q98 84 197 84q56 0 89.5 -39.5t16.5 -134.5l-102 -575h-170l98 555q11 63 -55 63q-44 0 -88 -32l-67 -378h-170z" />
<glyph unicode="&#x14c;" horiz-adv-x="710" d="M70 277q0 193 108 315.5t286 122.5q129 0 197.5 -78t68.5 -214q0 -193 -108.5 -315.5t-286.5 -122.5q-129 0 -197 78t-68 214zM254 276q0 -72 25.5 -117t80.5 -45q47 0 82 24t54.5 58t31 79.5t15 80t3.5 68.5q0 72 -26 117t-80 45q-47 0 -82 -24t-54.5 -58t-31 -79.5 t-15 -80t-3.5 -68.5zM295 777l20 114h360l-20 -114h-360z" />
<glyph unicode="&#x14d;" horiz-adv-x="577" d="M60 207q0 148 85.5 241t221.5 93q98 0 154 -60t56 -162q0 -148 -86 -241t-222 -93q-98 0 -153.5 59.5t-55.5 162.5zM215 612l20 114h330l-20 -114h-330zM228 199q0 -109 62 -109q53 0 86 63.5t33 173.5q0 109 -62 109q-53 0 -86 -63.5t-33 -173.5z" />
<glyph unicode="&#x14e;" horiz-adv-x="710" d="M70 277q0 193 108 315.5t286 122.5q129 0 197.5 -78t68.5 -214q0 -193 -108.5 -315.5t-286.5 -122.5q-129 0 -197 78t-68 214zM254 276q0 -72 25.5 -117t80.5 -45q47 0 82 24t54.5 58t31 79.5t15 80t3.5 68.5q0 72 -26 117t-80 45q-47 0 -82 -24t-54.5 -58t-31 -79.5 t-15 -80t-3.5 -68.5zM305 897h118q-3 -19 12.5 -31t53.5 -12q73 0 80 43h118q-14 -80 -78.5 -120.5t-140.5 -40.5t-126.5 40.5t-36.5 120.5z" />
<glyph unicode="&#x14f;" horiz-adv-x="577" d="M60 207q0 148 85.5 241t221.5 93q98 0 154 -60t56 -162q0 -148 -86 -241t-222 -93q-98 0 -153.5 59.5t-55.5 162.5zM224 754h118q-4 -23 7.5 -43t44.5 -20t51.5 20t22.5 43h118q-9 -48 -32 -85t-54.5 -57t-63.5 -29.5t-63 -9.5q-70 0 -117.5 44t-31.5 137zM228 199 q0 -109 62 -109q53 0 86 63.5t33 173.5q0 109 -62 109q-53 0 -86 -63.5t-33 -173.5z" />
<glyph unicode="&#x150;" horiz-adv-x="710" d="M70 277q0 193 108 315.5t286 122.5q129 0 197.5 -78t68.5 -214q0 -193 -108.5 -315.5t-286.5 -122.5q-129 0 -197 78t-68 214zM247 749l128 148h197l-195 -148h-130zM254 276q0 -72 25.5 -117t80.5 -45q47 0 82 24t54.5 58t31 79.5t15 80t3.5 68.5q0 72 -26 117t-80 45 q-47 0 -82 -24t-54.5 -58t-31 -79.5t-15 -80t-3.5 -68.5zM474 749l128 148h197l-195 -148h-130z" />
<glyph unicode="&#x151;" horiz-adv-x="577" d="M60 207q0 148 85.5 241t221.5 93q98 0 154 -60t56 -162q0 -148 -86 -241t-222 -93q-98 0 -153.5 59.5t-55.5 162.5zM167 586l112 168h202l-184 -168h-130zM228 199q0 -109 62 -109q53 0 86 63.5t33 173.5q0 109 -62 109q-53 0 -86 -63.5t-33 -173.5zM399 586l112 168h202 l-184 -168h-130z" />
<glyph unicode="&#x152;" horiz-adv-x="937" d="M70 288q0 187 118 299.5t297 112.5h512l-22 -129h-265l-25 -138h245l-22 -129h-245l-31 -175h265l-23 -129h-512q-136 0 -214 76.5t-78 211.5zM256 299q0 -77 33 -123.5t96 -46.5h72l78 442h-72q-93 0 -150 -78t-57 -194z" />
<glyph unicode="&#x153;" horiz-adv-x="884" d="M60 207q0 148 85.5 241t221.5 93q110 0 157 -68q76 68 175 68q119 0 168.5 -75.5t8.5 -241.5h-314v-29q0 -105 62 -105q55 0 78 75h161q-25 -86 -96.5 -133t-163.5 -47q-111 0 -157 64q-70 -64 -177 -64q-98 0 -153.5 59.5t-55.5 162.5zM228 199q0 -109 62 -109 q47 0 83 65t36 172q0 109 -62 109q-47 0 -83 -65t-36 -172zM574 323h160q15 117 -54 117q-80 0 -106 -117z" />
<glyph unicode="&#x154;" horiz-adv-x="625" d="M60 0l123 700h243q100 0 164.5 -48t64.5 -145q0 -94 -47.5 -155t-126.5 -89l123 -263h-186l-95 240h-46l-42 -240h-175zM260 749l153 148h222l-230 -148h-145zM299 362h68q41 0 76 33.5t35 93.5q0 39 -22 63t-51 24h-68z" />
<glyph unicode="&#x155;" horiz-adv-x="457" d="M50 0l93 526h170l-18 -99q35 54 79.5 84t81.5 30q35 0 61 -18l-26 -149q-35 16 -75 16q-39 0 -77 -14.5t-59 -37.5l-60 -338h-170zM181 586l132 168h207l-199 -168h-140z" />
<glyph unicode="&#x156;" horiz-adv-x="625" d="M60 0l123 700h243q100 0 164.5 -48t64.5 -145q0 -94 -47.5 -155t-126.5 -89l123 -263h-186l-95 240h-46l-42 -240h-175zM170 -248l56 200h157l-95 -200h-118zM299 362h68q41 0 76 33.5t35 93.5q0 39 -22 63t-51 24h-68z" />
<glyph unicode="&#x157;" horiz-adv-x="457" d="M-10 -248l56 200h157l-95 -200h-118zM50 0l93 526h170l-18 -99q35 54 79.5 84t81.5 30q35 0 61 -18l-26 -149q-35 16 -75 16q-39 0 -77 -14.5t-59 -37.5l-60 -338h-170z" />
<glyph unicode="&#x158;" horiz-adv-x="625" d="M60 0l123 700h243q100 0 164.5 -48t64.5 -145q0 -94 -47.5 -155t-126.5 -89l123 -263h-186l-95 240h-46l-42 -240h-175zM200 897h158l70 -57l91 57h162l-178 -148h-177zM299 362h68q41 0 76 33.5t35 93.5q0 39 -22 63t-51 24h-68z" />
<glyph unicode="&#x159;" horiz-adv-x="457" d="M50 0l93 526h170l-18 -99q35 54 79.5 84t81.5 30q35 0 61 -18l-26 -149q-35 16 -75 16q-39 0 -77 -14.5t-59 -37.5l-60 -338h-170zM145 754h138l59 -64l82 64h142l-162 -168h-157z" />
<glyph unicode="&#x15a;" horiz-adv-x="607" d="M63 218h178q-5 -57 20.5 -83t68.5 -26q50 0 80 22t30 67q0 26 -22.5 44.5t-43 25t-71.5 18.5q-7 2 -11 3q-184 44 -184 186q0 109 85 174.5t217 65.5q116 0 180 -57t55 -168h-178q4 51 -18 76t-63 25q-48 0 -75 -22t-27 -65q0 -26 22.5 -44.5t43 -25t71.5 -18.5 q7 -2 11 -3q39 -9 68 -21.5t57.5 -32.5t44 -51.5t15.5 -73.5q0 -107 -94 -178t-217 -71q-120 0 -189 58t-54 175zM275 749l153 148h222l-230 -148h-145z" />
<glyph unicode="&#x15b;" horiz-adv-x="519" d="M51 163h158q-5 -76 69 -76q73 0 73 55q0 15 -6 25t-23.5 17.5t-29 10.5t-41.5 10q-37 8 -60 16t-50.5 23.5t-41.5 42t-14 63.5q0 88 71.5 139.5t172.5 51.5q93 0 149 -42.5t50 -123.5h-158q0 64 -60 64q-26 0 -47 -13t-21 -40q0 -18 15.5 -30.5t31 -17t50.5 -12.5 q9 -2 13 -3q30 -7 46.5 -11t41 -15t37 -24t22 -36t9.5 -53q0 -89 -71.5 -144t-177.5 -55q-95 0 -155.5 46t-52.5 132zM207 586l132 168h207l-199 -168h-140z" />
<glyph unicode="&#x15c;" horiz-adv-x="607" d="M63 218h178q-5 -57 20.5 -83t68.5 -26q50 0 80 22t30 67q0 26 -22.5 44.5t-43 25t-71.5 18.5q-7 2 -11 3q-184 44 -184 186q0 109 85 174.5t217 65.5q116 0 180 -57t55 -168h-178q4 51 -18 76t-63 25q-48 0 -75 -22t-27 -65q0 -26 22.5 -44.5t43 -25t71.5 -18.5 q7 -2 11 -3q39 -9 68 -21.5t57.5 -32.5t44 -51.5t15.5 -73.5q0 -107 -94 -178t-217 -71q-120 0 -189 58t-54 175zM189 749l178 148h177l126 -148h-158l-71 57l-90 -57h-162z" />
<glyph unicode="&#x15d;" horiz-adv-x="519" d="M51 163h158q-5 -76 69 -76q73 0 73 55q0 15 -6 25t-23.5 17.5t-29 10.5t-41.5 10q-37 8 -60 16t-50.5 23.5t-41.5 42t-14 63.5q0 88 71.5 139.5t172.5 51.5q93 0 149 -42.5t50 -123.5h-158q0 64 -60 64q-26 0 -47 -13t-21 -40q0 -18 15.5 -30.5t31 -17t50.5 -12.5 q9 -2 13 -3q30 -7 46.5 -11t41 -15t37 -24t22 -36t9.5 -53q0 -89 -71.5 -144t-177.5 -55q-95 0 -155.5 46t-52.5 132zM131 586l162 168h157l102 -168h-138l-59 64l-82 -64h-142z" />
<glyph unicode="&#x15e;" horiz-adv-x="607" d="M63 218h178q-5 -57 20.5 -83t68.5 -26q50 0 80 22t30 67q0 26 -22.5 44.5t-43 25t-71.5 18.5q-7 2 -11 3q-184 44 -184 186q0 109 85 174.5t217 65.5q116 0 180 -57t55 -168h-178q4 51 -18 76t-63 25q-48 0 -75 -22t-27 -65q0 -26 22.5 -44.5t43 -25t71.5 -18.5 q7 -2 11 -3q39 -9 68 -21.5t57.5 -32.5t44 -51.5t15.5 -73.5q0 -100 -82.5 -169t-197.5 -79l-43 -47q40 1 69.5 -17t29.5 -55q0 -56 -48 -85.5t-119 -29.5q-41 0 -70 15l12 68q25 -13 61 -13q42 0 42 30q0 21 -33 21q-13 0 -33 -5l-20 48l67 72q-97 13 -149.5 70t-39.5 160z " />
<glyph unicode="&#x15f;" horiz-adv-x="519" d="M51 163h158q-5 -76 69 -76q73 0 73 55q0 15 -6 25t-23.5 17.5t-29 10.5t-41.5 10q-37 8 -60 16t-50.5 23.5t-41.5 42t-14 63.5q0 88 71.5 139.5t172.5 51.5q93 0 149 -42.5t50 -123.5h-158q0 64 -60 64q-26 0 -47 -13t-21 -40q0 -18 15.5 -30.5t31 -17t50.5 -12.5 q9 -2 13 -3q30 -7 46.5 -11t41 -15t37 -24t22 -36t9.5 -53q0 -85 -65.5 -139.5t-164.5 -59.5l-43 -46q40 1 69.5 -17t29.5 -55q0 -56 -48 -85.5t-119 -29.5q-41 0 -70 15l12 68q25 -13 61 -13q42 0 42 30q0 21 -33 21q-13 0 -33 -5l-20 48l70 75q-71 14 -111 57.5t-34 114.5 z" />
<glyph unicode="&#x160;" horiz-adv-x="607" d="M63 218h178q-5 -57 20.5 -83t68.5 -26q50 0 80 22t30 67q0 26 -22.5 44.5t-43 25t-71.5 18.5q-7 2 -11 3q-184 44 -184 186q0 109 85 174.5t217 65.5q116 0 180 -57t55 -168h-178q4 51 -18 76t-63 25q-48 0 -75 -22t-27 -65q0 -26 22.5 -44.5t43 -25t71.5 -18.5 q7 -2 11 -3q39 -9 68 -21.5t57.5 -32.5t44 -51.5t15.5 -73.5q0 -107 -94 -178t-217 -71q-120 0 -189 58t-54 175zM205 897h158l70 -57l91 57h162l-178 -148h-177z" />
<glyph unicode="&#x161;" horiz-adv-x="519" d="M51 163h158q-5 -76 69 -76q73 0 73 55q0 15 -6 25t-23.5 17.5t-29 10.5t-41.5 10q-37 8 -60 16t-50.5 23.5t-41.5 42t-14 63.5q0 88 71.5 139.5t172.5 51.5q93 0 149 -42.5t50 -123.5h-158q0 64 -60 64q-26 0 -47 -13t-21 -40q0 -18 15.5 -30.5t31 -17t50.5 -12.5 q9 -2 13 -3q30 -7 46.5 -11t41 -15t37 -24t22 -36t9.5 -53q0 -89 -71.5 -144t-177.5 -55q-95 0 -155.5 46t-52.5 132zM161 754h138l59 -64l82 64h142l-162 -168h-157z" />
<glyph unicode="&#x162;" horiz-adv-x="539" d="M100 571l22 129h507l-22 -129h-166l-101 -571h-40l-56 -61q40 1 69.5 -17t29.5 -55q0 -56 -48 -85.5t-119 -29.5q-41 0 -70 15l12 68q25 -13 61 -13q42 0 42 30q0 21 -33 21q-13 0 -33 -5l-20 48l78 84h-48l101 571h-166z" />
<glyph unicode="&#x163;" horiz-adv-x="399" d="M55 -233l12 68q25 -13 61 -13q42 0 42 30q0 21 -33 21q-13 0 -33 -5l-20 48l76 82q-88 35 -65 166l44 252h-79l19 110h79l24 134h170l-24 -134h121l-19 -110h-121l-42 -239q-15 -85 45 -85q18 0 62 10l-17 -95q-51 -22 -117 -22h-5l-42 -46q40 1 69.5 -17t29.5 -55 q0 -56 -48 -85.5t-119 -29.5q-41 0 -70 15z" />
<glyph unicode="&#x164;" horiz-adv-x="539" d="M100 571l22 129h507l-22 -129h-166l-101 -571h-175l101 571h-166zM175 897h158l70 -57l91 57h162l-178 -148h-177z" />
<glyph unicode="&#x165;" horiz-adv-x="399" d="M60 416l19 110h79l24 134h170l-24 -134h121l-19 -110h-121l-42 -239q-15 -85 45 -85q18 0 62 10l-17 -95q-51 -22 -117 -22q-177 0 -145 179l44 252h-79zM395 563l43 240h151l-74 -240h-120z" />
<glyph unicode="&#x166;" horiz-adv-x="539" d="M100 571l22 129h507l-22 -129h-166l-28 -158h120l-23 -129h-120l-50 -284h-175l50 284h-100l23 129h100l28 158h-166z" />
<glyph unicode="&#x167;" horiz-adv-x="399" d="M44 224l20 114h62l13 78h-79l19 110h79l24 134h170l-24 -134h121l-19 -110h-121l-14 -78h99l-20 -114h-99l-8 -47q-15 -85 45 -85q18 0 62 10l-17 -95q-51 -22 -117 -22q-177 0 -145 179l11 60h-62z" />
<glyph unicode="&#x168;" horiz-adv-x="721" d="M102 237l81 463h175l-78 -443q-25 -143 94 -143q115 0 136 123l81 463h160l-78 -443q-25 -139 -109.5 -205.5t-214.5 -66.5q-133 0 -201.5 61t-45.5 191zM264 791q29 57 71 88.5t83 31.5q35 0 90.5 -20t67.5 -20q31 0 54 38l87 -42q-29 -57 -70 -88.5t-82 -31.5 q-35 0 -90.5 20t-68.5 20q-30 0 -55 -38z" />
<glyph unicode="&#x169;" horiz-adv-x="616" d="M78 159l65 367h170l-62 -347q-11 -63 53 -63q41 0 85 32l67 378h170l-93 -526h-170l12 69q-98 -84 -195 -84q-55 0 -87 39.5t-15 134.5zM193 627q29 57 68 88.5t80 31.5q35 0 85.5 -20t62.5 -20q26 0 49 38l87 -42q-29 -57 -67.5 -88.5t-79.5 -31.5q-35 0 -85.5 20 t-63.5 20q-25 0 -50 -38z" />
<glyph unicode="&#x16a;" horiz-adv-x="721" d="M102 237l81 463h175l-78 -443q-25 -143 94 -143q115 0 136 123l81 463h160l-78 -443q-25 -139 -109.5 -205.5t-214.5 -66.5q-133 0 -201.5 61t-45.5 191zM301 777l20 114h360l-20 -114h-360z" />
<glyph unicode="&#x16b;" horiz-adv-x="616" d="M78 159l65 367h170l-62 -347q-11 -63 53 -63q41 0 85 32l67 378h170l-93 -526h-170l12 69q-98 -84 -195 -84q-55 0 -87 39.5t-15 134.5zM234 612l20 114h330l-20 -114h-330z" />
<glyph unicode="&#x16c;" horiz-adv-x="721" d="M102 237l81 463h175l-78 -443q-25 -143 94 -143q115 0 136 123l81 463h160l-78 -443q-25 -139 -109.5 -205.5t-214.5 -66.5q-133 0 -201.5 61t-45.5 191zM311 897h118q-3 -19 12.5 -31t53.5 -12q73 0 80 43h118q-14 -80 -78.5 -120.5t-140.5 -40.5t-126.5 40.5 t-36.5 120.5z" />
<glyph unicode="&#x16d;" horiz-adv-x="616" d="M78 159l65 367h170l-62 -347q-11 -63 53 -63q41 0 85 32l67 378h170l-93 -526h-170l12 69q-98 -84 -195 -84q-55 0 -87 39.5t-15 134.5zM243 754h118q-4 -23 7.5 -43t44.5 -20t51.5 20t22.5 43h118q-9 -48 -32 -85t-54.5 -57t-63.5 -29.5t-63 -9.5q-70 0 -117.5 44 t-31.5 137z" />
<glyph unicode="&#x16e;" horiz-adv-x="721" d="M102 237l81 463h175l-78 -443q-25 -143 94 -143q115 0 136 123l81 463h160l-78 -443q-25 -139 -109.5 -205.5t-214.5 -66.5q-133 0 -201.5 61t-45.5 191zM349 810q0 52 47 87t112 35q54 0 88 -26t34 -68q0 -52 -47 -87t-113 -35q-53 0 -87 26t-34 68zM447 818 q0 -15 9.5 -24.5t25.5 -9.5q21 0 35.5 13.5t14.5 32.5q0 15 -10 24.5t-26 9.5q-21 0 -35 -13t-14 -33z" />
<glyph unicode="&#x16f;" horiz-adv-x="616" d="M78 159l65 367h170l-62 -347q-11 -63 53 -63q41 0 85 32l67 378h170l-93 -526h-170l12 69q-98 -84 -195 -84q-55 0 -87 39.5t-15 134.5zM268 654q0 52 46 84t113 32q54 0 88 -24.5t34 -65.5q0 -52 -46 -84t-113 -32q-54 0 -88 24.5t-34 65.5zM366 662q0 -13 10 -21.5 t26 -8.5q21 0 35 11.5t14 28.5q0 13 -10 21.5t-26 8.5q-21 0 -35 -11.5t-14 -28.5z" />
<glyph unicode="&#x170;" horiz-adv-x="721" d="M102 237l81 463h175l-78 -443q-25 -143 94 -143q115 0 136 123l81 463h160l-78 -443q-25 -139 -109.5 -205.5t-214.5 -66.5q-133 0 -201.5 61t-45.5 191zM253 749l128 148h197l-195 -148h-130zM480 749l128 148h197l-195 -148h-130z" />
<glyph unicode="&#x171;" horiz-adv-x="616" d="M78 159l65 367h170l-62 -347q-11 -63 53 -63q41 0 85 32l67 378h170l-93 -526h-170l12 69q-98 -84 -195 -84q-55 0 -87 39.5t-15 134.5zM176 586l112 168h202l-184 -168h-130zM408 586l112 168h202l-184 -168h-130z" />
<glyph unicode="&#x172;" horiz-adv-x="721" d="M102 237l81 463h175l-78 -443q-25 -143 94 -143q115 0 136 123l81 463h160l-78 -443q-38 -216 -225 -261q-118 -60 -118 -117q0 -14 10 -22t22 -8q32 0 70 15l-15 -88q-48 -24 -126 -24q-51 0 -78.5 25.5t-27.5 63.5q0 81 109 147q-107 11 -159.5 72t-32.5 177z" />
<glyph unicode="&#x173;" horiz-adv-x="616" d="M78 159l65 367h170l-62 -347q-11 -63 53 -63q41 0 85 32l67 378h170l-93 -526q-66 -32 -96 -63.5t-30 -57.5q0 -14 10 -22t22 -8q33 0 70 15l-15 -88q-48 -24 -126 -24q-51 0 -78.5 25.5t-27.5 63.5q0 89 131 159h-30l12 69q-98 -84 -195 -84q-55 0 -87 39.5t-15 134.5z " />
<glyph unicode="&#x174;" horiz-adv-x="933" d="M100 700h177l8 -268l4 -230l86 230l106 268h179l11 -268l6 -230l84 230l103 268h169l-309 -700h-183l-10 225l-6 230l-88 -230l-91 -225h-183zM335 749l178 148h177l126 -148h-158l-71 57l-90 -57h-162z" />
<glyph unicode="&#x175;" horiz-adv-x="796" d="M60 526h163l6 -127l7 -220l96 220l57 127h150l13 -127l20 -221l88 221l49 126h157l-250 -526h-159l-9 112l-17 220l-95 -220l-50 -111h-164zM263 586l162 168h157l102 -168h-138l-59 64l-82 -64h-142z" />
<glyph unicode="&#x176;" horiz-adv-x="581" d="M100 700h178l81 -280l167 280h165l-278 -425l-48 -275h-175l49 275zM169 749l178 148h177l126 -148h-158l-71 57l-90 -57h-162z" />
<glyph unicode="&#x177;" horiz-adv-x="504" d="M47 -208l108 208l-95 526h174l10 -105l19 -220l101 220l49 105h161l-381 -734h-146zM127 586l162 168h157l102 -168h-138l-59 64l-82 -64h-142z" />
<glyph unicode="&#x178;" horiz-adv-x="581" d="M100 700h178l81 -280l167 280h165l-278 -425l-48 -275h-175l49 275zM213 822q0 45 32.5 74.5t79.5 29.5q37 0 59 -20.5t22 -54.5q0 -46 -32 -75.5t-80 -29.5q-37 0 -59 21t-22 55zM443 821q0 46 32 75.5t80 29.5q37 0 59 -21t22 -55q0 -45 -32.5 -74.5t-79.5 -29.5 q-37 0 -59 20.5t-22 54.5z" />
<glyph unicode="&#x179;" horiz-adv-x="545" d="M30 0l23 129l348 442h-270l22 129h472l-22 -129l-348 -442h270l-23 -129h-472zM269 749l153 148h222l-230 -148h-145z" />
<glyph unicode="&#x17a;" horiz-adv-x="483" d="M30 0l19 110l268 306h-203l19 110h390l-19 -110l-268 -306h213l-19 -110h-400zM224 586l132 168h207l-199 -168h-140z" />
<glyph unicode="&#x17b;" horiz-adv-x="545" d="M30 0l23 129l348 442h-270l22 129h472l-22 -129l-348 -442h270l-23 -129h-472zM316 820q0 47 34.5 78.5t84.5 31.5q39 0 62.5 -22t23.5 -58q0 -48 -34.5 -79t-85.5 -31q-39 0 -62 22t-23 58z" />
<glyph unicode="&#x17c;" horiz-adv-x="483" d="M30 0l19 110l268 306h-203l19 110h390l-19 -110l-268 -306h213l-19 -110h-400zM251 651q0 48 34.5 82t84.5 34q39 0 61.5 -23.5t22.5 -60.5q0 -48 -34 -82t-85 -34q-39 0 -61.5 23.5t-22.5 60.5z" />
<glyph unicode="&#x17d;" horiz-adv-x="545" d="M30 0l23 129l348 442h-270l22 129h472l-22 -129l-348 -442h270l-23 -129h-472zM189 897h158l70 -57l91 57h162l-178 -148h-177z" />
<glyph unicode="&#x17e;" horiz-adv-x="483" d="M30 0l19 110l268 306h-203l19 110h390l-19 -110l-268 -306h213l-19 -110h-400zM168 754h138l59 -64l82 64h142l-162 -168h-157z" />
<glyph unicode="&#x17f;" horiz-adv-x="330" d="M50 0l100 566q17 96 78.5 144.5t142.5 48.5q72 0 109 -19l-16 -95q-28 7 -64 7q-65 0 -80 -85l-100 -567h-170z" />
<glyph unicode="&#x192;" horiz-adv-x="686" d="M-78 -18h178q-5 -81 53 -81q61 0 75 79l34 192h-155l23 129h155l34 195q18 101 93 160t182 59q117 0 168.5 -52t41.5 -153h-178q3 81 -54 81q-61 0 -75 -79l-37 -211h155l-23 -129h-155l-31 -176q-18 -101 -92.5 -160t-181.5 -59q-118 0 -169.5 52t-40.5 153z" />
<glyph unicode="&#x1fc;" horiz-adv-x="974" d="M-10 0l594 700h450l-22 -129h-265l-24 -135h245l-23 -134h-245l-31 -173h265l-23 -129h-440l26 147h-199l-113 -147h-195zM395 273h124l37 207l-134 -172zM588 749l153 148h222l-230 -148h-145z" />
<glyph unicode="&#x1fd;" horiz-adv-x="864" d="M40 104q0 88 75.5 143.5t212.5 55.5q28 0 59 -3l9 50q16 86 -56 86q-29 0 -54 -21t-34 -69h-161q10 66 55 112t100 64.5t114 18.5q108 0 156 -54q75 54 163 54q119 0 168.5 -75.5t8.5 -241.5h-314v-29q0 -105 62 -105q55 0 78 75h161q-25 -86 -96.5 -133t-163.5 -47 q-130 0 -180 81q-114 -81 -232 -81q-62 0 -96.5 32t-34.5 87zM213 146q0 -43 58 -43q46 0 105 40q-4 39 -2 67q-34 4 -53 4q-26 0 -48.5 -5.5t-41 -21.5t-18.5 -41zM395 586l132 168h207l-199 -168h-140zM554 323h160q15 117 -54 117q-80 0 -106 -117z" />
<glyph unicode="&#x218;" horiz-adv-x="607" d="M63 218h178q-5 -57 20.5 -83t68.5 -26q50 0 80 22t30 67q0 26 -22.5 44.5t-43 25t-71.5 18.5q-7 2 -11 3q-184 44 -184 186q0 109 85 174.5t217 65.5q116 0 180 -57t55 -168h-178q4 51 -18 76t-63 25q-48 0 -75 -22t-27 -65q0 -26 22.5 -44.5t43 -25t71.5 -18.5 q7 -2 11 -3q39 -9 68 -21.5t57.5 -32.5t44 -51.5t15.5 -73.5q0 -107 -94 -178t-217 -71q-120 0 -189 58t-54 175zM165 -248l56 200h157l-95 -200h-118z" />
<glyph unicode="&#x219;" horiz-adv-x="519" d="M51 163h158q-5 -76 69 -76q73 0 73 55q0 15 -6 25t-23.5 17.5t-29 10.5t-41.5 10q-37 8 -60 16t-50.5 23.5t-41.5 42t-14 63.5q0 88 71.5 139.5t172.5 51.5q93 0 149 -42.5t50 -123.5h-158q0 64 -60 64q-26 0 -47 -13t-21 -40q0 -18 15.5 -30.5t31 -17t50.5 -12.5 q9 -2 13 -3q30 -7 46.5 -11t41 -15t37 -24t22 -36t9.5 -53q0 -89 -71.5 -144t-177.5 -55q-95 0 -155.5 46t-52.5 132zM116 -248l56 200h157l-95 -200h-118z" />
<glyph unicode="&#x21a;" horiz-adv-x="539" d="M100 571l22 129h507l-22 -129h-166l-101 -571h-175l101 571h-166zM115 -248l56 200h157l-95 -200h-118z" />
<glyph unicode="&#x21b;" horiz-adv-x="399" d="M60 416l19 110h79l24 134h170l-24 -134h121l-19 -110h-121l-42 -239q-15 -85 45 -85q18 0 62 10l-17 -95q-51 -22 -117 -22q-177 0 -145 179l44 252h-79zM64 -248l56 200h157l-95 -200h-118z" />
<glyph unicode="&#x2c6;" horiz-adv-x="521" d="M153 586l162 168h157l102 -168h-138l-59 64l-82 -64h-142z" />
<glyph unicode="&#x2c7;" horiz-adv-x="521" d="M183 754h138l59 -64l82 64h142l-162 -168h-157z" />
<glyph unicode="&#x2d8;" horiz-adv-x="462" d="M183 754h118q-4 -23 7.5 -43t44.5 -20t51.5 20t22.5 43h118q-9 -48 -32 -85t-54.5 -57t-63.5 -29.5t-63 -9.5q-70 0 -117.5 44t-31.5 137z" />
<glyph unicode="&#x2d9;" horiz-adv-x="300" d="M166 651q0 48 34.5 82t84.5 34q39 0 61.5 -23.5t22.5 -60.5q0 -48 -34 -82t-85 -34q-39 0 -61.5 23.5t-22.5 60.5z" />
<glyph unicode="&#x2da;" horiz-adv-x="378" d="M166 654q0 52 46 84t113 32q54 0 88 -24.5t34 -65.5q0 -52 -46 -84t-113 -32q-54 0 -88 24.5t-34 65.5zM264 662q0 -13 10 -21.5t26 -8.5q21 0 35 11.5t14 28.5q0 13 -10 21.5t-26 8.5q-21 0 -35 -11.5t-14 -28.5z" />
<glyph unicode="&#x2db;" horiz-adv-x="344" d="M23 -159q0 89 131 159h140q-66 -32 -96 -63.5t-30 -57.5q0 -14 10 -22t22 -8q32 0 70 15l-15 -88q-48 -24 -126 -24q-51 0 -78.5 25.5t-27.5 63.5z" />
<glyph unicode="&#x2dc;" horiz-adv-x="519" d="M161 627q29 57 68 88.5t80 31.5q35 0 85.5 -20t62.5 -20q26 0 49 38l87 -42q-29 -57 -67.5 -88.5t-79.5 -31.5q-35 0 -85.5 20t-63.5 20q-25 0 -50 -38z" />
<glyph unicode="&#x2dd;" horiz-adv-x="611" d="M153 586l112 168h202l-184 -168h-130zM385 586l112 168h202l-184 -168h-130z" />
<glyph unicode="&#x326;" horiz-adv-x="0" d="M-271 -248l56 200h157l-95 -200h-118z" />
<glyph unicode="&#x3c0;" horiz-adv-x="622" d="M50 0l93 526h489l-93 -526h-170l74 416h-149l-74 -416h-170z" />
<glyph unicode="&#xe3f;" horiz-adv-x="632" d="M60 0l123 700h150l21 120h160l-22 -124q170 -22 170 -148q0 -56 -34 -104.5t-95 -67.5q101 -32 101 -134q0 -58 -22.5 -103.5t-61.5 -73t-84.5 -43t-96.5 -20.5l-21 -122h-160l21 120h-149zM257 124h93q41 0 74 25.5t33 75.5q0 36 -22 52.5t-55 16.5h-93zM308 416h67 q44 0 75 21t31 71q0 34 -22.5 51t-54.5 17h-67z" />
<glyph unicode="&#x1e80;" horiz-adv-x="933" d="M100 700h177l8 -268l4 -230l86 230l106 268h179l11 -268l6 -230l84 230l103 268h169l-309 -700h-183l-10 225l-6 230l-88 -230l-91 -225h-183zM387 897h212l111 -148h-135z" />
<glyph unicode="&#x1e81;" horiz-adv-x="796" d="M60 526h163l6 -127l7 -220l96 220l57 127h150l13 -127l20 -221l88 221l49 126h157l-250 -526h-159l-9 112l-17 220l-95 -220l-50 -111h-164zM299 754h197l82 -168h-140z" />
<glyph unicode="&#x1e82;" horiz-adv-x="933" d="M100 700h177l8 -268l4 -230l86 230l106 268h179l11 -268l6 -230l84 230l103 268h169l-309 -700h-183l-10 225l-6 230l-88 -230l-91 -225h-183zM441 749l153 148h222l-230 -148h-145z" />
<glyph unicode="&#x1e83;" horiz-adv-x="796" d="M60 526h163l6 -127l7 -220l96 220l57 127h150l13 -127l20 -221l88 221l49 126h157l-250 -526h-159l-9 112l-17 220l-95 -220l-50 -111h-164zM369 586l132 168h207l-199 -168h-140z" />
<glyph unicode="&#x1e84;" horiz-adv-x="933" d="M100 700h177l8 -268l4 -230l86 230l106 268h179l11 -268l6 -230l84 230l103 268h169l-309 -700h-183l-10 225l-6 230l-88 -230l-91 -225h-183zM379 822q0 45 32.5 74.5t79.5 29.5q37 0 59 -20.5t22 -54.5q0 -46 -32 -75.5t-80 -29.5q-37 0 -59 21t-22 55zM609 821 q0 46 32 75.5t80 29.5q37 0 59 -21t22 -55q0 -45 -32.5 -74.5t-79.5 -29.5q-37 0 -59 20.5t-22 54.5z" />
<glyph unicode="&#x1e85;" horiz-adv-x="796" d="M60 526h163l6 -127l7 -220l96 220l57 127h150l13 -127l20 -221l88 221l49 126h157l-250 -526h-159l-9 112l-17 220l-95 -220l-50 -111h-164zM278 652q0 46 32.5 77.5t79.5 31.5q37 0 58 -21.5t21 -56.5q0 -46 -32 -78t-80 -32q-36 0 -57.5 22t-21.5 57zM506 651 q0 46 32 78t80 32q36 0 57.5 -22t21.5 -57q0 -46 -32.5 -77.5t-79.5 -31.5q-37 0 -58 21.5t-21 56.5z" />
<glyph unicode="&#x1e9e;" horiz-adv-x="712" d="M60 0l69 392q28 159 120 233.5t231 74.5h262l-22 -129l-154 -177q49 -19 80 -55t40.5 -66t9.5 -59q0 -113 -69.5 -171t-167.5 -58t-137.5 45.5t-26.5 139.5h158q-9 -76 25 -76q21 0 34 25t13 67q0 48 -27.5 74t-80.5 26h-40l22 129l137 156h-78q-122 0 -152 -169 l-71 -402h-175z" />
<glyph unicode="&#x1ef2;" horiz-adv-x="581" d="M100 700h178l81 -280l167 280h165l-278 -425l-48 -275h-175l49 275zM211 897h212l111 -148h-135z" />
<glyph unicode="&#x1ef3;" horiz-adv-x="504" d="M47 -208l108 208l-95 526h174l10 -105l19 -220l101 220l49 105h161l-381 -734h-146zM153 754h197l82 -168h-140z" />
<glyph unicode="&#x2000;" horiz-adv-x="467" />
<glyph unicode="&#x2001;" horiz-adv-x="935" />
<glyph unicode="&#x2002;" horiz-adv-x="467" />
<glyph unicode="&#x2003;" horiz-adv-x="935" />
<glyph unicode="&#x2004;" horiz-adv-x="311" />
<glyph unicode="&#x2005;" horiz-adv-x="233" />
<glyph unicode="&#x2006;" horiz-adv-x="155" />
<glyph unicode="&#x2007;" horiz-adv-x="155" />
<glyph unicode="&#x2008;" horiz-adv-x="116" />
<glyph unicode="&#x2009;" horiz-adv-x="187" />
<glyph unicode="&#x200a;" horiz-adv-x="51" />
<glyph unicode="&#x2010;" horiz-adv-x="323" d="M70 212l23 129h250l-23 -129h-250z" />
<glyph unicode="&#x2011;" horiz-adv-x="323" d="M70 212l23 129h250l-23 -129h-250z" />
<glyph unicode="&#x2012;" horiz-adv-x="323" d="M70 212l23 129h250l-23 -129h-250z" />
<glyph unicode="&#x2013;" horiz-adv-x="493" d="M70 212l23 129h420l-23 -129h-420z" />
<glyph unicode="&#x2014;" horiz-adv-x="993" d="M70 212l23 129h920l-23 -129h-920z" />
<glyph unicode="&#x2018;" horiz-adv-x="275" d="M112 580l167 280h138l-130 -280h-175z" />
<glyph unicode="&#x2019;" horiz-adv-x="275" d="M112 580l130 280h175l-167 -280h-138z" />
<glyph unicode="&#x201a;" horiz-adv-x="275" d="M-18 -160l129 280h175l-166 -280h-138z" />
<glyph unicode="&#x201c;" horiz-adv-x="495" d="M112 580l167 280h138l-130 -280h-175zM332 580l167 280h138l-130 -280h-175z" />
<glyph unicode="&#x201d;" horiz-adv-x="495" d="M112 580l130 280h175l-167 -280h-138zM332 580l130 280h175l-167 -280h-138z" />
<glyph unicode="&#x201e;" horiz-adv-x="495" d="M-18 -160l129 280h175l-166 -280h-138zM202 -160l129 280h175l-166 -280h-138z" />
<glyph unicode="&#x2020;" horiz-adv-x="489" d="M80 401l22 129h126l30 170h175l-30 -170h126l-22 -129h-127l-70 -401h-175l70 401h-125z" />
<glyph unicode="&#x2021;" horiz-adv-x="489" d="M39 170l22 129h127l17 102h-125l22 129h126l30 170h175l-30 -170h126l-22 -129h-127l-17 -102h125l-22 -129h-126l-30 -170h-175l30 170h-126z" />
<glyph unicode="&#x2022;" horiz-adv-x="359" d="M60 326q0 75 57.5 128t129.5 53q57 0 94.5 -38t37.5 -96q0 -75 -57 -127.5t-130 -52.5q-57 0 -94.5 37.5t-37.5 95.5z" />
<glyph unicode="&#x2026;" horiz-adv-x="797" d="M33 68q0 50 34 83t85 33q39 0 61.5 -22.5t22.5 -59.5q0 -50 -33.5 -83.5t-85.5 -33.5q-39 0 -61.5 23t-22.5 60zM312 68q0 50 34 83t85 33q39 0 61.5 -22.5t22.5 -59.5q0 -50 -33.5 -83.5t-85.5 -33.5q-39 0 -61.5 23t-22.5 60zM591 68q0 50 34 83t85 33q39 0 61.5 -22.5 t22.5 -59.5q0 -50 -33.5 -83.5t-85.5 -33.5q-39 0 -61.5 23t-22.5 60z" />
<glyph unicode="&#x202f;" horiz-adv-x="187" />
<glyph unicode="&#x2030;" horiz-adv-x="1516" d="M132 448q0 114 69.5 187.5t175.5 73.5q79 0 123.5 -47.5t44.5 -129.5q0 -114 -69.5 -187.5t-175.5 -73.5q-78 0 -123 48t-45 129zM212 0l598 700h183l-598 -700h-183zM278 442q0 -68 40 -68q33 0 57 49t24 115q0 68 -40 68q-33 0 -57 -49t-24 -115zM660 168 q0 114 69.5 187.5t175.5 73.5q79 0 123.5 -47.5t44.5 -129.5q0 -114 -69.5 -187.5t-175.5 -73.5q-78 0 -123 48t-45 129zM806 162q0 -68 40 -68q33 0 57 49t24 115q0 68 -40 68q-33 0 -57 -49t-24 -115zM1094 168q0 114 69.5 187.5t175.5 73.5q79 0 123.5 -47.5t44.5 -129.5 q0 -114 -69.5 -187.5t-175.5 -73.5q-78 0 -123 48t-45 129zM1240 162q0 -68 40 -68q33 0 57 49t24 115q0 68 -40 68q-33 0 -57 -49t-24 -115z" />
<glyph unicode="&#x2039;" horiz-adv-x="340" d="M86 202l28 159l271 180l-33 -190l-113 -71l88 -70l-33 -188z" />
<glyph unicode="&#x203a;" horiz-adv-x="340" d="M55 22l33 190l113 71l-88 70l33 188l208 -180l-28 -159z" />
<glyph unicode="&#x2044;" horiz-adv-x="721" d="M20 0l598 700h183l-598 -700h-183z" />
<glyph unicode="&#x205f;" horiz-adv-x="233" />
<glyph unicode="&#x20a1;" horiz-adv-x="649" d="M-54 -120l132 292q-8 43 -8 90q0 155 65 268t176 159l60 131h170l-49 -107q24 -3 53 -11l53 118h170l-99 -221q28 -64 15 -159h-178q15 146 -81 146q-43 0 -77 -28.5t-53.5 -76t-29.5 -102t-10 -112.5q0 -153 90 -153q98 0 129 146h178q-24 -115 -92 -182.5t-166 -85.5 l-51 -112h-170l53 117q-23 7 -48 20l-62 -137h-170z" />
<glyph unicode="&#x20a5;" horiz-adv-x="927" d="M50 0l93 526h170l-12 -69q98 84 194 84q51 0 79 -29l78 124h170l-62 -100q27 5 48 5q56 0 88 -39.5t15 -134.5l-65 -367h-170l61 347q11 63 -52 63h-4l-105 -168l-43 -242h-108l-69 -110h-170l219 351l19 106q11 63 -52 63q-41 0 -85 -32l-67 -378h-170z" />
<glyph unicode="&#x20a6;" horiz-adv-x="753" d="M51 174l24 139h90l12 70h-89l24 139h90l31 178h150l155 -408l35 217l33 191h160l-31 -178h90l-24 -139h-91l-12 -70h90l-24 -139h-90l-31 -174h-150l-155 407l-34 -217l-34 -190h-160l31 174h-90z" />
<glyph unicode="&#x20a8;" horiz-adv-x="588" d="M88 384l22 129h279q-8 29 -29 43.5t-46 14.5h-193l22 129h53h495l-22 -129h-137q23 -27 33 -58h93l-22 -129h-81q-24 -70 -85 -112t-142 -56l196 -216h-196l-186 210l22 122h108q61 0 95 52h-279z" />
<glyph unicode="&#x20a9;" horiz-adv-x="972" d="M51 179l22 129h119l-6 80h-98l22 129h66l-14 183h177l1 -268l1 -230l82 230l100 268h179l5 -268l2 -230l81 230l96 268h169l-78 -183h66l-22 -129h-99l-34 -80h118l-22 -129h-152l-76 -179h-189l-6 225v230l-82 -230l-87 -225h-177l-14 179h-150z" />
<glyph unicode="&#x20aa;" horiz-adv-x="881" d="M100 0l123 700h274q112 0 162.5 -47.5t50.5 -141.5q0 -105 -74 -302h-143q58 174 58 251q0 101 -88 101h-114l-99 -561h-150zM285 0l87 491h150l-63 -352h100q64 0 101 55.5t56 163.5q21 116 28 342h142q1 -15 1 -76q0 -93 -5 -165.5t-17.5 -147t-37 -128t-61.5 -97 t-93 -65t-129 -21.5h-259z" />
<glyph unicode="&#x20ab;" horiz-adv-x="586" d="M40 0l20 113h526l-20 -113h-526zM97 305q0 113 66.5 184.5t158.5 71.5q83 0 117 -56l13 74h-91l20 113h91l9 52h162l-9 -52h54l-20 -113h-54l-74 -420h-162l7 43q-67 -57 -149 -57q-68 0 -103.5 42.5t-35.5 117.5zM265 333q0 -34 16.5 -54.5t46.5 -20.5q35 0 72 25 l25 141q-28 23 -58 23q-44 0 -73 -32.5t-29 -81.5z" />
<glyph unicode="&#x20ac;" horiz-adv-x="670" d="M30 172l23 129h65q1 34 10 80h-61l23 129h81q47 96 127.5 150.5t176.5 54.5q118 0 183.5 -70t46.5 -205h-178q15 136 -76 136q-54 0 -95 -66h121l-23 -129h-145q-8 -41 -11 -80h142l-23 -129h-111q18 -48 65 -48q92 0 124 136h178q-28 -135 -118 -205t-209 -70 q-191 0 -224 187h-92z" />
<glyph unicode="&#x20ad;" horiz-adv-x="666" d="M73 304l22 129h90l47 267h175l-47 -267h4l213 267h172l-214 -267h165l-22 -129h-161l149 -304h-190l-138 304h-1l-53 -304h-175l53 304h-89z" />
<glyph unicode="&#x20ae;" horiz-adv-x="539" d="M61 59l26 144l121 40l9 51l-121 -40l25 144l121 40l24 133h-166l22 129h507l-22 -129h-166l-13 -72l123 40l-25 -144l-123 -40l-9 -51l123 40l-26 -144l-123 -40l-28 -160h-175l17 99z" />
<glyph unicode="&#x20b1;" horiz-adv-x="693" d="M89 388l22 129h90l32 183h218q87 0 152.5 -47t73.5 -136h87l-22 -129h-84q-35 -86 -118 -132t-175 -46h-43l-37 -210h-175l68 388h-89zM344 334h43q40 0 77 40.5t37 102.5q0 43 -21.5 71t-49.5 28h-43z" />
<glyph unicode="&#x20b4;" horiz-adv-x="659" d="M86 137q0 87 82 147h-78l23 129h321q77 45 77 108q0 29 -19.5 49.5t-54.5 20.5q-101 0 -123 -101h-178q31 115 111 170t214 55q106 0 166 -39.5t60 -112.5q0 -90 -84 -150h89l-23 -129h-332q-75 -43 -75 -105q0 -30 19 -50t54 -20q101 0 123 101h178q-31 -115 -111 -170 t-214 -55q-106 0 -165.5 39.5t-59.5 112.5z" />
<glyph unicode="&#x20b5;" horiz-adv-x="649" d="M70 262q0 173 80.5 292.5t212.5 150.5l20 115h160l-20 -112q91 -20 134.5 -87t26.5 -181h-178q15 146 -81 146q-43 0 -77 -28.5t-53.5 -76t-29.5 -102t-10 -112.5q0 -153 90 -153q98 0 129 146h178q-24 -114 -91 -181t-164 -87l-20 -112h-160l20 114q-167 42 -167 268z " />
<glyph unicode="&#x2113;" horiz-adv-x="510" d="M40 146v105q54 22 80 34v144q0 140 53.5 213t153.5 73q75 0 119 -41t44 -130q0 -153 -200 -281v-76q0 -42 20.5 -63.5t49.5 -21.5q18 0 60 10v-105q-64 -22 -123 -22q-177 0 -177 179v13q-32 -14 -80 -31zM290 401q56 62 56 141q0 58 -26 58q-18 0 -24 -35.5t-6 -135.5 v-28z" />
<glyph unicode="&#x2117;" horiz-adv-x="830" d="M50 350q0 152 105 258.5t260 106.5t260 -106.5t105 -258.5t-105 -258.5t-260 -106.5t-260 106.5t-105 258.5zM144 350q0 -116 78 -196.5t193 -80.5t193 80.5t78 196.5t-78 196.5t-193 80.5t-193 -80.5t-78 -196.5zM287 143v413h148q66 0 116.5 -37.5t50.5 -107.5 t-50.5 -107t-116.5 -37h-28v-124h-120zM407 351h28q20 0 33.5 15t13.5 45q0 60 -47 60h-28v-120z" />
<glyph unicode="&#x2120;" horiz-adv-x="695" d="M50 495h92q4 -34 40 -34q35 0 35 25q0 5 -1.5 8.5t-5.5 6t-7.5 4t-10 3t-11.5 2t-13.5 2t-14.5 2.5q-29 5 -48 12t-36 28.5t-17 55.5q0 44 34 71t85 27q119 0 129 -97h-92q-4 29 -37 29t-33 -21q0 -5 1.5 -8.5t5.5 -6t7.5 -4t10 -3t11.5 -2t13.5 -2t14.5 -2.5 q29 -5 48 -12t36 -28.5t17 -55.5q0 -45 -34 -73.5t-87 -28.5q-122 0 -132 102zM338 401v299h97l58 -160l55 160h97v-299h-83v66l1 95l-38 -115h-67l-40 110l3 -94v-62h-83z" />
<glyph unicode="&#x2122;" horiz-adv-x="682" d="M50 632v68h234v-68h-73v-231h-90v231h-71zM325 401v299h97l58 -160l55 160h97v-299h-83v66l1 95l-38 -115h-67l-40 110l3 -94v-62h-83z" />
<glyph unicode="&#x2126;" horiz-adv-x="731" d="M30 0l23 129h159q-52 35 -83 102.5t-31 139.5q0 136 107.5 240t272.5 104q131 0 202 -75t71 -187q0 -94 -62 -184t-151 -140h159l-23 -129h-272l23 129q53 33 94.5 119t41.5 179q0 159 -107 159q-43 0 -76.5 -19.5t-52.5 -49t-31.5 -68.5t-16.5 -73.5t-4 -68.5 q0 -57 14 -108t38 -70l-23 -129h-272z" />
<glyph unicode="&#x212e;" horiz-adv-x="774" d="M50 321q0 144 98 241t239 97t239 -97t98 -241h-523v-239q79 -65 186 -65q75 0 138 34t104 93h47q-45 -74 -121.5 -117t-167.5 -43q-141 0 -239 96.5t-98 240.5zM201 354h373l-1 206q-80 66 -186 66t-186 -66v-206z" />
<glyph unicode="&#x2153;" horiz-adv-x="1011" d="M142 527l21 119l117 54h144l-74 -420h-144l53 301zM156 0l598 700h183l-598 -700h-183zM614 120h142q-2 -16 6.5 -24.5t31.5 -8.5q26 0 37.5 13t11.5 29q0 32 -62 32h-46l17 99h46q68 0 68 48q0 25 -28 25q-35 0 -45 -33h-142q16 61 71 95t133 34q69 0 111 -26.5 t42 -76.5q0 -35 -23 -65.5t-65 -43.5q64 -16 64 -78q0 -67 -60.5 -107.5t-146.5 -40.5t-128 32.5t-35 96.5z" />
<glyph unicode="&#x2154;" horiz-adv-x="1099" d="M113 280l18 107q26 17 62.5 41t54.5 36t42 28.5t35 26.5t22.5 22t15.5 23t4 22q0 27 -28 27q-37 0 -48 -45h-142q18 69 72.5 105t134.5 36q73 0 112.5 -29.5t39.5 -81.5q0 -56 -38.5 -95t-151.5 -116h158l-18 -107h-345zM244 0l598 700h183l-598 -700h-183zM702 120h142 q-2 -16 6.5 -24.5t31.5 -8.5q26 0 37.5 13t11.5 29q0 32 -62 32h-46l17 99h46q68 0 68 48q0 25 -28 25q-35 0 -45 -33h-142q16 61 71 95t133 34q69 0 111 -26.5t42 -76.5q0 -35 -23 -65.5t-65 -43.5q64 -16 64 -78q0 -67 -60.5 -107.5t-146.5 -40.5t-128 32.5t-35 96.5z" />
<glyph unicode="&#x215b;" horiz-adv-x="1032" d="M142 527l21 119l117 54h144l-74 -420h-144l53 301zM156 0l598 700h183l-598 -700h-183zM612 97q0 38 25 72t78 48q-27 10 -42 32t-15 47q0 63 57.5 98t147.5 35q75 0 119.5 -27t44.5 -78q0 -34 -25 -64t-65 -43q66 -19 66 -87q0 -67 -58.5 -103t-158.5 -36q-82 0 -128 27 t-46 79zM757 119q0 -32 46 -32q60 0 60 46q0 32 -46 32q-60 0 -60 -46zM796 287q0 -30 37 -30q50 0 50 45q0 31 -37 31q-50 0 -50 -46z" />
<glyph unicode="&#x215c;" horiz-adv-x="1080" d="M121 400h142q-2 -16 6.5 -24.5t31.5 -8.5q26 0 37.5 13t11.5 29q0 32 -62 32h-46l17 99h46q68 0 68 48q0 25 -28 25q-35 0 -45 -33h-142q16 61 71 95t133 34q69 0 111 -26.5t42 -76.5q0 -35 -23 -65.5t-65 -43.5q64 -16 64 -78q0 -67 -60.5 -107.5t-146.5 -40.5 t-128 32.5t-35 96.5zM204 0l598 700h183l-598 -700h-183zM660 97q0 38 25 72t78 48q-27 10 -42 32t-15 47q0 63 57.5 98t147.5 35q75 0 119.5 -27t44.5 -78q0 -34 -25 -64t-65 -43q66 -19 66 -87q0 -67 -58.5 -103t-158.5 -36q-82 0 -128 27t-46 79zM805 119q0 -32 46 -32 q60 0 60 46q0 32 -46 32q-60 0 -60 -46zM844 287q0 -30 37 -30q50 0 50 45q0 31 -37 31q-50 0 -50 -46z" />
<glyph unicode="&#x215d;" horiz-adv-x="1061" d="M121 400h142q-2 -33 32 -33q23 0 34.5 19.5t11.5 49.5q0 36 -34 36q-26 0 -51 -20h-114l44 248h314l-19 -107h-200l-11 -62q45 33 99 33q53 0 83.5 -29t30.5 -84q0 -82 -61 -131t-144 -49q-81 0 -122 32.5t-35 96.5zM185 0l598 700h183l-598 -700h-183zM641 97 q0 38 25 72t78 48q-27 10 -42 32t-15 47q0 63 57.5 98t147.5 35q74 0 119 -27t45 -78q0 -34 -25 -64t-65 -43q66 -19 66 -87q0 -67 -58.5 -103t-158.5 -36q-82 0 -128 27t-46 79zM786 119q0 -32 46 -32q60 0 60 46q0 32 -46 32q-60 0 -60 -46zM825 287q0 -30 37 -30 q50 0 50 45q0 31 -37 31q-50 0 -50 -46z" />
<glyph unicode="&#x215e;" horiz-adv-x="969" d="M93 0l598 700h183l-598 -700h-183zM130 280l201 313h-177l19 107h311l-19 -107l-198 -313h-137zM549 97q0 38 25 72t78 48q-27 10 -42 32t-15 47q0 63 57.5 98t147.5 35q74 0 119 -27t45 -78q0 -34 -25 -64t-65 -43q66 -19 66 -87q0 -67 -58.5 -103t-158.5 -36 q-82 0 -128 27t-46 79zM694 119q0 -32 46 -32q60 0 60 46q0 32 -46 32q-60 0 -60 -46zM733 287q0 -30 37 -30q50 0 50 45q0 31 -37 31q-50 0 -50 -46z" />
<glyph unicode="&#x2190;" horiz-adv-x="788" d="M84 251l375 318l81 -98l-178 -151h442l-24 -138h-442l124 -151l-115 -98z" />
<glyph unicode="&#x2191;" horiz-adv-x="716" d="M90 286l375 319l261 -319l-115 -98l-125 151l-77 -442h-138l77 442l-177 -151z" />
<glyph unicode="&#x2192;" horiz-adv-x="788" d="M72 182l24 138h442l-124 151l115 98l263 -318l-375 -318l-81 98l178 151h-442z" />
<glyph unicode="&#x2193;" horiz-adv-x="716" d="M78 216l115 98l125 -152l78 443h138l-78 -442l177 151l81 -98l-374 -319z" />
<glyph unicode="&#x2196;" horiz-adv-x="670" d="M93 76l80 450h450l-25 -139h-212l257 -312l-115 -98l-258 312l-38 -213h-139z" />
<glyph unicode="&#x2197;" horiz-adv-x="670" d="M53 75l368 312h-213l25 139h450l-80 -450h-139l38 213l-368 -312z" />
<glyph unicode="&#x2198;" horiz-adv-x="670" d="M115 428l116 98l257 -313l38 214h139l-79 -450h-450l24 139h213z" />
<glyph unicode="&#x2199;" horiz-adv-x="670" d="M76 -23l79 450h139l-38 -214l369 313l80 -98l-368 -312h213l-24 -139h-450z" />
<glyph unicode="&#x2202;" d="M60 197q0 111 64 183.5t168 72.5q40 0 80.5 -20.5t63.5 -51.5q10 62 10 111q0 68 -19 105.5t-52 37.5q-27 0 -42 -16t-25 -57h-178q27 99 96 148t172 49q102 0 162 -76t60 -211q0 -218 -97 -352.5t-253 -134.5q-92 0 -151 57t-59 155zM238 200q0 -91 56 -91 q33 0 66.5 53.5t56.5 134.5q-13 13 -37 21t-44 8q-29 0 -50 -12.5t-30.5 -33t-13.5 -40t-4 -40.5z" />
<glyph unicode="&#x2205;" horiz-adv-x="641" d="M80 94l63 77q-49 63 -49 151q0 136 100.5 231t234.5 95q49 0 89 -15l62 77l101 -72l-63 -78q47 -63 47 -150q0 -136 -100.5 -231t-234.5 -95q-46 0 -86 14l-63 -77zM235 343q0 -29 7 -49l182 224q-6 1 -19 1q-67 0 -118.5 -52t-51.5 -124zM337 214q6 -1 17 -1 q67 0 118.5 52t51.5 124q0 27 -7 47z" />
<glyph unicode="&#x2206;" horiz-adv-x="645" d="M37 0l23 129l289 571h173l89 -571l-23 -129h-551zM223 129h217l-17 179l-19 230l-101 -230z" />
<glyph unicode="&#x220f;" horiz-adv-x="746" d="M60 0l123 700h593l-123 -700h-175l101 571h-243l-101 -571h-175z" />
<glyph unicode="&#x2211;" horiz-adv-x="563" d="M60 0l23 129l207 241l-129 201l22 129h440l-22 -129h-256l92 -143l-24 -139l-146 -160h256l-23 -129h-440z" />
<glyph unicode="&#x2212;" horiz-adv-x="563" d="M80 302l23 129h480l-23 -129h-480z" />
<glyph unicode="&#x221a;" horiz-adv-x="642" d="M70 416l19 110h224l13 -133l20 -220l96 220l139 307h161l-352 -700h-161l-68 416h-91z" />
<glyph unicode="&#x221e;" horiz-adv-x="864" d="M60 318q0 102 73.5 175.5t171.5 73.5q31 0 57.5 -9.5t52 -31t38 -35t38.5 -43.5q41 35 71.5 57t76 42t86.5 20q76 0 122.5 -50.5t46.5 -128.5q0 -102 -73 -175.5t-171 -73.5q-31 0 -58 9.5t-52 30.5t-38.5 36t-37.5 43q-43 -36 -72.5 -57t-75.5 -41.5t-86 -20.5 q-76 0 -123 50.5t-47 128.5zM214 342q0 -24 14.5 -43t44.5 -19q38 0 124 72q-58 74 -102 74q-39 0 -60 -26.5t-21 -57.5zM557 352q62 -72 102 -72q39 0 60 26.5t21 57.5q0 24 -14 43t-45 19q-38 0 -124 -74z" />
<glyph unicode="&#x222b;" horiz-adv-x="442" d="M-10 -223l21 124q76 0 88 69l93 526q18 103 94 161t196 58l-22 -124q-76 0 -88 -69l-93 -526q-18 -103 -93.5 -161t-195.5 -58z" />
<glyph unicode="&#x2248;" horiz-adv-x="587" d="M40 216q39 77 93.5 109.5t104.5 32.5q41 0 76.5 -15t63 -30.5t49.5 -15.5q37 0 75 55l106 -55q-39 -77 -93.5 -109.5t-104.5 -32.5q-41 0 -76.5 15.5t-63 31t-49.5 15.5q-36 0 -75 -56zM79 436q39 77 93.5 109.5t104.5 32.5q41 0 76.5 -15t63 -30.5t49.5 -15.5 q37 0 75 55l106 -55q-39 -77 -93.5 -109.5t-104.5 -32.5q-41 0 -76.5 15.5t-63 31t-49.5 15.5q-36 0 -75 -56z" />
<glyph unicode="&#x2260;" horiz-adv-x="563" d="M61 192l22 129h150l51 91h-184l22 129h233l75 135h146l-75 -135h101l-22 -129h-150l-51 -91h184l-22 -129h-234l-75 -136h-146l75 136h-100z" />
<glyph unicode="&#x2264;" horiz-adv-x="538" d="M8 0l23 129h480l-23 -129h-480zM72 367l25 139l513 190l-24 -140l-327 -121l284 -120l-24 -138z" />
<glyph unicode="&#x2265;" horiz-adv-x="538" d="M22 0l23 129h480l-23 -129h-480zM53 177l24 140l327 121l-284 120l24 138l447 -190l-25 -139z" />
<glyph unicode="&#x25ca;" horiz-adv-x="505" d="M60 350l221 350h165l99 -350l-222 -350h-165zM218 342l48 -173l121 189l-50 172z" />
<glyph unicode="&#x25fc;" horiz-adv-x="525" d="M0 0v525h525v-525h-525z" />
<glyph unicode="&#x27f5;" horiz-adv-x="1428" d="M84 251l375 318l81 -98l-178 -151h1082l-24 -138h-1082l124 -151l-115 -98z" />
<glyph unicode="&#x27f6;" horiz-adv-x="1428" d="M72 182l24 138h1082l-124 151l115 98l263 -318l-375 -318l-81 98l178 151h-1082z" />
<glyph unicode="&#x301a;" horiz-adv-x="442" d="M100 -125l167 950h295l-19 -109h-79l-129 -732h79l-19 -109h-295zM212 -16h30l129 732h-30z" />
<glyph unicode="&#x301b;" horiz-adv-x="462" d="M-10 -125l19 109h79l129 732h-79l19 109h295l-167 -950h-295zM181 -16h30l129 732h-30z" />
<glyph horiz-adv-x="710" d="M70 277q0 193 108 315.5t286 122.5q129 0 197.5 -78t68.5 -214q0 -193 -108.5 -315.5t-286.5 -122.5q-129 0 -197 78t-68 214zM176 -179l23 129h390l-23 -129h-390zM254 276q0 -72 25.5 -117t80.5 -45q47 0 82 24t54.5 58t31 79.5t15 80t3.5 68.5q0 72 -26 117t-80 45 q-47 0 -82 -24t-54.5 -58t-31 -79.5t-15 -80t-3.5 -68.5z" />
<glyph horiz-adv-x="587" d="M40 104q0 88 75.5 143.5t212.5 55.5q28 0 59 -3l9 50q15 86 -56 86q-29 0 -54 -21t-34 -69h-161q10 66 55 112t100 64.5t114 18.5q34 0 64 -4t61 -15.5t51.5 -30t30 -49.5t2.5 -72l-65 -370h-170l8 48q-75 -63 -171 -63q-62 0 -96.5 32t-34.5 87zM213 146q0 -43 58 -43 q44 0 87 31l13 77q-22 3 -50 3q-26 0 -48.5 -5.5t-41 -21.5t-18.5 -41z" />
<glyph horiz-adv-x="629" d="M13 -101q0 80 109 136q-43 26 -43 76q0 65 77 130q-46 38 -46 103q0 95 78.5 146t193.5 51q62 0 108 -15h192l-19 -110h-71q2 -16 2 -24q0 -95 -79 -146t-194 -51q-51 0 -95 11q-7 -14 -7 -29t9 -23t22 -8h159q162 0 162 -124q0 -102 -97.5 -173.5t-244.5 -71.5 q-216 0 -216 122zM168 -46q0 -78 91 -78q72 0 108 24.5t36 68.5q0 19 -15 31.5t-39 12.5h-126q-17 0 -39 2q-16 -32 -16 -61zM264 357q0 -30 22 -47t54 -17q42 0 71 21.5t29 64.5q0 30 -22 47t-54 17q-42 0 -71 -21.5t-29 -64.5z" />
<glyph horiz-adv-x="303" d="M-106 -204l17 95q28 -7 53 -7q26 0 49.5 21t31.5 64l98 557h170l-98 -556q-34 -193 -231 -193q-52 0 -90 19zM156 651q0 48 33.5 82t80.5 34q38 0 58.5 -23t20.5 -61q0 -48 -33.5 -82t-80.5 -34q-38 0 -58.5 23t-20.5 61z" />
<glyph horiz-adv-x="389" d="M60 416l19 110h99l24 134h170l-24 -134h101l-19 -110h-101l-73 -416h-170l73 416h-99z" />
<glyph horiz-adv-x="606" d="M50 0l93 526h170l-93 -526h-170zM156 651q0 48 33.5 82t80.5 34q38 0 58.5 -23t20.5 -61q0 -48 -33.5 -82t-80.5 -34q-38 0 -58.5 23t-20.5 61zM197 -204l17 95q28 -7 53 -7q26 0 49.5 21t31.5 64l98 557h170l-98 -556q-34 -193 -231 -193q-52 0 -90 19zM459 651 q0 48 33.5 82t80.5 34q38 0 58.5 -23t20.5 -61q0 -48 -33.5 -82t-80.5 -34q-38 0 -58.5 23t-20.5 61z" />
<glyph horiz-adv-x="587" d="M40 104q0 88 75.5 143.5t212.5 55.5q28 0 59 -3l9 50q15 86 -56 86q-29 0 -54 -21t-34 -69h-161q10 66 55 112t100 64.5t114 18.5q34 0 64 -4t61 -15.5t51.5 -30t30 -49.5t2.5 -72l-65 -370h-170l8 48q-75 -63 -171 -63q-62 0 -96.5 32t-34.5 87zM213 146q0 -43 58 -43 q44 0 87 31l13 77q-22 3 -50 3q-26 0 -48.5 -5.5t-41 -21.5t-18.5 -41zM251 586l132 168h207l-199 -168h-140z" />
<glyph horiz-adv-x="587" d="M40 104q0 88 75.5 143.5t212.5 55.5q28 0 59 -3l9 50q15 86 -56 86q-29 0 -54 -21t-34 -69h-161q10 66 55 112t100 64.5t114 18.5q34 0 64 -4t61 -15.5t51.5 -30t30 -49.5t2.5 -72l-65 -370h-170l8 48q-75 -63 -171 -63q-62 0 -96.5 32t-34.5 87zM213 146q0 -43 58 -43 q44 0 87 31l13 77q-22 3 -50 3q-26 0 -48.5 -5.5t-41 -21.5t-18.5 -41zM224 754h118q-4 -23 7.5 -43t44.5 -20t51.5 20t22.5 43h118q-9 -48 -32 -85t-54.5 -57t-63.5 -29.5t-63 -9.5q-70 0 -117.5 44t-31.5 137z" />
<glyph horiz-adv-x="587" d="M40 104q0 88 75.5 143.5t212.5 55.5q28 0 59 -3l9 50q15 86 -56 86q-29 0 -54 -21t-34 -69h-161q10 66 55 112t100 64.5t114 18.5q34 0 64 -4t61 -15.5t51.5 -30t30 -49.5t2.5 -72l-65 -370h-170l8 48q-75 -63 -171 -63q-62 0 -96.5 32t-34.5 87zM165 586l162 168h157 l102 -168h-138l-59 64l-82 -64h-142zM213 146q0 -43 58 -43q44 0 87 31l13 77q-22 3 -50 3q-26 0 -48.5 -5.5t-41 -21.5t-18.5 -41z" />
<glyph horiz-adv-x="587" d="M40 104q0 88 75.5 143.5t212.5 55.5q28 0 59 -3l9 50q15 86 -56 86q-29 0 -54 -21t-34 -69h-161q10 66 55 112t100 64.5t114 18.5q34 0 64 -4t61 -15.5t51.5 -30t30 -49.5t2.5 -72l-65 -370h-170l8 48q-75 -63 -171 -63q-62 0 -96.5 32t-34.5 87zM180 652q0 46 32.5 77.5 t79.5 31.5q37 0 58 -21.5t21 -56.5q0 -46 -32 -78t-80 -32q-36 0 -57.5 22t-21.5 57zM213 146q0 -43 58 -43q44 0 87 31l13 77q-22 3 -50 3q-26 0 -48.5 -5.5t-41 -21.5t-18.5 -41zM408 651q0 46 32 78t80 32q36 0 57.5 -22t21.5 -57q0 -46 -32.5 -77.5t-79.5 -31.5 q-37 0 -58 21.5t-21 56.5z" />
<glyph horiz-adv-x="587" d="M40 104q0 88 75.5 143.5t212.5 55.5q28 0 59 -3l9 50q15 86 -56 86q-29 0 -54 -21t-34 -69h-161q10 66 55 112t100 64.5t114 18.5q34 0 64 -4t61 -15.5t51.5 -30t30 -49.5t2.5 -72l-65 -370h-170l8 48q-75 -63 -171 -63q-62 0 -96.5 32t-34.5 87zM211 754h197l82 -168 h-140zM213 146q0 -43 58 -43q44 0 87 31l13 77q-22 3 -50 3q-26 0 -48.5 -5.5t-41 -21.5t-18.5 -41z" />
<glyph horiz-adv-x="587" d="M40 104q0 88 75.5 143.5t212.5 55.5q28 0 59 -3l9 50q15 86 -56 86q-29 0 -54 -21t-34 -69h-161q10 66 55 112t100 64.5t114 18.5q34 0 64 -4t61 -15.5t51.5 -30t30 -49.5t2.5 -72l-65 -370h-170l8 48q-75 -63 -171 -63q-62 0 -96.5 32t-34.5 87zM213 146q0 -43 58 -43 q44 0 87 31l13 77q-22 3 -50 3q-26 0 -48.5 -5.5t-41 -21.5t-18.5 -41zM215 612l20 114h330l-20 -114h-330z" />
<glyph horiz-adv-x="587" d="M40 104q0 88 75.5 143.5t212.5 55.5q28 0 59 -3l9 50q15 86 -56 86q-29 0 -54 -21t-34 -69h-161q10 66 55 112t100 64.5t114 18.5q34 0 64 -4t61 -15.5t51.5 -30t30 -49.5t2.5 -72l-65 -370q-66 -32 -96 -63.5t-30 -57.5q0 -14 10 -22t22 -8q32 0 70 15l-15 -88 q-48 -24 -126 -24q-51 0 -78.5 25.5t-27.5 63.5q0 89 131 159h-30l8 48q-75 -63 -171 -63q-62 0 -96.5 32t-34.5 87zM213 146q0 -43 58 -43q44 0 87 31l13 77q-22 3 -50 3q-26 0 -48.5 -5.5t-41 -21.5t-18.5 -41z" />
<glyph horiz-adv-x="587" d="M40 104q0 88 75.5 143.5t212.5 55.5q28 0 59 -3l9 50q15 86 -56 86q-29 0 -54 -21t-34 -69h-161q10 66 55 112t100 64.5t114 18.5q34 0 64 -4t61 -15.5t51.5 -30t30 -49.5t2.5 -72l-65 -370h-170l8 48q-75 -63 -171 -63q-62 0 -96.5 32t-34.5 87zM213 146q0 -43 58 -43 q44 0 87 31l13 77q-22 3 -50 3q-26 0 -48.5 -5.5t-41 -21.5t-18.5 -41zM249 654q0 52 46 84t113 32q54 0 88 -24.5t34 -65.5q0 -52 -46 -84t-113 -32q-54 0 -88 24.5t-34 65.5zM347 662q0 -13 10 -21.5t26 -8.5q21 0 35 11.5t14 28.5q0 13 -10 21.5t-26 8.5q-21 0 -35 -11.5 t-14 -28.5z" />
<glyph horiz-adv-x="587" d="M40 104q0 88 75.5 143.5t212.5 55.5q28 0 59 -3l9 50q15 86 -56 86q-29 0 -54 -21t-34 -69h-161q10 66 55 112t100 64.5t114 18.5q34 0 64 -4t61 -15.5t51.5 -30t30 -49.5t2.5 -72l-65 -370h-170l8 48q-75 -63 -171 -63q-62 0 -96.5 32t-34.5 87zM174 627q29 57 68 88.5 t80 31.5q35 0 85.5 -20t62.5 -20q26 0 49 38l87 -42q-29 -57 -67.5 -88.5t-79.5 -31.5q-35 0 -85.5 20t-63.5 20q-25 0 -50 -38zM213 146q0 -43 58 -43q44 0 87 31l13 77q-22 3 -50 3q-26 0 -48.5 -5.5t-41 -21.5t-18.5 -41z" />
<glyph horiz-adv-x="629" d="M13 -101q0 80 109 136q-43 26 -43 76q0 65 77 130q-46 38 -46 103q0 95 78.5 146t193.5 51q62 0 108 -15h192l-19 -110h-71q2 -16 2 -24q0 -95 -79 -146t-194 -51q-51 0 -95 11q-7 -14 -7 -29t9 -23t22 -8h159q162 0 162 -124q0 -102 -97.5 -173.5t-244.5 -71.5 q-216 0 -216 122zM168 -46q0 -78 91 -78q72 0 108 24.5t36 68.5q0 19 -15 31.5t-39 12.5h-126q-17 0 -39 2q-16 -32 -16 -61zM246 754h118q-4 -23 7.5 -43t44.5 -20t51.5 20t22.5 43h118q-9 -48 -32 -85t-54.5 -57t-63.5 -29.5t-63 -9.5q-70 0 -117.5 44t-31.5 137zM264 357 q0 -30 22 -47t54 -17q42 0 71 21.5t29 64.5q0 30 -22 47t-54 17q-42 0 -71 -21.5t-29 -64.5z" />
<glyph horiz-adv-x="629" d="M13 -101q0 80 109 136q-43 26 -43 76q0 65 77 130q-46 38 -46 103q0 95 78.5 146t193.5 51q62 0 108 -15h192l-19 -110h-71q2 -16 2 -24q0 -95 -79 -146t-194 -51q-51 0 -95 11q-7 -14 -7 -29t9 -23t22 -8h159q162 0 162 -124q0 -102 -97.5 -173.5t-244.5 -71.5 q-216 0 -216 122zM168 -46q0 -78 91 -78q72 0 108 24.5t36 68.5q0 19 -15 31.5t-39 12.5h-126q-17 0 -39 2q-16 -32 -16 -61zM187 586l162 168h157l102 -168h-138l-59 64l-82 -64h-142zM264 357q0 -30 22 -47t54 -17q42 0 71 21.5t29 64.5q0 30 -22 47t-54 17 q-42 0 -71 -21.5t-29 -64.5z" />
<glyph horiz-adv-x="629" d="M13 -101q0 80 109 136q-43 26 -43 76q0 65 77 130q-46 38 -46 103q0 95 78.5 146t193.5 51q62 0 108 -15h192l-19 -110h-71q2 -16 2 -24q0 -95 -79 -146t-194 -51q-51 0 -95 11q-7 -14 -7 -29t9 -23t22 -8h159q162 0 162 -124q0 -102 -97.5 -173.5t-244.5 -71.5 q-216 0 -216 122zM168 -46q0 -78 91 -78q72 0 108 24.5t36 68.5q0 19 -15 31.5t-39 12.5h-126q-17 0 -39 2q-16 -32 -16 -61zM264 357q0 -30 22 -47t54 -17q42 0 71 21.5t29 64.5q0 30 -22 47t-54 17q-42 0 -71 -21.5t-29 -64.5zM288 580l95 200h118l-56 -200h-157z" />
<glyph horiz-adv-x="629" d="M13 -101q0 80 109 136q-43 26 -43 76q0 65 77 130q-46 38 -46 103q0 95 78.5 146t193.5 51q62 0 108 -15h192l-19 -110h-71q2 -16 2 -24q0 -95 -79 -146t-194 -51q-51 0 -95 11q-7 -14 -7 -29t9 -23t22 -8h159q162 0 162 -124q0 -102 -97.5 -173.5t-244.5 -71.5 q-216 0 -216 122zM168 -46q0 -78 91 -78q72 0 108 24.5t36 68.5q0 19 -15 31.5t-39 12.5h-126q-17 0 -39 2q-16 -32 -16 -61zM264 357q0 -30 22 -47t54 -17q42 0 71 21.5t29 64.5q0 30 -22 47t-54 17q-42 0 -71 -21.5t-29 -64.5zM310 651q0 48 34.5 82t84.5 34 q39 0 61.5 -23.5t22.5 -60.5q0 -48 -34 -82t-85 -34q-39 0 -61.5 23.5t-22.5 60.5z" />
<glyph horiz-adv-x="303" d="M50 0l93 526h170l-93 -526h-170zM156 651q0 48 33.5 82t80.5 34q38 0 58.5 -23t20.5 -61q0 -48 -33.5 -82t-80.5 -34q-38 0 -58.5 23t-20.5 61z" />
<glyph horiz-adv-x="303" d="M-106 -204l17 95q28 -7 53 -7q26 0 49.5 21t31.5 64l98 557h170l-98 -556q-34 -193 -231 -193q-52 0 -90 19zM28 586l162 168h157l102 -168h-138l-59 64l-82 -64h-142z" />
<glyph horiz-adv-x="389" d="M45 224l20 114h80l14 78h-99l19 110h99l24 134h170l-24 -134h101l-19 -110h-101l-14 -78h90l-20 -114h-90l-39 -224h-170l39 224h-80z" />
<glyph horiz-adv-x="389" d="M60 416l19 110h99l24 134h170l-24 -134h101l-19 -110h-101l-73 -416h-170l73 416h-99zM415 563l43 240h151l-74 -240h-120z" />
<glyph horiz-adv-x="389" d="M35 -233l12 68q25 -13 61 -13q42 0 42 30q0 21 -33 21q-13 0 -33 -5l-20 48l78 84h-56l73 416h-99l19 110h99l24 134h170l-24 -134h101l-19 -110h-101l-73 -416h-27l-56 -61q40 1 69.5 -17t29.5 -55q0 -56 -48 -85.5t-119 -29.5q-41 0 -70 15z" />
<glyph horiz-adv-x="389" d="M34 -248l56 200h157l-95 -200h-118zM60 416l19 110h99l24 134h170l-24 -134h101l-19 -110h-101l-73 -416h-170l73 416h-99z" />
<glyph horiz-adv-x="540" d="M-10 0l280 543h154l106 -543h-166l-11 105h-160l-47 -105h-156zM243 220h99l-3 26l-14 156l-70 -156z" />
<glyph horiz-adv-x="541" d="M60 0l96 543h220q195 0 195 -120q0 -42 -27 -79.5t-75 -52.5q80 -25 80 -104q0 -65 -38.5 -108.5t-92.5 -61t-118 -17.5h-240zM245 107h74q25 0 46.5 17.5t21.5 52.5q0 24 -14 35.5t-33 11.5h-74zM283 327h54q26 0 46.5 14t20.5 49q0 23 -14.5 34.5t-32.5 11.5h-54z" />
<glyph horiz-adv-x="553" d="M70 220q0 145 93.5 241t224.5 96q100 0 158.5 -56t43.5 -160h-160q6 101 -62 101q-38 0 -65 -25t-39 -64.5t-16.5 -72.5t-4.5 -65q0 -50 15.5 -82.5t48.5 -32.5q69 0 98 101h160q-21 -104 -99.5 -160t-178.5 -56q-102 0 -159.5 63.5t-57.5 171.5z" />
<glyph horiz-adv-x="592" d="M60 0l96 543h211q115 0 180 -59.5t65 -166.5q0 -145 -95.5 -231t-245.5 -86h-211zM246 115h45q70 0 108 56t38 138q0 53 -22.5 86t-67.5 33h-46z" />
<glyph horiz-adv-x="474" d="M60 0l96 543h378l-20 -115h-212l-16 -90h195l-20 -115h-196l-19 -108h212l-20 -115h-378z" />
<glyph horiz-adv-x="434" d="M60 0l96 543h368l-20 -115h-203l-17 -100h186l-20 -115h-187l-37 -213h-166z" />
<glyph horiz-adv-x="573" d="M70 199q0 161 91.5 259.5t229.5 98.5q98 0 154.5 -51t44.5 -142h-160q0 78 -61 78q-38 0 -64.5 -24.5t-38 -64t-16 -71.5t-4.5 -63q0 -119 76 -119q46 0 75 20l11 59h-81l18 105h231l-50 -284h-150l8 43q-25 -25 -67.5 -41.5t-78.5 -16.5q-82 0 -125 57.5t-43 156.5z" />
<glyph horiz-adv-x="628" d="M60 0l96 543h166l-36 -205h170l36 205h166l-96 -543h-166l39 223h-170l-39 -223h-166z" />
<glyph horiz-adv-x="292" d="M60 0l96 543h166l-96 -543h-166z" />
<glyph horiz-adv-x="516" d="M45 204h164q-8 -57 2.5 -80.5t38.5 -23.5q29 0 43.5 19.5t21.5 58.5l65 365h166l-62 -349q-18 -107 -87.5 -158t-166.5 -51q-42 0 -77 10.5t-64.5 33.5t-41.5 68t-2 107z" />
<glyph horiz-adv-x="565" d="M60 0l96 543h166l-41 -233l178 233h166l-202 -255l139 -288h-182l-109 256l-45 -256h-166z" />
<glyph horiz-adv-x="448" d="M60 0l96 543h166l-76 -428h192l-20 -115h-358z" />
<glyph horiz-adv-x="705" d="M60 0l96 543h172l64 -305l171 305h172l-96 -543h-150l23 131l33 168l-110 -197h-135l-40 197l-27 -168l-23 -131h-150z" />
<glyph horiz-adv-x="618" d="M60 0l96 543h142l147 -313l27 168l26 145h150l-96 -543h-142l-148 313l-26 -168l-26 -145h-150z" />
<glyph horiz-adv-x="597" d="M70 220q0 146 94.5 241.5t229.5 95.5q106 0 164.5 -63.5t58.5 -171.5q0 -146 -94.5 -241.5t-229.5 -95.5q-106 0 -164.5 63.5t-58.5 171.5zM244 220q0 -52 16.5 -86t52.5 -34q65 0 98 66.5t33 155.5q0 52 -17 86t-53 34q-44 0 -74.5 -35t-43 -83t-12.5 -104z" />
<glyph horiz-adv-x="511" d="M60 0l96 543h212q87 0 140 -42.5t53 -122.5q0 -108 -76 -166.5t-186 -58.5h-46l-27 -153h-166zM272 264h46q28 0 53.5 23.5t25.5 76.5q0 37 -14.5 52.5t-34.5 15.5h-46z" />
<glyph horiz-adv-x="597" d="M70 220q0 146 94.5 241.5t229.5 95.5q106 0 164.5 -63.5t58.5 -171.5q0 -100 -47.5 -179.5t-126.5 -121.5l90 -138h-180l-62 102q-105 1 -163 64.5t-58 170.5zM244 220q0 -52 16.5 -86t52.5 -34q65 0 98 66.5t33 155.5q0 52 -17 86t-53 34q-44 0 -74.5 -35t-43 -83 t-12.5 -104z" />
<glyph horiz-adv-x="597" d="M70 220q0 146 94.5 241.5t229.5 95.5q106 0 164.5 -63.5t58.5 -171.5q0 -146 -94.5 -241.5t-229.5 -95.5q-106 0 -164.5 63.5t-58.5 171.5zM180 -148l20 115h300l-20 -115h-300zM244 220q0 -52 16.5 -86t52.5 -34q65 0 98 66.5t33 155.5q0 52 -17 86t-53 34 q-44 0 -74.5 -35t-43 -83t-12.5 -104z" />
<glyph horiz-adv-x="525" d="M60 0l96 543h206q87 0 140 -42t53 -120q0 -135 -127 -185l97 -196h-173l-72 173h-24l-30 -173h-166zM275 278h40q27 0 52 21t25 68q0 35 -15 50t-35 15h-40z" />
<glyph horiz-adv-x="514" d="M63 169h160q-3 -37 16 -56t50 -19q80 0 80 60q0 26 -23.5 37.5t-73.5 21.5q-27 5 -48.5 11t-45.5 17.5t-40 27t-26.5 39.5t-10.5 54q0 92 72 143.5t178 51.5q102 0 155.5 -45t46.5 -132h-160q2 32 -14.5 50t-46.5 18q-73 0 -73 -58q0 -26 23.5 -37.5t73.5 -21.5 q35 -7 61 -15.5t53.5 -24t42.5 -42t15 -61.5q0 -91 -78.5 -147t-179.5 -56q-105 0 -162 46t-45 138z" />
<glyph horiz-adv-x="462" d="M100 428l20 115h432l-20 -115h-134l-75 -428h-166l75 428h-132z" />
<glyph horiz-adv-x="628" d="M101 199l61 344h166l-58 -329q-10 -60 7.5 -87t63.5 -27q88 0 106 99l61 344h150l-58 -329q-19 -109 -98 -169t-183 -60q-118 0 -177 54t-41 160z" />
<glyph horiz-adv-x="540" d="M100 543h166l23 -176l23 -186l89 186l83 176h156l-280 -543h-154z" />
<glyph horiz-adv-x="781" d="M100 543h164l11 -156l13 -176l71 176l61 156h145l11 -156l15 -176l136 332h154l-247 -543h-148l-13 149l-12 176l-69 -176l-59 -149h-164z" />
<glyph horiz-adv-x="495" d="M-20 0l221 272l-120 271h170l55 -145l111 145h168l-215 -265l124 -278h-170l-59 153l-117 -153h-168z" />
<glyph horiz-adv-x="494" d="M100 543h166l58 -207l131 207h149l-232 -354l-33 -189h-166l36 207z" />
<glyph horiz-adv-x="432" d="M30 0l20 115l258 313h-202l20 115h386l-20 -115l-258 -313h202l-20 -115h-386z" />
<glyph horiz-adv-x="781" d="M-10 0l453 543h398l-20 -115h-212l-16 -90h195l-20 -115h-196l-19 -108h212l-20 -115h-378l18 105h-142l-79 -105h-174zM329 220h77l24 139z" />
<glyph horiz-adv-x="592" d="M38 213l20 115h60l38 215h211q115 0 180 -59.5t65 -166.5q0 -145 -95.5 -231t-245.5 -86h-211l38 213h-60zM246 115h45q70 0 108 56t38 138q0 53 -22.5 86t-67.5 33h-46l-18 -100h91l-20 -115h-91z" />
<glyph horiz-adv-x="808" d="M60 0l96 543h166l-96 -543h-166zM337 204h164q-8 -57 2.5 -80.5t38.5 -23.5q29 0 43.5 19.5t21.5 58.5l65 365h166l-62 -349q-18 -107 -87.5 -158t-166.5 -51q-42 0 -77 10.5t-64.5 33.5t-41.5 68t-2 107z" />
<glyph horiz-adv-x="618" d="M60 0l96 543h142l147 -313l27 168l26 145h150l-96 -543q-17 -95 -71 -134t-140 -39q-62 0 -94 16l19 110q33 -11 76 -11q59 0 68 58l-148 313l-26 -168l-26 -145h-150z" />
<glyph horiz-adv-x="597" d="M15 -70l98 138q-43 60 -43 152q0 146 94.5 241.5t229.5 95.5q36 0 63 -7l44 62h171l-98 -138q43 -60 43 -152q0 -146 -94.5 -241.5t-229.5 -95.5q-36 0 -63 7l-44 -62h-171zM244 220q0 -52 16.5 -86t52.5 -34q65 0 98 66.5t33 155.5q0 52 -17 86t-53 34q-44 0 -74.5 -35 t-43 -83t-12.5 -104z" />
<glyph horiz-adv-x="786" d="M70 225q0 144 98 231t243 87h435l-20 -115h-212l-16 -90h195l-20 -115h-196l-19 -108h212l-20 -115h-435q-110 0 -177.5 60t-67.5 165zM244 233q0 -118 91 -118h57l55 313h-56q-72 0 -109.5 -53.5t-37.5 -141.5z" />
<glyph horiz-adv-x="499" d="M60 0l96 543h166l-13 -69h47q87 0 140 -42.5t53 -122.5q0 -108 -76 -166.5t-186 -58.5h-46l-15 -84h-166zM260 195h46q28 0 53.5 23.5t25.5 76.5q0 37 -14.5 52.5t-34.5 15.5h-46z" />
<glyph horiz-adv-x="623" d="M60 0l51 288q24 134 111 194.5t205 60.5h226l-20 -115l-120 -123q58 -23 81.5 -63t23.5 -77q0 -87 -62 -133.5t-139 -46.5q-162 0 -140 157h132q-5 -58 24 -58q40 0 40 61q0 74 -101 74h-32l18 106l102 103h-61q-45 0 -75.5 -27.5t-44.5 -102.5l-53 -298h-166z" />
<glyph horiz-adv-x="540" d="M-10 0l280 543h154l106 -543h-166l-11 105h-160l-47 -105h-156zM243 220h99l-3 26l-14 156l-70 -156zM245 580l122 115h194l-183 -115h-133z" />
<glyph horiz-adv-x="540" d="M-10 0l280 543h154l106 -543h-166l-11 105h-160l-47 -105h-156zM209 695h110q-5 -29 48 -29q54 0 59 29h111q-11 -62 -64.5 -92t-121.5 -30q-69 0 -111 29.5t-31 92.5zM243 220h99l-3 26l-14 156l-70 -156z" />
<glyph horiz-adv-x="540" d="M-10 0l280 543h154l106 -543h-166l-11 105h-160l-47 -105h-156zM155 580l148 115h141l106 -115h-136l-54 34l-65 -34h-140zM243 220h99l-3 26l-14 156l-70 -156z" />
<glyph horiz-adv-x="540" d="M-10 0l280 543h154l106 -543h-166l-11 105h-160l-47 -105h-156zM190 638q0 35 28 58.5t66 23.5q30 0 49 -17.5t19 -44.5q0 -35 -27.5 -58t-65.5 -23q-31 0 -50 17t-19 44zM243 220h99l-3 26l-14 156l-70 -156zM378 638q0 35 27.5 58.5t65.5 23.5q31 0 49.5 -17t18.5 -44 q0 -35 -27 -58.5t-66 -23.5q-31 0 -49.5 17t-18.5 44z" />
<glyph horiz-adv-x="540" d="M-10 0l280 543h154l106 -543h-166l-11 105h-160l-47 -105h-156zM206 695h185l89 -115h-123zM243 220h99l-3 26l-14 156l-70 -156z" />
<glyph horiz-adv-x="540" d="M-10 0l280 543h154l106 -543h-166l-11 105h-160l-47 -105h-156zM212 590l18 101h288l-18 -101h-288zM243 220h99l-3 26l-14 156l-70 -156z" />
<glyph horiz-adv-x="540" d="M-10 0l280 543h154l106 -543q-66 -32 -96 -63.5t-30 -57.5q0 -14 10 -22t22 -8q32 0 70 15l-15 -88q-48 -24 -126 -24q-51 0 -78.5 25.5t-27.5 63.5q0 89 131 159h-26l-11 105h-160l-47 -105h-156zM243 220h99l-3 26l-14 156l-70 -156z" />
<glyph horiz-adv-x="540" d="M-10 0l280 543h154l106 -543h-166l-11 105h-160l-47 -105h-156zM243 220h99l-3 26l-14 156l-70 -156zM246 628q0 41 37 67.5t94 26.5q47 0 75 -20t28 -52q0 -41 -37 -67.5t-95 -26.5q-47 0 -74.5 20t-27.5 52zM332 635q0 -22 26 -22q15 0 25 8.5t10 21.5q0 22 -26 22 q-15 0 -25 -8.5t-10 -21.5z" />
<glyph horiz-adv-x="540" d="M-10 0l280 543h154l106 -543h-166l-11 105h-160l-47 -105h-156zM174 614q50 96 126 96q26 0 71.5 -13.5t61.5 -13.5q20 0 39 25l80 -38q-48 -96 -126 -96q-26 0 -71.5 13.5t-61.5 13.5q-19 0 -38 -25zM243 220h99l-3 26l-14 156l-70 -156z" />
<glyph horiz-adv-x="553" d="M70 220q0 145 93.5 241t224.5 96q100 0 158.5 -56t43.5 -160h-160q6 101 -62 101q-38 0 -65 -25t-39 -64.5t-16.5 -72.5t-4.5 -65q0 -50 15.5 -82.5t48.5 -32.5q69 0 98 101h160q-21 -104 -99.5 -160t-178.5 -56q-102 0 -159.5 63.5t-57.5 171.5zM264 580l122 115h194 l-183 -115h-133z" />
<glyph horiz-adv-x="553" d="M70 220q0 145 93.5 241t224.5 96q100 0 158.5 -56t43.5 -160h-160q6 101 -62 101q-38 0 -65 -25t-39 -64.5t-16.5 -72.5t-4.5 -65q0 -50 15.5 -82.5t48.5 -32.5q69 0 98 101h160q-21 -104 -99.5 -160t-178.5 -56q-102 0 -159.5 63.5t-57.5 171.5zM205 695h136l53 -34 l66 34h140l-148 -115h-141z" />
<glyph horiz-adv-x="553" d="M70 220q0 145 93.5 241t224.5 96q100 0 158.5 -56t43.5 -160h-160q6 101 -62 101q-38 0 -65 -25t-39 -64.5t-16.5 -72.5t-4.5 -65q0 -50 15.5 -82.5t48.5 -32.5q69 0 98 101h160q-19 -95 -87 -150t-158 -64l-44 -48q40 1 69.5 -17t29.5 -55q0 -56 -48 -85.5t-119 -29.5 q-41 0 -70 15l12 68q25 -13 61 -13q42 0 42 30q0 21 -33 21q-13 0 -33 -5l-20 48l68 74q-78 15 -121.5 76t-43.5 154z" />
<glyph horiz-adv-x="553" d="M70 220q0 145 93.5 241t224.5 96q100 0 158.5 -56t43.5 -160h-160q6 101 -62 101q-38 0 -65 -25t-39 -64.5t-16.5 -72.5t-4.5 -65q0 -50 15.5 -82.5t48.5 -32.5q69 0 98 101h160q-21 -104 -99.5 -160t-178.5 -56q-102 0 -159.5 63.5t-57.5 171.5zM184 580l148 115h141 l106 -115h-136l-54 34l-65 -34h-140z" />
<glyph horiz-adv-x="553" d="M70 220q0 145 93.5 241t224.5 96q100 0 158.5 -56t43.5 -160h-160q6 101 -62 101q-38 0 -65 -25t-39 -64.5t-16.5 -72.5t-4.5 -65q0 -50 15.5 -82.5t48.5 -32.5q69 0 98 101h160q-21 -104 -99.5 -160t-178.5 -56q-102 0 -159.5 63.5t-57.5 171.5zM309 636q0 37 28.5 61 t68.5 24q31 0 51 -17.5t20 -45.5q0 -37 -28.5 -60.5t-68.5 -23.5q-32 0 -51.5 17t-19.5 45z" />
<glyph horiz-adv-x="592" d="M60 0l96 543h211q115 0 180 -59.5t65 -166.5q0 -145 -95.5 -231t-245.5 -86h-211zM185 695h136l53 -34l66 34h140l-148 -115h-141zM246 115h45q70 0 108 56t38 138q0 53 -22.5 86t-67.5 33h-46z" />
<glyph horiz-adv-x="592" d="M38 213l20 115h60l38 215h211q115 0 180 -59.5t65 -166.5q0 -145 -95.5 -231t-245.5 -86h-211l38 213h-60zM246 115h45q70 0 108 56t38 138q0 53 -22.5 86t-67.5 33h-46l-18 -100h91l-20 -115h-91z" />
<glyph horiz-adv-x="474" d="M60 0l96 543h378l-20 -115h-212l-16 -90h195l-20 -115h-196l-19 -108h212l-20 -115h-378zM219 580l122 115h194l-183 -115h-133z" />
<glyph horiz-adv-x="474" d="M60 0l96 543h378l-20 -115h-212l-16 -90h195l-20 -115h-196l-19 -108h212l-20 -115h-378zM198 695h110q-5 -29 48 -29q54 0 59 29h111q-11 -62 -64.5 -92t-121.5 -30q-69 0 -111 29.5t-31 92.5z" />
<glyph horiz-adv-x="474" d="M60 0l96 543h378l-20 -115h-212l-16 -90h195l-20 -115h-196l-19 -108h212l-20 -115h-378zM165 695h136l53 -34l66 34h140l-148 -115h-141z" />
<glyph horiz-adv-x="474" d="M60 0l96 543h378l-20 -115h-212l-16 -90h195l-20 -115h-196l-19 -108h212l-20 -115h-378zM144 580l148 115h141l106 -115h-136l-54 34l-65 -34h-140z" />
<glyph horiz-adv-x="474" d="M60 0l96 543h378l-20 -115h-212l-16 -90h195l-20 -115h-196l-19 -108h212l-20 -115h-378zM179 638q0 35 28 58.5t66 23.5q30 0 49 -17.5t19 -44.5q0 -35 -27.5 -58t-65.5 -23q-31 0 -50 17t-19 44zM367 638q0 35 27.5 58.5t65.5 23.5q31 0 49.5 -17t18.5 -44 q0 -35 -27 -58.5t-66 -23.5q-31 0 -49.5 17t-18.5 44z" />
<glyph horiz-adv-x="474" d="M60 0l96 543h378l-20 -115h-212l-16 -90h195l-20 -115h-196l-19 -108h212l-20 -115h-378zM269 636q0 37 28.5 61t68.5 24q31 0 51 -17.5t20 -45.5q0 -37 -28.5 -60.5t-68.5 -23.5q-32 0 -51.5 17t-19.5 45z" />
<glyph horiz-adv-x="474" d="M60 0l96 543h378l-20 -115h-212l-16 -90h195l-20 -115h-196l-19 -108h212l-20 -115h-378zM190 695h185l89 -115h-123z" />
<glyph horiz-adv-x="474" d="M60 0l96 543h378l-20 -115h-212l-16 -90h195l-20 -115h-196l-19 -108h212l-20 -115h-378zM199 590l18 101h288l-18 -101h-288z" />
<glyph horiz-adv-x="474" d="M60 0l96 543h378l-20 -115h-212l-16 -90h195l-20 -115h-196l-19 -108h212l-20 -115q-66 -32 -96 -63.5t-30 -57.5q0 -14 10 -22t22 -8q33 0 70 15l-15 -88q-48 -24 -126 -24q-51 0 -78.5 25.5t-27.5 63.5q0 89 131 159h-238z" />
<glyph horiz-adv-x="573" d="M70 199q0 161 91.5 259.5t229.5 98.5q98 0 154.5 -51t44.5 -142h-160q0 78 -61 78q-38 0 -64.5 -24.5t-38 -64t-16 -71.5t-4.5 -63q0 -119 76 -119q46 0 75 20l11 59h-81l18 105h231l-50 -284h-150l8 43q-25 -25 -67.5 -41.5t-78.5 -16.5q-82 0 -125 57.5t-43 156.5z M247 695h110q-5 -29 48 -29q54 0 59 29h111q-11 -62 -64.5 -92t-121.5 -30q-69 0 -111 29.5t-31 92.5z" />
<glyph horiz-adv-x="573" d="M70 199q0 161 91.5 259.5t229.5 98.5q98 0 154.5 -51t44.5 -142h-160q0 78 -61 78q-38 0 -64.5 -24.5t-38 -64t-16 -71.5t-4.5 -63q0 -119 76 -119q46 0 75 20l11 59h-81l18 105h231l-50 -284h-150l8 43q-25 -25 -67.5 -41.5t-78.5 -16.5q-82 0 -125 57.5t-43 156.5z M193 580l148 115h141l106 -115h-136l-54 34l-65 -34h-140z" />
<glyph horiz-adv-x="573" d="M70 199q0 161 91.5 259.5t229.5 98.5q98 0 154.5 -51t44.5 -142h-160q0 78 -61 78q-38 0 -64.5 -24.5t-38 -64t-16 -71.5t-4.5 -63q0 -119 76 -119q46 0 75 20l11 59h-81l18 105h231l-50 -284h-150l8 43q-25 -25 -67.5 -41.5t-78.5 -16.5q-82 0 -125 57.5t-43 156.5z M156 -248l56 200h157l-95 -200h-118z" />
<glyph horiz-adv-x="573" d="M70 199q0 161 91.5 259.5t229.5 98.5q98 0 154.5 -51t44.5 -142h-160q0 78 -61 78q-38 0 -64.5 -24.5t-38 -64t-16 -71.5t-4.5 -63q0 -119 76 -119q46 0 75 20l11 59h-81l18 105h231l-50 -284h-150l8 43q-25 -25 -67.5 -41.5t-78.5 -16.5q-82 0 -125 57.5t-43 156.5z M318 636q0 37 28.5 61t68.5 24q31 0 51 -17.5t20 -45.5q0 -37 -28.5 -60.5t-68.5 -23.5q-32 0 -51.5 17t-19.5 45z" />
<glyph horiz-adv-x="628" d="M60 0l64 363h-40l20 115h41l11 65h166l-11 -65h170l11 65h166l-11 -65h39l-20 -115h-40l-64 -363h-166l33 188h-170l-33 -188h-166zM280 303h170l11 60h-170z" />
<glyph horiz-adv-x="628" d="M60 0l96 543h166l-36 -205h170l36 205h166l-96 -543h-166l39 223h-170l-39 -223h-166zM216 580l148 115h141l106 -115h-136l-54 34l-65 -34h-140z" />
<glyph horiz-adv-x="292" d="M60 0l96 543h166l-96 -543h-166zM133 580l122 115h194l-183 -115h-133z" />
<glyph horiz-adv-x="292" d="M60 0l96 543h166l-96 -543h-166zM107 695h110q-5 -29 48 -29q54 0 59 29h111q-11 -62 -64.5 -92t-121.5 -30q-69 0 -111 29.5t-31 92.5z" />
<glyph horiz-adv-x="292" d="M53 580l148 115h141l106 -115h-136l-54 34l-65 -34h-140zM60 0l96 543h166l-96 -543h-166z" />
<glyph horiz-adv-x="292" d="M60 0l96 543h166l-96 -543h-166zM94 638q0 35 28 58.5t66 23.5q30 0 49 -17.5t19 -44.5q0 -35 -27.5 -58t-65.5 -23q-31 0 -50 17t-19 44zM270 638q0 35 27.5 58.5t65.5 23.5q31 0 49.5 -17t18.5 -44q0 -35 -27 -58.5t-66 -23.5q-31 0 -49.5 17t-18.5 44z" />
<glyph horiz-adv-x="292" d="M60 0l96 543h166l-96 -543h-166zM94 695h185l89 -115h-123z" />
<glyph horiz-adv-x="292" d="M60 0l96 543h166l-96 -543h-166zM118 590l18 101h268l-18 -101h-268z" />
<glyph horiz-adv-x="292" d="M-45 -159q0 89 131 159h-26l96 543h166l-96 -543q-66 -32 -96 -63.5t-30 -57.5q0 -14 10 -22t22 -8q33 0 70 15l-15 -88q-48 -24 -126 -24q-51 0 -78.5 25.5t-27.5 63.5z" />
<glyph horiz-adv-x="292" d="M60 0l96 543h166l-96 -543h-166zM72 614q50 96 126 96q26 0 71.5 -13.5t61.5 -13.5q20 0 39 25l80 -38q-48 -96 -126 -96q-26 0 -71.5 13.5t-61.5 13.5q-19 0 -38 -25z" />
<glyph horiz-adv-x="516" d="M45 204h164q-8 -57 2.5 -80.5t38.5 -23.5q29 0 43.5 19.5t21.5 58.5l65 365h166l-62 -349q-18 -107 -87.5 -158t-166.5 -51q-42 0 -77 10.5t-64.5 33.5t-41.5 68t-2 107zM277 580l148 115h141l106 -115h-136l-54 34l-65 -34h-140z" />
<glyph horiz-adv-x="565" d="M60 0l96 543h166l-41 -233l178 233h166l-202 -255l139 -288h-182l-109 256l-45 -256h-166zM139 -248l56 200h157l-95 -200h-118z" />
<glyph horiz-adv-x="448" d="M60 0l96 543h166l-76 -428h192l-20 -115h-358zM130 580l122 115h194l-183 -115h-133z" />
<glyph horiz-adv-x="448" d="M60 0l96 543h166l-76 -428h192l-20 -115h-358zM375 362l43 240h151l-74 -240h-120z" />
<glyph horiz-adv-x="448" d="M60 0l96 543h166l-76 -428h192l-20 -115h-358zM82 -248l56 200h157l-95 -200h-118z" />
<glyph horiz-adv-x="448" d="M60 0l96 543h166l-76 -428h192l-20 -115h-358zM359 291q0 37 28.5 61t68.5 24q31 0 51 -17.5t20 -45.5q0 -37 -28.5 -60.5t-68.5 -23.5q-32 0 -51.5 17t-19.5 45z" />
<glyph horiz-adv-x="448" d="M6 116l24 135l82 42l44 250h166l-28 -156l115 59l-24 -136l-115 -59l-24 -136h192l-20 -115h-358l28 158z" />
<glyph horiz-adv-x="618" d="M60 0l96 543h142l147 -313l27 168l26 145h150l-96 -543h-142l-148 313l-26 -168l-26 -145h-150zM281 580l122 115h194l-183 -115h-133z" />
<glyph horiz-adv-x="618" d="M60 0l96 543h142l147 -313l27 168l26 145h150l-96 -543h-142l-148 313l-26 -168l-26 -145h-150zM222 695h136l53 -34l66 34h140l-148 -115h-141z" />
<glyph horiz-adv-x="618" d="M60 0l96 543h142l147 -313l27 168l26 145h150l-96 -543h-142l-148 313l-26 -168l-26 -145h-150zM184 -248l56 200h157l-95 -200h-118z" />
<glyph horiz-adv-x="618" d="M60 0l96 543h142l147 -313l27 168l26 145h150l-96 -543h-142l-148 313l-26 -168l-26 -145h-150zM220 614q50 96 126 96q26 0 71.5 -13.5t61.5 -13.5q20 0 39 25l80 -38q-48 -96 -126 -96q-26 0 -71.5 13.5t-61.5 13.5q-19 0 -38 -25z" />
<glyph horiz-adv-x="597" d="M70 220q0 146 94.5 241.5t229.5 95.5q106 0 164.5 -63.5t58.5 -171.5q0 -146 -94.5 -241.5t-229.5 -95.5q-106 0 -164.5 63.5t-58.5 171.5zM244 220q0 -52 16.5 -86t52.5 -34q65 0 98 66.5t33 155.5q0 52 -17 86t-53 34q-44 0 -74.5 -35t-43 -83t-12.5 -104zM271 580 l122 115h194l-183 -115h-133z" />
<glyph horiz-adv-x="597" d="M70 220q0 146 94.5 241.5t229.5 95.5q106 0 164.5 -63.5t58.5 -171.5q0 -146 -94.5 -241.5t-229.5 -95.5q-106 0 -164.5 63.5t-58.5 171.5zM244 220q0 -52 16.5 -86t52.5 -34q65 0 98 66.5t33 155.5q0 52 -17 86t-53 34q-44 0 -74.5 -35t-43 -83t-12.5 -104zM255 695h110 q-5 -29 48 -29q54 0 59 29h111q-11 -62 -64.5 -92t-121.5 -30q-69 0 -111 29.5t-31 92.5z" />
<glyph horiz-adv-x="597" d="M70 220q0 146 94.5 241.5t229.5 95.5q106 0 164.5 -63.5t58.5 -171.5q0 -146 -94.5 -241.5t-229.5 -95.5q-106 0 -164.5 63.5t-58.5 171.5zM201 580l148 115h141l106 -115h-136l-54 34l-65 -34h-140zM244 220q0 -52 16.5 -86t52.5 -34q65 0 98 66.5t33 155.5q0 52 -17 86 t-53 34q-44 0 -74.5 -35t-43 -83t-12.5 -104z" />
<glyph horiz-adv-x="597" d="M70 220q0 146 94.5 241.5t229.5 95.5q106 0 164.5 -63.5t58.5 -171.5q0 -146 -94.5 -241.5t-229.5 -95.5q-106 0 -164.5 63.5t-58.5 171.5zM236 638q0 35 28 58.5t66 23.5q30 0 49 -17.5t19 -44.5q0 -35 -27.5 -58t-65.5 -23q-31 0 -50 17t-19 44zM244 220 q0 -52 16.5 -86t52.5 -34q65 0 98 66.5t33 155.5q0 52 -17 86t-53 34q-44 0 -74.5 -35t-43 -83t-12.5 -104zM424 638q0 35 27.5 58.5t65.5 23.5q31 0 49.5 -17t18.5 -44q0 -35 -27 -58.5t-66 -23.5q-31 0 -49.5 17t-18.5 44z" />
<glyph horiz-adv-x="597" d="M70 220q0 146 94.5 241.5t229.5 95.5q106 0 164.5 -63.5t58.5 -171.5q0 -146 -94.5 -241.5t-229.5 -95.5q-106 0 -164.5 63.5t-58.5 171.5zM244 220q0 -52 16.5 -86t52.5 -34q65 0 98 66.5t33 155.5q0 52 -17 86t-53 34q-44 0 -74.5 -35t-43 -83t-12.5 -104zM252 695h185 l89 -115h-123z" />
<glyph horiz-adv-x="597" d="M70 220q0 146 94.5 241.5t229.5 95.5q106 0 164.5 -63.5t58.5 -171.5q0 -146 -94.5 -241.5t-229.5 -95.5q-106 0 -164.5 63.5t-58.5 171.5zM202 580l103 115h173l-156 -115h-120zM244 220q0 -52 16.5 -86t52.5 -34q65 0 98 66.5t33 155.5q0 52 -17 86t-53 34 q-44 0 -74.5 -35t-43 -83t-12.5 -104zM400 580l102 115h174l-156 -115h-120z" />
<glyph horiz-adv-x="597" d="M70 220q0 146 94.5 241.5t229.5 95.5q106 0 164.5 -63.5t58.5 -171.5q0 -146 -94.5 -241.5t-229.5 -95.5q-106 0 -164.5 63.5t-58.5 171.5zM244 220q0 -52 16.5 -86t52.5 -34q65 0 98 66.5t33 155.5q0 52 -17 86t-53 34q-44 0 -74.5 -35t-43 -83t-12.5 -104zM256 590 l18 101h288l-18 -101h-288z" />
<glyph horiz-adv-x="597" d="M70 220q0 146 94.5 241.5t229.5 95.5q106 0 164.5 -63.5t58.5 -171.5q0 -146 -94.5 -241.5t-229.5 -95.5q-106 0 -164.5 63.5t-58.5 171.5zM220 614q50 96 126 96q26 0 71.5 -13.5t61.5 -13.5q20 0 39 25l80 -38q-48 -96 -126 -96q-26 0 -71.5 13.5t-61.5 13.5 q-19 0 -38 -25zM244 220q0 -52 16.5 -86t52.5 -34q65 0 98 66.5t33 155.5q0 52 -17 86t-53 34q-44 0 -74.5 -35t-43 -83t-12.5 -104z" />
<glyph horiz-adv-x="525" d="M60 0l96 543h206q87 0 140 -42t53 -120q0 -135 -127 -185l97 -196h-173l-72 173h-24l-30 -173h-166zM227 580l122 115h194l-183 -115h-133zM275 278h40q27 0 52 21t25 68q0 35 -15 50t-35 15h-40z" />
<glyph horiz-adv-x="525" d="M60 0l96 543h206q87 0 140 -42t53 -120q0 -135 -127 -185l97 -196h-173l-72 173h-24l-30 -173h-166zM178 695h136l53 -34l66 34h140l-148 -115h-141zM275 278h40q27 0 52 21t25 68q0 35 -15 50t-35 15h-40z" />
<glyph horiz-adv-x="525" d="M60 0l96 543h206q87 0 140 -42t53 -120q0 -135 -127 -185l97 -196h-173l-72 173h-24l-30 -173h-166zM130 -248l56 200h157l-95 -200h-118zM275 278h40q27 0 52 21t25 68q0 35 -15 50t-35 15h-40z" />
<glyph horiz-adv-x="514" d="M63 169h160q-3 -37 16 -56t50 -19q80 0 80 60q0 26 -23.5 37.5t-73.5 21.5q-27 5 -48.5 11t-45.5 17.5t-40 27t-26.5 39.5t-10.5 54q0 92 72 143.5t178 51.5q102 0 155.5 -45t46.5 -132h-160q2 32 -14.5 50t-46.5 18q-73 0 -73 -58q0 -26 23.5 -37.5t73.5 -21.5 q35 -7 61 -15.5t53.5 -24t42.5 -42t15 -61.5q0 -91 -78.5 -147t-179.5 -56q-105 0 -162 46t-45 138zM229 580l122 115h194l-183 -115h-133z" />
<glyph horiz-adv-x="514" d="M63 169h160q-3 -37 16 -56t50 -19q80 0 80 60q0 26 -23.5 37.5t-73.5 21.5q-27 5 -48.5 11t-45.5 17.5t-40 27t-26.5 39.5t-10.5 54q0 92 72 143.5t178 51.5q102 0 155.5 -45t46.5 -132h-160q2 32 -14.5 50t-46.5 18q-73 0 -73 -58q0 -26 23.5 -37.5t73.5 -21.5 q35 -7 61 -15.5t53.5 -24t42.5 -42t15 -61.5q0 -91 -78.5 -147t-179.5 -56q-105 0 -162 46t-45 138zM180 695h136l53 -34l66 34h140l-148 -115h-141z" />
<glyph horiz-adv-x="514" d="M63 169h160q-3 -37 16 -56t50 -19q80 0 80 60q0 26 -23.5 37.5t-73.5 21.5q-27 5 -48.5 11t-45.5 17.5t-40 27t-26.5 39.5t-10.5 54q0 92 72 143.5t178 51.5q102 0 155.5 -45t46.5 -132h-160q2 32 -14.5 50t-46.5 18q-73 0 -73 -58q0 -26 23.5 -37.5t73.5 -21.5 q35 -7 61 -15.5t53.5 -24t42.5 -42t15 -61.5q0 -91 -78.5 -147t-179.5 -56q-105 0 -162 46t-45 138zM122 -248l56 200h157l-95 -200h-118z" />
<glyph horiz-adv-x="514" d="M63 169h160q-3 -37 16 -56t50 -19q80 0 80 60q0 26 -23.5 37.5t-73.5 21.5q-27 5 -48.5 11t-45.5 17.5t-40 27t-26.5 39.5t-10.5 54q0 92 72 143.5t178 51.5q102 0 155.5 -45t46.5 -132h-160q2 32 -14.5 50t-46.5 18q-73 0 -73 -58q0 -26 23.5 -37.5t73.5 -21.5 q35 -7 61 -15.5t53.5 -24t42.5 -42t15 -61.5q0 -91 -78.5 -147t-179.5 -56q-105 0 -162 46t-45 138zM159 580l148 115h141l106 -115h-136l-54 34l-65 -34h-140z" />
<glyph horiz-adv-x="514" d="M63 169h160q-3 -37 16 -56t50 -19q80 0 80 60q0 26 -23.5 37.5t-73.5 21.5q-27 5 -48.5 11t-45.5 17.5t-40 27t-26.5 39.5t-10.5 54q0 92 72 143.5t178 51.5q102 0 155.5 -45t46.5 -132h-160q2 32 -14.5 50t-46.5 18q-73 0 -73 -58q0 -26 23.5 -37.5t73.5 -21.5 q35 -7 61 -15.5t53.5 -24t42.5 -42t15 -61.5q0 -83 -66 -137t-157 -64l-44 -48q40 1 69.5 -17t29.5 -55q0 -56 -48 -85.5t-119 -29.5q-41 0 -70 15l12 68q25 -13 61 -13q42 0 42 30q0 21 -33 21q-13 0 -33 -5l-20 48l67 72q-82 11 -124.5 56.5t-31.5 124.5z" />
<glyph horiz-adv-x="462" d="M100 428l20 115h432l-20 -115h-134l-18 -100h81l-20 -115h-81l-37 -213h-166l37 213h-69l20 115h69l18 100h-132z" />
<glyph horiz-adv-x="462" d="M100 428l20 115h432l-20 -115h-134l-75 -428h-166l75 428h-132zM171 695h136l53 -34l66 34h140l-148 -115h-141z" />
<glyph horiz-adv-x="462" d="M94 -233l12 68q25 -13 61 -13q42 0 42 30q0 21 -33 21q-13 0 -33 -5l-20 48l78 84h-44l75 428h-132l20 115h432l-20 -115h-134l-75 -428h-35l-56 -61q40 1 69.5 -17t29.5 -55q0 -56 -48 -85.5t-119 -29.5q-41 0 -70 15z" />
<glyph horiz-adv-x="462" d="M100 428l20 115h432l-20 -115h-134l-75 -428h-166l75 428h-132zM103 -248l56 200h157l-95 -200h-118z" />
<glyph horiz-adv-x="628" d="M101 199l61 344h166l-58 -329q-10 -60 7.5 -87t63.5 -27q88 0 106 99l61 344h150l-58 -329q-19 -109 -98 -169t-183 -60q-118 0 -177 54t-41 160zM299 580l122 115h194l-183 -115h-133z" />
<glyph horiz-adv-x="628" d="M101 199l61 344h166l-58 -329q-10 -60 7.5 -87t63.5 -27q88 0 106 99l61 344h150l-58 -329q-19 -109 -98 -169t-183 -60q-118 0 -177 54t-41 160zM273 695h110q-5 -29 48 -29q54 0 59 29h111q-11 -62 -64.5 -92t-121.5 -30q-69 0 -111 29.5t-31 92.5z" />
<glyph horiz-adv-x="628" d="M101 199l61 344h166l-58 -329q-10 -60 7.5 -87t63.5 -27q88 0 106 99l61 344h150l-58 -329q-19 -109 -98 -169t-183 -60q-118 0 -177 54t-41 160zM219 580l148 115h141l106 -115h-136l-54 34l-65 -34h-140z" />
<glyph horiz-adv-x="628" d="M101 199l61 344h166l-58 -329q-10 -60 7.5 -87t63.5 -27q88 0 106 99l61 344h150l-58 -329q-19 -109 -98 -169t-183 -60q-118 0 -177 54t-41 160zM254 638q0 35 28 58.5t66 23.5q30 0 49 -17.5t19 -44.5q0 -35 -27.5 -58t-65.5 -23q-31 0 -50 17t-19 44zM442 638 q0 35 27.5 58.5t65.5 23.5q31 0 49.5 -17t18.5 -44q0 -35 -27 -58.5t-66 -23.5q-31 0 -49.5 17t-18.5 44z" />
<glyph horiz-adv-x="628" d="M101 199l61 344h166l-58 -329q-10 -60 7.5 -87t63.5 -27q88 0 106 99l61 344h150l-58 -329q-19 -109 -98 -169t-183 -60q-118 0 -177 54t-41 160zM260 695h185l89 -115h-123z" />
<glyph horiz-adv-x="628" d="M101 199l61 344h166l-58 -329q-10 -60 7.5 -87t63.5 -27q88 0 106 99l61 344h150l-58 -329q-19 -109 -98 -169t-183 -60q-118 0 -177 54t-41 160zM220 580l103 115h173l-156 -115h-120zM418 580l102 115h174l-156 -115h-120z" />
<glyph horiz-adv-x="628" d="M101 199l61 344h166l-58 -329q-10 -60 7.5 -87t63.5 -27q88 0 106 99l61 344h150l-58 -329q-19 -109 -98 -169t-183 -60q-118 0 -177 54t-41 160zM274 590l18 101h288l-18 -101h-288z" />
<glyph horiz-adv-x="628" d="M101 199l61 344h166l-58 -329q-10 -60 7.5 -87t63.5 -27q88 0 106 99l61 344h150l-58 -329q-14 -82 -63.5 -136.5t-120.5 -77.5h2q-66 -32 -96 -63.5t-30 -57.5q0 -14 10 -22t22 -8q33 0 70 15l-15 -88q-48 -24 -126 -24q-51 0 -78.5 25.5t-27.5 63.5q0 82 111 148 q-89 13 -130.5 66t-26.5 144z" />
<glyph horiz-adv-x="628" d="M101 199l61 344h166l-58 -329q-10 -60 7.5 -87t63.5 -27q88 0 106 99l61 344h150l-58 -329q-19 -109 -98 -169t-183 -60q-118 0 -177 54t-41 160zM310 628q0 41 37 67.5t94 26.5q47 0 75 -20t28 -52q0 -41 -37 -67.5t-95 -26.5q-47 0 -74.5 20t-27.5 52zM396 635 q0 -22 26 -22q15 0 25 8.5t10 21.5q0 22 -26 22q-15 0 -25 -8.5t-10 -21.5z" />
<glyph horiz-adv-x="628" d="M101 199l61 344h166l-58 -329q-10 -60 7.5 -87t63.5 -27q88 0 106 99l61 344h150l-58 -329q-19 -109 -98 -169t-183 -60q-118 0 -177 54t-41 160zM238 614q50 96 126 96q26 0 71.5 -13.5t61.5 -13.5q20 0 39 25l80 -38q-48 -96 -126 -96q-26 0 -71.5 13.5t-61.5 13.5 q-19 0 -38 -25z" />
<glyph horiz-adv-x="781" d="M100 543h164l11 -156l13 -176l71 176l61 156h145l11 -156l15 -176l136 332h154l-247 -543h-148l-13 149l-12 176l-69 -176l-59 -149h-164zM379 580l122 115h194l-183 -115h-133z" />
<glyph horiz-adv-x="781" d="M100 543h164l11 -156l13 -176l71 176l61 156h145l11 -156l15 -176l136 332h154l-247 -543h-148l-13 149l-12 176l-69 -176l-59 -149h-164zM299 580l148 115h141l106 -115h-136l-54 34l-65 -34h-140z" />
<glyph horiz-adv-x="781" d="M100 543h164l11 -156l13 -176l71 176l61 156h145l11 -156l15 -176l136 332h154l-247 -543h-148l-13 149l-12 176l-69 -176l-59 -149h-164zM334 638q0 35 28 58.5t66 23.5q30 0 49 -17.5t19 -44.5q0 -35 -27.5 -58t-65.5 -23q-31 0 -50 17t-19 44zM522 638q0 35 27.5 58.5 t65.5 23.5q31 0 49.5 -17t18.5 -44q0 -35 -27 -58.5t-66 -23.5q-31 0 -49.5 17t-18.5 44z" />
<glyph horiz-adv-x="781" d="M100 543h164l11 -156l13 -176l71 176l61 156h145l11 -156l15 -176l136 332h154l-247 -543h-148l-13 149l-12 176l-69 -176l-59 -149h-164zM340 695h185l89 -115h-123z" />
<glyph horiz-adv-x="494" d="M100 543h166l58 -207l131 207h149l-232 -354l-33 -189h-166l36 207zM251 580l122 115h194l-183 -115h-133z" />
<glyph horiz-adv-x="494" d="M100 543h166l58 -207l131 207h149l-232 -354l-33 -189h-166l36 207zM166 580l148 115h141l106 -115h-136l-54 34l-65 -34h-140z" />
<glyph horiz-adv-x="494" d="M100 543h166l58 -207l131 207h149l-232 -354l-33 -189h-166l36 207zM201 638q0 35 28 58.5t66 23.5q30 0 49 -17.5t19 -44.5q0 -35 -27.5 -58t-65.5 -23q-31 0 -50 17t-19 44zM389 638q0 35 27.5 58.5t65.5 23.5q31 0 49.5 -17t18.5 -44q0 -35 -27 -58.5t-66 -23.5 q-31 0 -49.5 17t-18.5 44z" />
<glyph horiz-adv-x="494" d="M100 543h166l58 -207l131 207h149l-232 -354l-33 -189h-166l36 207zM192 695h185l89 -115h-123z" />
<glyph horiz-adv-x="432" d="M30 0l20 115l258 313h-202l20 115h386l-20 -115l-258 -313h202l-20 -115h-386zM213 580l122 115h194l-183 -115h-133z" />
<glyph horiz-adv-x="432" d="M30 0l20 115l258 313h-202l20 115h386l-20 -115l-258 -313h202l-20 -115h-386zM154 695h136l53 -34l66 34h140l-148 -115h-141z" />
<glyph horiz-adv-x="432" d="M30 0l20 115l258 313h-202l20 115h386l-20 -115l-258 -313h202l-20 -115h-386zM258 636q0 37 28.5 61t68.5 24q31 0 51 -17.5t20 -45.5q0 -37 -28.5 -60.5t-68.5 -23.5q-32 0 -51.5 17t-19.5 45z" />
<glyph horiz-adv-x="781" d="M-10 0l453 543h398l-20 -115h-212l-16 -90h195l-20 -115h-196l-19 -108h212l-20 -115h-378l18 105h-142l-79 -105h-174zM329 220h77l24 139zM442 580l122 115h194l-183 -115h-133z" />
<glyph horiz-adv-x="659" d="M60 416l19 110h80l7 40q17 96 78.5 144.5t142.5 48.5q62 0 99 -19l-16 -95q-28 7 -54 7q-65 0 -80 -85l-7 -41h340l-98 -556q-34 -193 -231 -193q-52 0 -90 19l17 95q28 -7 53 -7q26 0 49.5 21t31.5 64l78 447h-170l-73 -416h-170l73 416h-79zM512 651q0 48 33.5 82 t80.5 34q38 0 58.5 -23t20.5 -61q0 -48 -33.5 -82t-80.5 -34q-38 0 -58.5 23t-20.5 61z" />
<glyph horiz-adv-x="709" d="M60 416l19 110h80l7 40q17 96 78.5 144.5t142.5 48.5q72 0 109 -19l-16 -95q-28 7 -64 7q-65 0 -80 -85l-7 -41h169l24 134h170l-24 -134h101l-19 -110h-101l-73 -416h-170l73 416h-170l-73 -416h-170l73 416h-79z" />
<glyph horiz-adv-x="1009" d="M60 416l19 110h80l7 40q17 96 78.5 144.5t142.5 48.5q72 0 109 -19l-16 -95q-28 7 -64 7q-65 0 -80 -85l-7 -41h180l7 40q17 96 78.5 144.5t142.5 48.5q62 0 99 -19l-16 -95q-28 7 -54 7q-65 0 -80 -85l-7 -41h340l-98 -556q-34 -193 -231 -193q-52 0 -90 19l17 95 q28 -7 53 -7q26 0 49.5 21t31.5 64l78 447h-170l-73 -416h-170l73 416h-180l-73 -416h-170l73 416h-79zM862 651q0 48 33.5 82t80.5 34q38 0 58.5 -23t20.5 -61q0 -48 -33.5 -82t-80.5 -34q-38 0 -58.5 23t-20.5 61z" />
<glyph horiz-adv-x="1059" d="M60 416l19 110h80l7 40q17 96 78.5 144.5t142.5 48.5q72 0 109 -19l-16 -95q-28 7 -64 7q-65 0 -80 -85l-7 -41h180l7 40q17 96 78.5 144.5t142.5 48.5q72 0 109 -19l-16 -95q-28 7 -64 7q-65 0 -80 -85l-7 -41h169l24 134h170l-24 -134h101l-19 -110h-101l-73 -416h-170 l73 416h-170l-73 -416h-170l73 416h-180l-73 -416h-170l73 416h-79z" />
<glyph horiz-adv-x="729" d="M60 416l19 110h99l24 134h170l-24 -134h170l24 134h170l-24 -134h101l-19 -110h-101l-73 -416h-170l73 416h-170l-73 -416h-170l73 416h-99z" />
<glyph horiz-adv-x="352" d="M109 550q0 82 42.5 140.5t115.5 58.5q44 0 69 -34l4 25h122l-52 -300h-122l5 27q-45 -36 -91 -36q-48 0 -70.5 33t-22.5 86zM233 565q0 -49 32 -49q23 0 39 16l20 118q-10 14 -30 14q-29 0 -45 -26t-16 -73z" />
<glyph horiz-adv-x="352" d="M98 440l74 424h122l-26 -150q44 35 90 35q48 0 70.5 -32t22.5 -85q0 -82 -42.5 -141.5t-114.5 -59.5q-45 0 -70 34l-4 -25h-122zM236 530q12 -14 30 -14q29 0 45.5 27.5t16.5 74.5q0 46 -33 46q-20 0 -38 -15z" />
<glyph horiz-adv-x="334" d="M111 561q0 84 55 136t138 52q60 0 98 -33t32 -90h-116q2 23 -4.5 33.5t-23.5 10.5t-29 -11t-17.5 -28.5t-8 -34t-2.5 -33.5q0 -52 29 -52q26 0 41 37h116q-16 -53 -65 -85t-106 -32q-65 0 -101 35t-36 95z" />
<glyph horiz-adv-x="352" d="M109 550q0 82 42.5 140.5t115.5 58.5q44 0 69 -35l26 150h122l-74 -424h-122l5 27q-45 -36 -91 -36q-48 0 -70.5 33t-22.5 86zM233 565q0 -49 32 -49q23 0 39 16l-2 -11l23 129q-12 14 -31 14q-29 0 -45 -26t-16 -73z" />
<glyph horiz-adv-x="339" d="M111 562q0 83 57.5 135t135.5 52q73 0 110 -44t14 -137h-196v-8q0 -49 33 -49q27 0 36 23h117q-14 -48 -63.5 -75.5t-103.5 -27.5q-67 0 -103.5 35t-36.5 96zM241 624h79q4 48 -30 48t-49 -48z" />
<glyph horiz-adv-x="258" d="M121 657l14 83h48l3 17q10 61 50.5 88.5t95.5 27.5q48 0 73 -11l-13 -74q-17 4 -38 4q-40 0 -46 -35l-3 -17h78l-14 -83h-79l-37 -217h-122l37 217h-47z" />
<glyph horiz-adv-x="352" d="M89 421h117q-3 -18 7 -23.5t28 -5.5q38 0 45 37l8 46q-45 -35 -90 -35q-48 0 -71 31.5t-23 83.5q0 82 42 138t115 56q44 0 69 -34l4 25h122l-52 -300q-11 -62 -66 -94.5t-117 -32.5q-67 0 -106.5 25t-31.5 83zM234 571q0 -46 33 -46q23 0 38 15l19 110q-10 14 -30 14 q-60 0 -60 -93z" />
<glyph horiz-adv-x="365" d="M98 440l74 424h122l-28 -162q56 47 114 47q39 0 64 -22.5t16 -76.5l-37 -210h-122l31 179q7 36 -30 36q-20 0 -48 -19l-34 -196h-122z" />
<glyph horiz-adv-x="162" d="M98 440l52 300h122l-52 -300h-122zM159 814q0 31 22 52t56 21q26 0 41 -14.5t15 -38.5q0 -30 -22.5 -51.5t-55.5 -21.5q-26 0 -41 15t-15 38z" />
<glyph horiz-adv-x="162" d="M77 321l73 419h122l-73 -419h-122zM159 814q0 31 22 52t56 21q26 0 41 -14.5t15 -38.5q0 -30 -22.5 -51.5t-55.5 -21.5q-26 0 -41 15t-15 38z" />
<glyph horiz-adv-x="339" d="M98 440l74 424h122l-43 -247l98 123h122l-117 -138l73 -162h-128l-55 136l-24 -136h-122z" />
<glyph horiz-adv-x="162" d="M98 440l74 424h122l-74 -424h-122z" />
<glyph horiz-adv-x="560" d="M98 440l52 300h122l-7 -39q57 48 113 48q65 0 78 -50q64 50 121 50q39 0 63 -22.5t15 -76.5l-37 -210h-122l31 179q4 20 -3 28t-25 8q-21 0 -45 -19l-35 -196h-122l31 179q4 20 -3 28t-25 8q-22 0 -46 -19l1 7l-35 -203h-122z" />
<glyph horiz-adv-x="365" d="M98 440l52 300h122l-7 -39q57 48 115 48q39 0 64 -22.5t16 -76.5l-37 -210h-122l31 179q7 36 -30 36q-20 0 -48 -19l1 7l-35 -203h-122z" />
<glyph horiz-adv-x="348" d="M111 563q0 82 55.5 134t139.5 52q65 0 102 -35t37 -95q0 -83 -55 -135.5t-140 -52.5q-64 0 -101.5 35.5t-37.5 96.5zM232 560q0 -49 32 -49q30 0 45 31.5t15 79.5t-32 48q-26 0 -43 -29.5t-17 -80.5z" />
<glyph horiz-adv-x="352" d="M77 321l73 419h122l-5 -27q45 36 91 36q48 0 70.5 -32t22.5 -85q0 -82 -42.5 -141.5t-114.5 -59.5q-45 0 -70 35l-25 -145h-122zM235 530q14 -14 31 -14q29 0 45.5 27.5t16.5 74.5q0 46 -33 46q-21 0 -39 -15z" />
<glyph horiz-adv-x="352" d="M109 550q0 82 42.5 140.5t115.5 58.5q44 0 69 -34l4 25h122l-73 -419h-122l25 145q-44 -35 -90 -35q-48 0 -70.5 33t-22.5 86zM233 565q0 -49 32 -49q23 0 39 16l20 118q-10 14 -30 14q-29 0 -45 -26t-16 -73z" />
<glyph horiz-adv-x="275" d="M98 440l52 300h122l-10 -55q20 30 47 47t50 17t36 -10l-18 -105q-19 9 -46 9q-53 0 -81 -30l1 3l-31 -176h-122z" />
<glyph horiz-adv-x="319" d="M105 533h115q-2 -14 7 -22t28 -8q37 0 37 24q0 15 -50 22q-24 3 -40 7.5t-36.5 13.5t-31.5 26.5t-11 41.5q0 57 47 84t112 27q66 0 102 -24t30 -70h-115q1 12 -5.5 17.5t-23.5 5.5q-13 0 -22.5 -6t-9.5 -16q0 -13 40 -19q7 0 10 -1q26 -4 40.5 -7.5t35.5 -12t31.5 -25.5 t10.5 -41q0 -58 -48.5 -88.5t-115.5 -30.5q-63 0 -103 26.5t-34 75.5z" />
<glyph horiz-adv-x="250" d="M121 657l14 83h49l13 76h122l-13 -76h64l-14 -83h-65l-18 -100q-8 -45 25 -45q13 0 33 6l-13 -74q-45 -13 -76 -13q-113 0 -93 112l20 114h-48z" />
<glyph horiz-adv-x="362" d="M113 528l37 212h122l-31 -181q-4 -20 3 -28t25 -8q25 0 47 19l34 198h122l-52 -300h-122l6 36q-58 -47 -111 -47q-39 0 -64 22.5t-16 76.5z" />
<glyph horiz-adv-x="352" d="M135 740h122l6 -54l13 -129l58 129l24 54h119l-164 -300h-116z" />
<glyph horiz-adv-x="534" d="M135 740h117l5 -49l8 -125l58 125l23 49h101l7 -49l13 -126l75 175h117l-158 -300h-108l-5 49l-11 126l-59 -126l-24 -49h-108z" />
<glyph horiz-adv-x="360" d="M83 440l137 150l-84 150h124l34 -69l59 69h121l-130 -143l89 -157h-123l-40 77l-65 -77h-122z" />
<glyph horiz-adv-x="352" d="M133 321l64 119l-62 300h122l6 -54l13 -129l58 129l24 54h119l-227 -419h-117z" />
<glyph horiz-adv-x="280" d="M88 440l14 82l151 135h-121l14 83h254l-14 -83l-151 -135h127l-14 -82h-260z" />
<glyph horiz-adv-x="352" d="M10 -10q0 82 42.5 140.5t115.5 58.5q44 0 69 -34l4 25h122l-52 -300h-122l5 27q-45 -36 -91 -36q-48 0 -70.5 33t-22.5 86zM134 5q0 -49 32 -49q23 0 39 16l20 118q-11 14 -30 14q-29 0 -45 -26t-16 -73z" />
<glyph horiz-adv-x="352" d="M-1 -120l74 424h122l-26 -150q44 35 90 35q48 0 70.5 -32t22.5 -85q0 -82 -42.5 -141.5t-114.5 -59.5q-45 0 -70 34l-4 -25h-122zM137 -30q12 -14 30 -14q29 0 45.5 27.5t16.5 74.5q0 46 -33 46q-20 0 -38 -15z" />
<glyph horiz-adv-x="334" d="M12 1q0 84 55 136t138 52q60 0 98 -33t32 -90h-116q2 23 -4.5 33.5t-23.5 10.5t-29 -11t-17.5 -28.5t-8 -34t-2.5 -33.5q0 -52 29 -52q26 0 41 37h116q-16 -53 -65 -85t-106 -32q-65 0 -101 35t-36 95z" />
<glyph horiz-adv-x="352" d="M10 -10q0 82 42.5 140.5t115.5 58.5q44 0 69 -35l26 150h122l-74 -424h-122l5 27q-45 -36 -91 -36q-48 0 -70.5 33t-22.5 86zM134 5q0 -49 32 -49q23 0 39 16l-2 -11l23 129q-12 14 -31 14q-29 0 -45 -26t-16 -73z" />
<glyph horiz-adv-x="339" d="M12 2q0 83 57.5 135t135.5 52q73 0 110 -44t14 -137h-196v-8q0 -49 33 -49q27 0 36 23h117q-14 -48 -63.5 -75.5t-103.5 -27.5q-67 0 -103.5 35t-36.5 96zM142 64h79q4 48 -30 48t-49 -48z" />
<glyph horiz-adv-x="258" d="M22 97l14 83h48l3 17q10 61 50.5 88.5t95.5 27.5q48 0 73 -11l-13 -74q-17 4 -38 4q-40 0 -46 -35l-3 -17h78l-14 -83h-79l-37 -217h-122l37 217h-47z" />
<glyph horiz-adv-x="352" d="M-9 -139h117q-3 -18 7 -23.5t28 -5.5q38 0 45 37l8 46q-45 -35 -90 -35q-48 0 -71 31.5t-23 83.5q0 82 42 138t115 56q44 0 69 -34l4 25h122l-52 -300q-11 -62 -66 -94.5t-117 -32.5q-67 0 -106.5 25t-31.5 83zM136 11q0 -46 33 -46q23 0 38 15l19 110q-10 14 -30 14 q-60 0 -60 -93z" />
<glyph horiz-adv-x="365" d="M-1 -120l74 424h122l-28 -162q56 47 114 47q39 0 64 -22.5t16 -76.5l-37 -210h-122l31 179q7 36 -30 36q-20 0 -48 -19l-34 -196h-122z" />
<glyph horiz-adv-x="162" d="M-1 -120l52 300h122l-52 -300h-122zM60 254q0 31 22 52t56 21q26 0 41 -14.5t15 -38.5q0 -30 -22.5 -51.5t-55.5 -21.5q-26 0 -41 15t-15 38z" />
<glyph horiz-adv-x="162" d="M-22 -239l73 419h122l-73 -419h-122zM60 254q0 31 22 52t56 21q26 0 41 -14.5t15 -38.5q0 -30 -22.5 -51.5t-55.5 -21.5q-26 0 -41 15t-15 38z" />
<glyph horiz-adv-x="339" d="M-1 -120l74 424h122l-43 -247l98 123h122l-117 -138l73 -162h-128l-55 136l-24 -136h-122z" />
<glyph horiz-adv-x="162" d="M-1 -120l74 424h122l-74 -424h-122z" />
<glyph horiz-adv-x="560" d="M-1 -120l52 300h122l-7 -39q57 48 113 48q65 0 78 -50q64 50 121 50q39 0 63 -22.5t15 -76.5l-37 -210h-122l31 179q4 20 -3 28t-25 8q-21 0 -45 -19l-35 -196h-122l31 179q4 20 -3 28t-25 8q-22 0 -46 -19l1 7l-35 -203h-122z" />
<glyph horiz-adv-x="365" d="M-1 -120l52 300h122l-7 -39q57 48 115 48q39 0 64 -22.5t16 -76.5l-37 -210h-122l31 179q7 36 -30 36q-20 0 -48 -19l1 7l-35 -203h-122z" />
<glyph horiz-adv-x="348" d="M12 3q0 82 55.5 134t139.5 52q65 0 102 -35t37 -95q0 -83 -55 -135.5t-140 -52.5q-64 0 -101.5 35.5t-37.5 96.5zM133 0q0 -49 32 -49q30 0 45 31.5t15 79.5t-32 48q-26 0 -43 -29.5t-17 -80.5z" />
<glyph horiz-adv-x="352" d="M-21 -239l73 419h122l-5 -27q45 36 91 36q48 0 70.5 -32t22.5 -85q0 -82 -42.5 -141.5t-114.5 -59.5q-45 0 -70 35l-25 -145h-122zM137 -30q14 -14 31 -14q29 0 45.5 27.5t16.5 74.5q0 46 -33 46q-21 0 -39 -15z" />
<glyph horiz-adv-x="352" d="M11 -10q0 82 42.5 140.5t115.5 58.5q44 0 69 -34l4 25h122l-73 -419h-122l25 145q-44 -35 -90 -35q-48 0 -70.5 33t-22.5 86zM135 5q0 -49 32 -49q23 0 39 16l20 118q-10 14 -30 14q-29 0 -45 -26t-16 -73z" />
<glyph horiz-adv-x="275" d="M-1 -120l52 300h122l-10 -55q20 30 47 47t50 17t36 -10l-18 -105q-20 9 -46 9q-53 0 -81 -30l1 3l-31 -176h-122z" />
<glyph horiz-adv-x="319" d="M6 -27h115q-2 -14 7 -22t28 -8q37 0 37 24q0 15 -50 22q-24 3 -40 7.5t-36.5 13.5t-31.5 26.5t-11 41.5q0 57 47 84t112 27q66 0 102 -24t30 -70h-115q1 12 -5.5 17.5t-23.5 5.5q-13 0 -22.5 -6t-9.5 -16q0 -13 40 -19h3.5t3 -0.5t3.5 -0.5q26 -4 40.5 -7.5t35.5 -12 t31.5 -25.5t10.5 -41q0 -58 -48.5 -88.5t-115.5 -30.5q-63 0 -103 26.5t-34 75.5z" />
<glyph horiz-adv-x="250" d="M22 97l14 83h49l13 76h122l-13 -76h64l-14 -83h-65l-18 -100q-8 -45 25 -45q13 0 33 6l-13 -74q-45 -13 -76 -13q-113 0 -93 112l20 114h-48z" />
<glyph horiz-adv-x="362" d="M14 -32l37 212h122l-31 -181q-4 -20 3 -28t25 -8q25 0 47 19l34 198h122l-52 -300h-122l6 36q-58 -47 -111 -47q-39 0 -64 22.5t-16 76.5z" />
<glyph horiz-adv-x="352" d="M37 180h122l6 -54l13 -129l58 129l24 54h119l-164 -300h-116z" />
<glyph horiz-adv-x="534" d="M37 180h117l5 -49l8 -125l58 125l23 49h101l7 -49l13 -126l75 175h117l-158 -300h-108l-5 49l-11 126l-59 -126l-24 -49h-108z" />
<glyph horiz-adv-x="360" d="M-16 -120l137 150l-84 150h124l34 -69l59 69h121l-130 -143l89 -157h-123l-40 77l-65 -77h-122z" />
<glyph horiz-adv-x="352" d="M35 -239l64 119l-62 300h122l6 -54l13 -129l58 129l24 54h119l-227 -419h-117z" />
<glyph horiz-adv-x="280" d="M-10 -120l14 82l151 135h-121l14 83h254l-14 -83l-151 -135h127l-14 -82h-260z" />
<glyph d="M65 218h178q-5 -57 20.5 -83t68.5 -26q50 0 80 22t30 67q0 26 -22.5 44.5t-43 25t-71.5 18.5q-7 2 -11 3q-184 44 -184 186q0 95 65 157.5t171 77.5l20 110h160l-21 -116q74 -20 111.5 -74t30.5 -140h-178q4 51 -18 76t-63 25q-48 0 -75 -22t-27 -65q0 -26 22.5 -44.5 t43 -25t71.5 -18.5q7 -2 11 -3q39 -9 68 -21.5t57.5 -32.5t44 -51.5t15.5 -73.5q0 -90 -69 -156t-170 -86l-20 -112h-160l20 114q-82 19 -124.5 75t-30.5 149z" />
<glyph d="M100 203q0 123 59.5 210.5t157.5 115.5l21 122h160l-21 -121q62 -20 93.5 -72t23.5 -132h-161q5 61 -6 85.5t-46 24.5q-38 0 -64.5 -40t-37 -90.5t-10.5 -102.5q0 -113 55 -113q56 0 83 100h161q-22 -76 -70.5 -126t-115.5 -68l-20 -116h-160l20 116q-122 41 -122 207z " />
<glyph d="M30 0l23 129h69l28 162h-69l23 129h69l13 76q18 102 91 160.5t184 58.5q240 0 215 -225h-178q9 81 -57 81q-67 0 -77 -59l-16 -92h181l-23 -129h-181l-28 -162h280l-23 -129h-524z" />
<glyph d="M74 82l22 129h155l14 80h-155l23 129h116l-115 280h178l78 -230l160 230h165l-214 -280h117l-23 -129h-155l-14 -80h155l-22 -129h-156l-14 -82h-175l14 82h-154z" />
<glyph d="M2 -48h144q-1 -29 4.5 -40t18.5 -11q25 0 34 49l39 222h-155l23 129h155l38 215q35 199 229 199q170 0 153 -175h-144q1 51 -25 51q-24 0 -33 -49l-43 -241h155l-23 -129h-154l-35 -196q-35 -199 -229 -199q-169 0 -152 175z" />
<glyph d="M60 172l23 129h52q3 36 11 80h-49l23 129h67q43 96 112 150.5t151 54.5q108 0 161.5 -69t33.5 -206h-178q10 74 2.5 110t-43.5 36q-45 0 -82 -76h93l-23 -129h-109q-6 -38 -9 -80h104l-23 -129h-80q11 -58 49 -58q36 0 54 32.5t35 113.5h178q-28 -137 -106 -206t-186 -69 q-162 0 -185 187h-76z" />
<glyph d="M30 0l123 700h194q92 0 133 -45t41 -135q0 -44 -11.5 -98t-23.5 -92.5t-41 -120.5h-103q6 21 21 73t20.5 73.5t11.5 56t6 62.5q0 117 -83 117h-74l-104 -591h-110zM175 0l87 491h110l-68 -382h58q66 0 102.5 57.5t60.5 191.5q21 116 28 342h102q1 -15 1 -76 q0 -148 -16 -259.5t-42.5 -180t-66.5 -111t-82.5 -58t-95.5 -15.5h-178z" />
<glyph d="M27 -120l76 269q-9 42 -9 93q0 129 39 233t108 166l51 179h170l-30 -105q26 0 56 -5l31 110h170l-60 -212q31 -66 16 -168h-188q8 70 -3 103t-48 33q-51 0 -95 -99t-44 -235q0 -118 59 -118q37 0 60 33t39 103h188q-33 -162 -147 -231l-42 -149h-170l30 105q-32 3 -55 10 l-32 -115h-170z" />
<glyph d="M30 0l91 516h140l-9 -48q27 32 59 47.5t56 15.5q42 0 61 -27l83 132h170l-72 -115q48 -28 32 -119l-71 -402h-140l58 327l-84 -134l-34 -193h-86l-69 -110h-170l69 110h-84zM192 125l84 135l19 107q6 37 -18 37q-19 0 -40 -23z" />
<glyph d="M55 179l22 129h50l14 80h-49l22 129h50l32 183h140l101 -378l34 217l28 161h150l-32 -183h50l-22 -129h-51l-14 -80h50l-22 -129h-51l-31 -179h-140l-101 377l-34 -217l-28 -160h-150l31 179h-49z" />
<glyph d="M113 384l22 129h263q-14 58 -70 58h-183l23 129h43h465l-23 -129h-106q23 -27 33 -58h63l-22 -129h-51q-24 -70 -85 -112t-142 -56l196 -216h-196l-186 210l22 122h108q59 0 90 52h-264z" />
<glyph d="M45 179l22 129h68l5 80h-58l22 129h42l10 183h143l-31 -238l-32 -230l61 230l66 238h139l-19 -238l-19 -230l49 230l54 238h123l-55 -183h43l-22 -129h-59l-24 -80h68l-22 -129h-85l-53 -179h-144l16 195l23 230l-61 -230l-53 -195h-143l9 179h-83z" />
<glyph d="M32 0l20 113h526l-20 -113h-526zM89 305q0 113 66.5 184.5t158.5 71.5q83 0 117 -56l13 74h-91l20 113h91l9 52h162l-9 -52h54l-20 -113h-54l-74 -420h-162l7 43q-67 -57 -149 -57q-68 0 -103.5 42.5t-35.5 117.5zM257 333q0 -34 16.5 -54.5t46.5 -20.5q35 0 72 25 l25 141q-28 23 -58 23q-44 0 -73 -32.5t-29 -81.5z" />
<glyph d="M74 304l22 129h60l47 267h175l-47 -267h11l185 267h162l-189 -267h129l-22 -129h-127l85 -304h-170l-83 304h-4l-53 -304h-175l53 304h-59z" />
<glyph d="M107 59l26 144l122 40l9 51l-122 -40l25 144l123 40l23 133h-166l22 129h507l-22 -129h-166l-13 -72l122 40l-25 -144l-122 -40l-9 -51l122 40l-26 -144l-122 -40l-28 -160h-175l18 99z" />
<glyph d="M80 0l68 388h-66l22 129h67l32 183h188q91 0 147 -46t61 -137h60l-22 -129h-56q-30 -87 -105 -132.5t-171 -45.5h-13l-37 -210h-175zM316 344h13q41 0 67 39t26 105q0 78 -54 78h-13z" />
<glyph d="M67 137q0 86 76 147h-72l23 129h291q87 51 87 118q0 28 -17.5 44t-46.5 16q-41 0 -71.5 -25t-41.5 -76h-178q60 225 315 225q99 0 157.5 -39.5t58.5 -112.5q0 -89 -78 -150h83l-23 -129h-302q-85 -49 -85 -115q0 -28 17 -44t46 -16q41 0 71.5 25t41.5 76h178 q-60 -225 -315 -225q-99 0 -157 39.5t-58 112.5z" />
<glyph d="M94 242q0 173 68.5 297.5t180.5 161.5l21 119h160l-20 -113q81 -20 119 -87.5t22 -179.5h-188q8 70 -3 103t-48 33q-51 0 -95 -99t-44 -235q0 -118 59 -118q37 0 60 33t39 103h188q-23 -112 -85 -179.5t-150 -87.5l-20 -113h-160l21 118q-125 47 -125 244z" />
<glyph d="M40 0l123 700h150l21 120h160l-22 -124q170 -22 170 -148q0 -56 -34 -104.5t-95 -67.5q101 -32 101 -134q0 -58 -22.5 -103.5t-61.5 -73t-84 -43t-96 -20.5l-22 -122h-160l21 120h-149zM237 124h93q41 0 74 25.5t33 75.5q0 36 -22 52.5t-55 16.5h-93zM288 416h67 q44 0 75 21t31 71q0 34 -22.5 51t-54.5 17h-67z" />
<glyph d="M32 153l85 72q-12 37 -12 85q0 121 62 203l-51 63l105 88l54 -66q62 27 135 27q64 0 110 -23l85 72l91 -108l-86 -73q12 -38 12 -83q0 -122 -63 -205l51 -62l-105 -88l-54 65q-60 -26 -134 -26q-63 0 -110 22l-84 -71zM278 303q0 -104 57 -104q46 0 80 62t34 155 q0 104 -57 104q-46 0 -80 -62t-34 -155z" />
<glyph d="M30 0l77 177h-38l25 139h73l39 90h-46l24 139h82l67 155h150l-67 -155h60l67 155h150l-67 -155h37l-24 -139h-73l-39 -90h46l-25 -139h-81l-77 -177h-150l77 177h-60l-77 -177h-150zM317 316h60l39 90h-60z" />
<glyph horiz-adv-x="514" d="M63 169h160q-3 -37 16 -56t50 -19q80 0 80 60q0 26 -23.5 37.5t-73.5 21.5q-27 5 -48.5 11t-45.5 17.5t-40 27t-26.5 39.5t-10.5 54q0 77 52.5 126.5t136.5 63.5l14 84h146l-15 -89q130 -34 118 -167h-160q2 32 -14.5 50t-46.5 18q-73 0 -73 -58q0 -26 23.5 -37.5 t73.5 -21.5q35 -7 61 -15.5t53.5 -24t42.5 -42t15 -61.5q0 -75 -55 -127t-136 -69l-15 -85h-146l15 86q-69 16 -103 60t-25 116z" />
<glyph horiz-adv-x="494" d="M83 159q0 94 46 161.5t124 90.5l16 90h146l-16 -88q108 -33 96 -160h-143q2 37 -6 54t-34 17q-32 0 -55.5 -45t-23.5 -114q0 -81 41 -81q22 0 35 15t21 48h143q-36 -119 -146 -152l-16 -88h-146l16 90q-98 36 -98 162z" />
<glyph horiz-adv-x="524" d="M40 0l20 115h55l18 103h-53l20 115h54l7 41q14 81 80 132t161 51q93 0 141 -45t38 -132h-160q2 37 -7 52.5t-33 15.5q-41 0 -52 -61l-10 -54h137l-20 -115h-137l-18 -103h214l-20 -115h-435z" />
<glyph horiz-adv-x="494" d="M54 65l20 115h130l9 47h-131l20 115h77l-79 201h166l63 -187l126 187h149l-144 -201h70l-20 -115h-131l-9 -47h132l-20 -115h-132l-11 -65h-166l11 65h-130z" />
<glyph horiz-adv-x="602" d="M-32 -11h160q-1 -30 5.5 -41.5t26.5 -11.5q46 0 57 61l23 129h-110l20 115h110l24 133q14 80 84 131.5t166 51.5q89 0 132.5 -43.5t35.5 -118.5h-160q1 29 -6.5 41t-27.5 12q-45 0 -56 -61l-26 -146h112l-20 -115h-112l-20 -116q-14 -79 -82.5 -131t-158.5 -52 q-93 0 -139 39.5t-38 122.5z" />
<glyph horiz-adv-x="598" d="M54 136l18 105h56q1 18 5 47h-52l18 105h66q36 77 103.5 120.5t157.5 43.5q99 0 153 -55.5t39 -160.5h-160q3 52 -9.5 76.5t-44.5 24.5q-42 0 -72 -49h85l-18 -105h-103q-4 -29 -5 -47h99l-18 -105h-72q14 -36 47 -36q32 0 52.5 24.5t33.5 76.5h160 q-22 -105 -95.5 -160.5t-172.5 -55.5q-157 0 -191 151h-80z" />
<glyph horiz-adv-x="761" d="M80 0l96 543h249q184 0 184 -158q0 -78 -56 -223h-124q44 122 44 184q0 42 -16 60.5t-56 18.5h-116l-75 -425h-130zM243 0l67 381h130l-46 -263h84q65 0 97 40.5t46 118.5q15 83 22 266h124v-69q0 -244 -70.5 -359t-231.5 -115h-222z" />
<glyph horiz-adv-x="553" d="M-34 -93l111 242q-7 31 -7 71q0 103 49.5 183.5t130.5 121.5l52 111h156l-38 -81q16 -1 42 -7l41 88h156l-82 -179q23 -51 13 -116h-160q6 101 -62 101q-38 0 -65 -25t-39 -64.5t-16.5 -72.5t-4.5 -65q0 -50 15.5 -82.5t48.5 -32.5q69 0 98 101h160q-17 -83 -71.5 -136 t-129.5 -71l-40 -87h-156l41 90q-22 7 -38 16l-49 -106h-156z" />
<glyph horiz-adv-x="788" d="M70 0l72 408h150l-9 -51q78 66 148 66q42 0 65 -21l58 91h146l-47 -73q15 3 27 3q112 0 87 -141l-50 -282h-150l46 259q4 26 -3.5 37t-27.5 12l-82 -127l-32 -181h-84l-54 -85h-146l165 257l15 87q8 49 -34 49q-32 0 -60 -26l-50 -282h-150z" />
<glyph horiz-adv-x="629" d="M50 136l18 105h63l8 47h-62l18 105h62l27 150h142l109 -303l27 168l24 135h150l-27 -150h62l-18 -105h-62l-8 -47h61l-18 -105h-62l-24 -136h-142l-110 303l-26 -168l-24 -135h-150l24 136h-62z" />
<glyph horiz-adv-x="475" d="M70 281l18 105h223q-13 52 -74 52h-140l19 105h48h387l-19 -105h-80q17 -23 23 -52h48l-18 -105h-40q-38 -111 -175 -144l137 -137h-193l-118 124l18 105h66q64 0 95 52h-225z" />
<glyph horiz-adv-x="801" d="M44 136l18 105h91l-4 47h-78l18 105h51l-14 150h170l3 -156l1 -176l132 332h145l12 -156l14 -176l60 176l56 156h148l-63 -150h46l-18 -105h-72l-19 -47h82l-18 -105h-108l-57 -136h-148l-13 149l-12 176l-69 -176l-59 -149h-164l-12 136h-119z" />
<glyph horiz-adv-x="471" d="M40 0l18 105h411l-18 -105h-411zM87 253q0 77 51 129.5t115 52.5q66 0 94 -44l11 60h-73l15 87h73l7 39h130l-7 -39h43l-15 -87h-43l-55 -308h-130l6 34q-54 -45 -120 -45q-48 0 -75 33.5t-27 87.5zM231 271q0 -41 36 -41q28 0 55 19l12 70q-20 17 -45 17 q-24 0 -41 -16.5t-17 -48.5z" />
<glyph horiz-adv-x="541" d="M48 233l18 105h63l36 205h166l-30 -171l137 171h156l-164 -205h150l-18 -105h-140l109 -233h-182l-80 190l-34 -190h-166l41 233h-62z" />
<glyph horiz-adv-x="462" d="M61 16l21 121l104 30l6 35l-103 -29l21 121l104 30l18 104h-132l20 115h432l-20 -115h-134l-9 -54l104 30l-21 -122l-105 -30l-6 -35l105 30l-22 -122l-104 -30l-17 -95h-166l8 46z" />
<glyph horiz-adv-x="536" d="M50 294l20 115h62l24 134h182q77 0 129 -34.5t62 -99.5h69l-20 -115h-62q-27 -68 -94.5 -104.5t-152.5 -36.5h-16l-27 -153h-166l52 294h-62zM272 264h16q28 0 53.5 23.5t25.5 76.5q0 37 -14.5 52.5t-34.5 15.5h-16z" />
<glyph horiz-adv-x="567" d="M79 218l18 105h246q77 33 77 77q0 48 -55 48q-62 0 -78 -68h-160q24 87 91 132t168 45q82 0 135 -31.5t53 -91.5q0 -66 -48 -111h49l-18 -105h-247q-75 -32 -75 -76q0 -48 54 -48q63 0 79 68h160q-24 -87 -91.5 -132t-168.5 -45q-82 0 -135 31.5t-53 91.5q0 65 48 110 h-49z" />
<glyph horiz-adv-x="553" d="M70 220q0 122 68 211t173 116l15 89h146l-15 -87q71 -17 108 -70t25 -138h-160q6 101 -62 101q-38 0 -65 -25t-39 -64.5t-16.5 -72.5t-4.5 -65q0 -50 15.5 -82.5t48.5 -32.5q69 0 98 101h160q-17 -85 -73 -138t-133 -70l-15 -86h-146l15 88q-69 21 -106 80t-37 145z" />
<glyph horiz-adv-x="541" d="M60 0l96 543h124l16 93h146l-17 -95q146 -15 146 -118q0 -42 -27 -79.5t-75 -52.5q80 -25 80 -104q0 -87 -63 -133t-155 -53l-17 -94h-146l16 93h-124zM245 107h74q25 0 46.5 17.5t21.5 52.5q0 24 -14 35.5t-33 11.5h-74zM283 327h54q26 0 46.5 14t20.5 49 q0 23 -14.5 34.5t-32.5 11.5h-54z" />
<glyph horiz-adv-x="556" d="M53 125l70 58q-10 26 -10 62q0 74 40 133l-47 55l115 95l51 -59q42 15 91 15q47 0 84 -17l74 61l81 -95l-70 -59q9 -27 9 -61q0 -74 -40 -135l46 -53l-115 -96l-51 59q-42 -15 -90 -15q-45 0 -84 17l-73 -61zM263 246q0 -75 47 -75q81 0 81 141q0 74 -47 74 q-81 0 -81 -140z" />
<glyph horiz-adv-x="587" d="M48 0l61 138h-55l19 106h83l32 72h-62l18 105h90l54 122h142l-54 -122h60l54 122h142l-54 -122h53l-18 -105h-81l-32 -72h60l-19 -106h-88l-61 -138h-142l61 138h-60l-61 -138h-142zM298 244h60l32 72h-60z" />
<glyph horiz-adv-x="632" d="M70 261q0 194 100.5 324t254.5 130q110 0 168.5 -72.5t58.5 -203.5q0 -194 -101 -324t-255 -130q-110 0 -168 72.5t-58 203.5zM223 246l217 333q-19 7 -37 7q-80 0 -130 -93t-50 -228v-19zM282 121q19 -7 37 -7q79 0 129.5 93.5t50.5 227.5v20z" />
<glyph horiz-adv-x="568" d="M60 213q0 160 85.5 269t221.5 109q100 0 150.5 -61.5t50.5 -165.5q0 -160 -86 -269.5t-222 -109.5q-100 0 -150 62t-50 166zM226 195q0 -105 55 -105q51 0 86 85.5t35 206.5q0 104 -55 104q-51 0 -86 -85.5t-35 -205.5z" />
<glyph horiz-adv-x="594" d="M94 213q0 160 85.5 269t221.5 109q100 0 150.5 -61.5t50.5 -165.5q0 -160 -86 -269.5t-222 -109.5q-100 0 -150 62t-50 166zM238 214l176 264q-14 8 -33 8q-47 0 -80.5 -40t-48 -99.5t-14.5 -132.5zM281 99q15 -9 34 -9q69 0 106 80t37 193z" />
<glyph horiz-adv-x="419" d="M50 327l28 159l181 90h170l-102 -576h-170l74 417z" />
<glyph horiz-adv-x="578" d="M40 0l23 129q196 104 267 161.5t71 119.5t-56 62q-36 0 -64 -30.5t-39 -85.5h-161q21 116 96 175.5t190 59.5q95 0 148 -41.5t53 -118.5q0 -88 -58.5 -153.5t-197.5 -148.5h210l-23 -129h-459z" />
<glyph horiz-adv-x="574" d="M22 66h171q-4 -45 19 -70.5t66 -25.5q50 0 78 30t28 82q0 37 -25.5 58.5t-78.5 21.5h-80l20 119h80q61 0 94 37t33 85q0 33 -17.5 51t-49.5 18q-43 0 -73.5 -26t-39.5 -70h-161q26 102 107 158.5t194 56.5q94 0 150.5 -44t56.5 -126q0 -59 -38.5 -112t-94.5 -77 q46 -15 68 -52t22 -84q0 -109 -85 -177t-211 -68q-124 0 -184.5 54.5t-48.5 160.5z" />
<glyph horiz-adv-x="584" d="M30 0l23 129l254 447h171l-259 -447h120l28 160h149l-28 -160h86l-23 -129h-86l-24 -134h-149l24 134h-286z" />
<glyph horiz-adv-x="562" d="M32 76h171q-5 -50 14 -78t59 -28q46 0 76 48t30 114q0 90 -71 90q-49 0 -92 -43h-149l70 397h442l-23 -129h-293l-30 -169q24 27 74 49t92 22q71 0 110 -47.5t39 -134.5q0 -142 -87.5 -229t-209.5 -87q-115 0 -174 59t-48 166z" />
<glyph horiz-adv-x="562" d="M60 255q0 229 100 366.5t254 137.5q100 0 157.5 -53.5t48.5 -163.5h-161q4 48 -14 75t-53 27q-50 0 -93.5 -75t-60.5 -195q32 33 86.5 56t97.5 23q72 0 113 -46t41 -130q0 -130 -88 -211t-209 -81q-108 0 -163.5 69.5t-55.5 200.5zM229 249q0 -145 72 -145 q46 0 72.5 39.5t26.5 93.5q0 89 -70 89q-21 0 -51.5 -9t-48.5 -22q-1 -15 -1 -46z" />
<glyph horiz-adv-x="471" d="M20 -134l328 581h-279l23 129h439l-23 -129l-323 -581h-165z" />
<glyph horiz-adv-x="592" d="M50 169q0 65 38.5 124.5t123.5 91.5q-41 17 -63 53.5t-22 81.5q0 108 85 173.5t205 65.5q94 0 154.5 -48t60.5 -133q0 -64 -38 -116.5t-104 -76.5q51 -22 74 -63t23 -89q0 -112 -86.5 -180t-220.5 -68q-105 0 -167.5 49t-62.5 135zM218 186q0 -36 21.5 -59t62.5 -23 q56 0 87.5 34t31.5 84q0 37 -21.5 61.5t-62.5 24.5q-55 0 -87 -36t-32 -86zM292 522q0 -36 19 -58t50 -22q44 0 74 33t30 88q0 37 -19 57t-51 20q-44 0 -73.5 -31.5t-29.5 -86.5z" />
<glyph d="M32 58h161q-4 -50 21 -71t59 -21q54 0 93.5 61.5t55.5 170.5q-33 -32 -88 -53.5t-97 -21.5q-73 0 -113.5 46t-40.5 130q0 130 88 211t208 81q104 0 162.5 -67t58.5 -194q0 -229 -98.5 -354t-250.5 -125q-103 0 -165.5 49.5t-53.5 157.5zM258 339q0 -35 16 -62t53 -27 q22 0 53.5 9.5t49.5 23.5q1 16 1 50q0 139 -74 139q-46 0 -72.5 -38.5t-26.5 -94.5z" />
<glyph d="M89 260q0 195 93.5 325t243.5 130q105 0 156.5 -73t51.5 -202q0 -196 -93 -325.5t-244 -129.5q-105 0 -156.5 73t-51.5 202zM266 247q0 -123 56 -123t95.5 94.5t39.5 234.5q0 123 -55 123q-56 0 -96 -94.5t-40 -234.5z" />
<glyph d="M89 260q0 195 93.5 325t243.5 130q105 0 156.5 -73t51.5 -202q0 -196 -93 -325.5t-244 -129.5q-105 0 -156.5 73t-51.5 202zM234 261l206 317q-16 8 -38 8q-51 0 -90 -50t-57.5 -122.5t-20.5 -152.5zM283 122q18 -8 39 -8q50 0 89 50t58 122.5t21 153.5z" />
<glyph d="M50 0l23 129h165l72 412l-180 -90l28 159l180 90h175l-100 -571h156l-23 -129h-331h-165z" />
<glyph d="M74 0l25 139q32 25 79 61.5t70.5 55t58 46.5t51 43t39 36.5t32.5 36t21 33t14.5 35t3.5 34.5q0 67 -57 67q-34 0 -59.5 -25.5t-36.5 -81.5h-178q27 116 104.5 175.5t191.5 59.5q96 0 154.5 -45.5t58.5 -128.5q0 -42 -12.5 -78.5t-33 -68t-65.5 -74.5t-90 -80t-127 -101 h265l-25 -139h-484z" />
<glyph d="M67 200h178q-4 -44 17 -65.5t58 -21.5q48 0 74 26.5t26 64.5q0 42 -25 62t-81 20h-70l22 129h70q60 0 92.5 33.5t32.5 80.5q0 58 -54 58q-37 0 -63.5 -24.5t-35.5 -62.5h-178q25 102 106 158.5t195 56.5q94 0 150.5 -44t56.5 -126q0 -59 -38 -109.5t-94 -74.5 q46 -15 68.5 -50.5t22.5 -80.5q0 -109 -85.5 -177t-211.5 -68q-124 0 -184 54.5t-49 160.5z" />
<glyph d="M69 106l22 129l257 465h172l-262 -465h110l27 155h155l-27 -155h79l-22 -129h-80l-19 -106h-155l19 106h-276z" />
<glyph d="M77 200h178q-4 -44 13.5 -65.5t51.5 -21.5q48 0 72.5 45.5t24.5 105.5q0 82 -61 82q-22 0 -49 -11.5t-44 -31.5h-149l70 397h442l-22 -129h-293l-30 -169q24 28 73.5 49.5t91.5 21.5q72 0 111 -46t39 -132q0 -141 -86.5 -225.5t-209.5 -84.5q-117 0 -175.5 54.5 t-47.5 160.5z" />
<glyph d="M94 245q0 209 101.5 339.5t246.5 130.5q97 0 151.5 -50t47.5 -147h-178q2 41 -8 57t-37 16q-39 0 -76 -60t-56 -152q33 32 82.5 53t89.5 21q72 0 113 -46t41 -130q0 -130 -88 -211t-209 -81q-103 0 -162 69t-59 191zM271 235q0 -61 15 -91.5t51 -30.5q44 0 69.5 42 t25.5 90q0 81 -66 81q-20 0 -47.5 -9t-45.5 -23q-2 -38 -2 -59z" />
<glyph d="M124 0l347 571h-300l22 129h460l-22 -129l-342 -571h-165z" />
<glyph d="M65 158q0 41 13.5 78.5t51.5 73t95 51.5q-42 17 -64 53t-22 77q0 105 82.5 164.5t204.5 59.5q96 0 156.5 -44t60.5 -128q0 -58 -38 -108t-102 -74q52 -16 75.5 -54.5t23.5 -86.5q0 -112 -84.5 -173.5t-220.5 -61.5q-107 0 -169.5 44.5t-62.5 128.5zM239 185 q0 -31 21.5 -51.5t60.5 -20.5q50 0 80.5 28t30.5 68q0 32 -21.5 53.5t-60.5 21.5q-50 0 -80.5 -29.5t-30.5 -69.5zM305 488q0 -32 18.5 -51t50.5 -19q43 0 70.5 28t27.5 74q0 32 -19 49.5t-51 17.5q-42 0 -69.5 -26.5t-27.5 -72.5z" />
<glyph d="M87 192h178q-2 -46 11 -64.5t42 -18.5q40 0 78 64t57 161q-33 -33 -83.5 -55t-91.5 -22q-72 0 -112.5 46t-40.5 130q0 129 87 205.5t209 76.5q103 0 162 -69t59 -191q0 -209 -101.5 -339.5t-246.5 -130.5q-99 0 -156.5 52t-50.5 155zM301 465q0 -81 69 -81q20 0 48 9 t45 23q2 32 2 49q0 61 -15 91.5t-51 30.5q-44 0 -71 -37.5t-27 -84.5z" />
<glyph d="M97 223q0 159 85.5 263.5t221.5 104.5q101 0 151 -63t50 -174q0 -158 -85.5 -263.5t-222.5 -105.5q-100 0 -150 63.5t-50 174.5zM263 195q0 -105 55 -105q45 0 83 87.5t38 204.5q0 104 -55 104q-45 0 -83 -87.5t-38 -203.5z" />
<glyph d="M97 223q0 159 85.5 263.5t221.5 104.5q101 0 151 -63t50 -174q0 -158 -85.5 -263.5t-222.5 -105.5q-100 0 -150 63.5t-50 174.5zM241 214l176 264q-14 8 -33 8q-47 0 -80.5 -40t-48 -99.5t-14.5 -132.5zM284 99q15 -9 34 -9q69 0 106 80t37 193z" />
<glyph d="M60 0l19 110h166l54 307l-181 -90l28 159l181 90h170l-83 -466h155l-19 -110h-325h-165z" />
<glyph d="M82 0l23 129q196 104 267 161.5t71 119.5t-56 62q-36 0 -64 -30.5t-39 -85.5h-161q21 116 96 175.5t190 59.5q95 0 148 -41.5t53 -118.5q0 -88 -58.5 -153.5t-197.5 -148.5h210l-23 -129h-459z" />
<glyph d="M42 66h171q-4 -45 19 -70.5t66 -25.5q50 0 78 30t28 82q0 37 -25.5 58.5t-78.5 21.5h-80l20 119h80q61 0 94 37t33 85q0 33 -17.5 51t-49.5 18q-43 0 -73.5 -26t-39.5 -70h-161q26 102 107 158.5t194 56.5q94 0 150.5 -44t56.5 -126q0 -59 -38.5 -112t-94.5 -77 q46 -15 68 -52t22 -84q0 -109 -85 -177t-211 -68q-124 0 -184.5 54.5t-48.5 160.5z" />
<glyph d="M50 0l23 129l254 447h166l-259 -447h115l28 160h149l-28 -160h86l-23 -129h-86l-24 -134h-149l24 134h-276z" />
<glyph d="M55 76h171q-5 -50 14 -78t59 -28q46 0 76 48t30 114q0 90 -71 90q-49 0 -92 -43h-149l70 397h442l-23 -129h-293l-30 -169q24 27 74 49t92 22q71 0 110 -47.5t39 -134.5q0 -142 -87.5 -229t-209.5 -87q-115 0 -174 59t-48 166z" />
<glyph d="M95 255q0 229 100 366.5t254 137.5q100 0 157.5 -53.5t48.5 -163.5h-161q4 48 -14 75t-53 27q-50 0 -93.5 -75t-60.5 -195q32 33 86.5 56t97.5 23q72 0 113 -46t41 -130q0 -130 -88 -211t-209 -81q-108 0 -163.5 69.5t-55.5 200.5zM264 249q0 -145 72 -145 q46 0 72.5 39.5t26.5 93.5q0 89 -70 89q-21 0 -51.5 -9t-48.5 -22q-1 -15 -1 -46z" />
<glyph d="M121 -134l328 581h-279l23 129h439l-23 -129l-323 -581h-165z" />
<glyph d="M67 169q0 65 38.5 124.5t123.5 91.5q-41 17 -63 53.5t-22 81.5q0 108 85 173.5t205 65.5q94 0 154.5 -48t60.5 -133q0 -64 -38 -116.5t-104 -76.5q51 -22 74 -63t23 -89q0 -112 -86.5 -180t-220.5 -68q-105 0 -167.5 49t-62.5 135zM235 186q0 -36 21.5 -59t62.5 -23 q56 0 87.5 34t31.5 84q0 37 -21.5 61.5t-62.5 24.5q-55 0 -87 -36t-32 -86zM309 522q0 -36 19 -58t50 -22q44 0 74 33t30 88q0 37 -19 57t-51 20q-44 0 -73.5 -31.5t-29.5 -86.5z" />
<glyph d="M50 58h161q-4 -50 21 -71t59 -21q54 0 93.5 61.5t55.5 170.5q-33 -32 -88 -53.5t-97 -21.5q-73 0 -113.5 46t-40.5 130q0 130 88 211t208 81q104 0 162.5 -67t58.5 -194q0 -229 -98.5 -354t-250.5 -125q-103 0 -165.5 49.5t-53.5 157.5zM276 339q0 -35 16 -62t53 -27 q22 0 53.5 9.5t49.5 23.5q1 16 1 50q0 139 -74 139q-46 0 -72.5 -38.5t-26.5 -94.5z" />
<glyph horiz-adv-x="545" d="M70 216q0 148 84 244.5t214 96.5q95 0 146 -62t51 -168q0 -148 -84 -245t-214 -97q-95 0 -146 62t-51 169zM237 211q0 -111 52 -111q51 0 80 65.5t29 165.5q0 111 -52 111q-51 0 -80 -65.5t-29 -165.5z" />
<glyph horiz-adv-x="546" d="M70 215q0 149 84 245.5t215 96.5q96 0 146.5 -61.5t50.5 -167.5q0 -150 -83 -246.5t-215 -96.5q-96 0 -147 62t-51 168zM214 206l160 241q-13 5 -25 5q-56 0 -95.5 -64t-39.5 -170v-12zM259 97q13 -7 30 -7q55 0 94 64.5t39 170.5v16z" />
<glyph horiz-adv-x="385" d="M80 334l24 139l145 70h166l-96 -543h-166l71 403z" />
<glyph horiz-adv-x="491" d="M40 0l20 115q25 18 62 44t56 40t47 34.5t42 32.5t32.5 28t27.5 27.5t18 25.5t12.5 26.5t3.5 25.5q0 45 -46 45q-50 0 -67 -72h-160q21 89 89.5 137t159.5 48q84 0 134 -38t50 -105q0 -73 -52.5 -138t-197.5 -161h203l-20 -115h-414z" />
<glyph horiz-adv-x="506" d="M41 155h160q-2 -28 13.5 -43t49.5 -15q37 0 56 21t19 49q0 52 -81 52h-56l18 106h56q47 0 70 22.5t23 52.5q0 20 -11.5 32.5t-33.5 12.5q-29 0 -48.5 -15.5t-25.5 -41.5h-160q20 77 94.5 123t165.5 46q88 0 137 -33t49 -98q0 -52 -31.5 -90t-85.5 -56q84 -23 84 -103 q0 -85 -70.5 -138.5t-184.5 -53.5q-100 0 -157.5 44.5t-49.5 125.5z" />
<glyph horiz-adv-x="477" d="M40 75l20 115l203 353h162l-207 -353h71l20 112h154l-20 -112h54l-20 -115h-54l-13 -75h-154l13 75h-229z" />
<glyph horiz-adv-x="477" d="M51 155h160q-4 -58 47 -58q30 0 50 30t20 72q0 61 -49 61q-41 0 -63 -35h-139l56 318h384l-22 -125h-245l-18 -100q22 20 62 34.5t74 14.5q57 0 91.5 -39.5t34.5 -105.5q0 -111 -69.5 -174t-182.5 -63q-93 0 -146 44.5t-45 125.5z" />
<glyph horiz-adv-x="505" d="M70 192q0 163 83 264t213 101q77 0 125 -40.5t43 -115.5h-160q-2 38 -39 38q-28 0 -52 -37.5t-39 -97.5q63 47 140 47q58 0 92.5 -37t34.5 -103q0 -100 -74 -163t-180 -63q-93 0 -140 54t-47 153zM229 176q0 -79 49 -79q35 0 53 27.5t18 64.5q0 66 -53 66q-34 0 -64 -19 q-3 -30 -3 -60z" />
<glyph horiz-adv-x="392" d="M60 0l256 428h-213l20 115h369l-20 -115l-252 -428h-160z" />
<glyph horiz-adv-x="509" d="M60 125q0 48 32 91.5t93 63.5q-33 13 -50.5 43t-17.5 62q0 82 71.5 127t176.5 45q85 0 139.5 -34.5t54.5 -99.5q0 -44 -30.5 -85t-81.5 -58q40 -14 59 -44.5t19 -67.5q0 -85 -73.5 -134t-187.5 -49q-92 0 -148 37t-56 103zM229 142q0 -23 14.5 -36t40.5 -13q35 0 55.5 19 t20.5 50q0 23 -15 38t-41 15q-34 0 -54.5 -20.5t-20.5 -52.5zM278 379q0 -24 13.5 -37t34.5 -13q28 0 47.5 19.5t19.5 54.5q0 23 -13.5 34.5t-34.5 11.5q-29 0 -48 -17.5t-19 -52.5z" />
<glyph horiz-adv-x="512" d="M61 151h160q2 -48 41 -48q31 0 57.5 41t41.5 106q-65 -49 -143 -49q-59 0 -93 34.5t-34 100.5q0 100 74 160.5t180 60.5q93 0 140 -54t47 -153q0 -163 -83 -264t-213 -101q-76 0 -128 45.5t-47 120.5zM253 358q0 -61 53 -61q36 0 65 20q2 32 2 49q0 79 -49 79 q-36 0 -53.5 -25.5t-17.5 -61.5z" />
<glyph horiz-adv-x="444" d="M130 608q0 114 69.5 187.5t175.5 73.5q79 0 123.5 -47.5t44.5 -129.5q0 -114 -69.5 -187.5t-175.5 -73.5q-78 0 -123 48t-45 129zM276 602q0 -68 40 -68q33 0 57 49t24 115q0 68 -40 68q-33 0 -57 -49t-24 -115z" />
<glyph horiz-adv-x="281" d="M131 687l21 119l117 54h144l-74 -420h-144l53 301z" />
<glyph horiz-adv-x="389" d="M112 440l18 107q26 17 62.5 41t54.5 36t42 28.5t35 26.5t22.5 22t15.5 23t4 22q0 27 -28 27q-37 0 -48 -45h-142q18 69 72.5 105t134.5 36q73 0 112.5 -29.5t39.5 -81.5q0 -56 -38.5 -95t-151.5 -116h158l-18 -107h-345z" />
<glyph horiz-adv-x="408" d="M119 560h142q-2 -16 6.5 -24.5t31.5 -8.5q26 0 37.5 13t11.5 29q0 32 -62 32h-46l17 99h46q68 0 68 48q0 25 -28 25q-35 0 -45 -33h-142q16 61 71 95t133 34q69 0 111 -26.5t42 -76.5q0 -35 -23 -65.5t-65 -43.5q64 -16 64 -78q0 -67 -60.5 -107.5t-146.5 -40.5 t-128 32.5t-35 96.5z" />
<glyph horiz-adv-x="389" d="M97 491l18 107l160 262h135l-164 -262h59l13 76h128l-13 -76h51l-18 -107h-52l-9 -51h-128l9 51h-189z" />
<glyph horiz-adv-x="385" d="M119 560h142q-2 -33 32 -33q23 0 34.5 19.5t11.5 49.5q0 36 -34 36q-26 0 -51 -20h-114l44 248h314l-19 -107h-200l-11 -62q45 33 99 33q53 0 83.5 -29t30.5 -84q0 -82 -61 -131t-144 -49q-81 0 -122 32.5t-35 96.5z" />
<glyph horiz-adv-x="395" d="M117 592q0 126 69.5 201.5t169.5 75.5q74 0 114.5 -32t36.5 -91h-143q-2 9 -2.5 12.5t-6.5 9t-16 5.5q-21 0 -40.5 -26.5t-28.5 -76.5q42 42 102 42q58 0 88 -28t30 -80q0 -78 -61.5 -125.5t-145.5 -47.5q-79 0 -122.5 42.5t-43.5 118.5zM262 581q0 -54 38 -54 q21 0 34 17.5t13 40.5q0 35 -36 35q-24 0 -48 -13q-1 -8 -1 -26z" />
<glyph horiz-adv-x="331" d="M119 440l201 313h-177l19 107h311l-19 -107l-198 -313h-137z" />
<glyph horiz-adv-x="408" d="M106 537q0 38 25 72t78 48q-27 10 -42 32t-15 47q0 63 57.5 98t147.5 35q74 0 119 -27t45 -78q0 -34 -25 -64t-65 -43q66 -19 66 -87q0 -67 -58.5 -103t-158.5 -36q-82 0 -128 27t-46 79zM251 559q0 -32 46 -32q60 0 60 46q0 32 -46 32q-60 0 -60 -46zM290 727 q0 -30 37 -30q50 0 50 45q0 31 -37 31q-50 0 -50 -46z" />
<glyph horiz-adv-x="395" d="M118 554h143q2 -27 24 -27q21 0 40.5 26.5t29.5 76.5q-41 -42 -102 -42q-119 0 -119 108q0 78 61.5 125.5t145.5 47.5q79 0 122.5 -42.5t43.5 -118.5q0 -126 -69.5 -201.5t-169.5 -75.5q-74 0 -114 32t-36 91zM278 715q0 -35 35 -35q26 0 49 14q1 8 1 25q0 54 -39 54 q-21 0 -33.5 -17.5t-12.5 -40.5z" />
<glyph horiz-adv-x="372" d="M127 605l19 109h112l20 112h108l-20 -112h112l-19 -109h-112l-20 -111h-108l20 111h-112z" />
<glyph horiz-adv-x="372" d="M127 606l19 108h332l-19 -108h-332z" />
<glyph horiz-adv-x="372" d="M113 526l19 108h332l-19 -108h-332zM141 686l19 108h332l-19 -108h-332z" />
<glyph horiz-adv-x="181" d="M81 344l48 198h128l-67 -198h-109z" />
<glyph horiz-adv-x="196" d="M108 496q0 39 26.5 65.5t68.5 26.5q31 0 48 -17.5t17 -46.5q0 -39 -26 -66t-67 -27q-32 0 -49.5 18t-17.5 47z" />
<glyph horiz-adv-x="268" d="M129 599q0 189 191 336h133q-76 -60 -124.5 -153.5t-48.5 -187.5q0 -65 19 -127.5t53 -101.5h-133q-90 94 -90 234z" />
<glyph horiz-adv-x="268" d="M44 365q76 61 125 154.5t49 185.5q0 65 -19.5 128t-53.5 102h134q89 -95 89 -234q0 -188 -190 -336h-134z" />
<glyph horiz-adv-x="444" d="M31 48q0 114 69.5 187.5t175.5 73.5q79 0 123.5 -47.5t44.5 -129.5q0 -114 -69.5 -187.5t-175.5 -73.5q-78 0 -123 48t-45 129zM177 42q0 -68 40 -68q33 0 57 49t24 115q0 68 -40 68q-33 0 -57 -49t-24 -115z" />
<glyph horiz-adv-x="281" d="M32 127l21 119l117 54h144l-74 -420h-144l53 301z" />
<glyph horiz-adv-x="389" d="M13 -120l18 107q26 17 62.5 41t54.5 36t42 28.5t35 26.5t22.5 22t15.5 23t4 22q0 27 -28 27q-37 0 -48 -45h-142q18 69 72.5 105t134.5 36q73 0 112.5 -29.5t39.5 -81.5q0 -56 -38.5 -95t-151.5 -116h158l-18 -107h-345z" />
<glyph horiz-adv-x="408" d="M20 0h142q-2 -16 6.5 -24.5t31.5 -8.5q26 0 37.5 13t11.5 29q0 32 -62 32h-46l17 99h46q68 0 68 48q0 25 -28 25q-35 0 -45 -33h-142q16 61 71 95t133 34q69 0 111 -26.5t42 -76.5q0 -35 -23 -65.5t-65 -43.5q64 -16 64 -78q0 -67 -60.5 -107.5t-146.5 -40.5t-128 32.5 t-35 96.5z" />
<glyph horiz-adv-x="389" d="M-2 -69l18 107l160 262h135l-164 -262h59l13 76h128l-13 -76h51l-18 -107h-52l-9 -51h-128l9 51h-189z" />
<glyph horiz-adv-x="385" d="M20 0h142q-2 -33 32 -33q23 0 34.5 19.5t11.5 49.5q0 36 -34 36q-26 0 -51 -20h-114l44 248h314l-19 -107h-200l-11 -62q45 33 99 33q53 0 83.5 -29t30.5 -84q0 -82 -61 -131t-144 -49q-81 0 -122 32.5t-35 96.5z" />
<glyph horiz-adv-x="395" d="M18 32q0 126 69.5 201.5t169.5 75.5q74 0 114.5 -32t36.5 -91h-143q-2 9 -2.5 12.5t-6.5 9t-16 5.5q-21 0 -40.5 -26.5t-28.5 -76.5q42 42 102 42q58 0 88 -28t30 -80q0 -78 -61.5 -125.5t-145.5 -47.5q-79 0 -122.5 42.5t-43.5 118.5zM163 21q0 -54 38 -54q21 0 34 17.5 t13 40.5q0 35 -36 35q-24 0 -48 -13q-1 -8 -1 -26z" />
<glyph horiz-adv-x="331" d="M20 -120l201 313h-177l19 107h311l-19 -107l-198 -313h-137z" />
<glyph horiz-adv-x="408" d="M7 -23q0 38 25 72t78 48q-27 10 -42 32t-15 47q0 63 57.5 98t147.5 35q74 0 119 -27t45 -78q0 -34 -25 -64t-65 -43q66 -19 66 -87q0 -67 -58.5 -103t-158.5 -36q-82 0 -128 27t-46 79zM152 -1q0 -32 46 -32q60 0 60 46q0 32 -46 32q-60 0 -60 -46zM191 167q0 -30 37 -30 q50 0 50 45q0 31 -37 31q-50 0 -50 -46z" />
<glyph horiz-adv-x="395" d="M19 -6h143q2 -27 24 -27q21 0 40.5 26.5t29.5 76.5q-40 -42 -102 -42q-119 0 -119 108q0 78 61.5 125.5t145.5 47.5q79 0 122.5 -42.5t43.5 -118.5q0 -126 -69.5 -201.5t-169.5 -75.5q-74 0 -114 32t-36 91zM179 155q0 -35 35 -35q26 0 49 14q1 8 1 25q0 54 -39 54 q-21 0 -33.5 -17.5t-12.5 -40.5z" />
<glyph horiz-adv-x="372" d="M28 45l19 109h112l20 112h108l-20 -112h112l-19 -109h-112l-20 -111h-108l20 111h-112z" />
<glyph horiz-adv-x="372" d="M28 46l19 108h332l-19 -108h-332z" />
<glyph horiz-adv-x="372" d="M14 -34l19 108h332l-19 -108h-332zM42 126l19 108h332l-19 -108h-332z" />
<glyph horiz-adv-x="181" d="M-18 -216l48 198h128l-67 -198h-109z" />
<glyph horiz-adv-x="212" d="M9 -64q0 39 26.5 65.5t68.5 26.5q31 0 48 -17.5t17 -46.5q0 -39 -26 -66t-67 -27q-32 0 -49.5 18t-17.5 47z" />
<glyph horiz-adv-x="268" d="M30 39q0 189 191 336h133q-76 -60 -124.5 -153.5t-48.5 -187.5q0 -65 19 -127.5t53 -101.5h-133q-90 94 -90 234z" />
<glyph horiz-adv-x="268" d="M-54 -195q76 61 125 154.5t49 185.5q0 65 -19.5 128t-53.5 102h134q89 -95 89 -234q0 -188 -190 -336h-134z" />
<glyph horiz-adv-x="444" d="M102 448q0 114 69.5 187.5t175.5 73.5q79 0 123.5 -47.5t44.5 -129.5q0 -114 -69.5 -187.5t-175.5 -73.5q-78 0 -123 48t-45 129zM248 442q0 -68 40 -68q33 0 57 49t24 115q0 68 -40 68q-33 0 -57 -49t-24 -115z" />
<glyph horiz-adv-x="281" d="M102 527l21 119l117 54h144l-74 -420h-144l53 301z" />
<glyph horiz-adv-x="389" d="M83 280l18 107q26 17 62.5 41t54.5 36t42 28.5t35 26.5t22.5 22t15.5 23t4 22q0 27 -28 27q-37 0 -48 -45h-142q18 69 72.5 105t134.5 36q73 0 112.5 -29.5t39.5 -81.5q0 -56 -38.5 -95t-151.5 -116h158l-18 -107h-345z" />
<glyph horiz-adv-x="408" d="M91 400h142q-2 -16 6.5 -24.5t31.5 -8.5q26 0 37.5 13t11.5 29q0 32 -62 32h-46l17 99h46q68 0 68 48q0 25 -28 25q-35 0 -45 -33h-142q16 61 71 95t133 34q69 0 111 -26.5t42 -76.5q0 -35 -23 -65.5t-65 -43.5q64 -16 64 -78q0 -67 -60.5 -107.5t-146.5 -40.5t-128 32.5 t-35 96.5z" />
<glyph horiz-adv-x="389" d="M68 331l18 107l160 262h135l-164 -262h59l13 76h128l-13 -76h51l-18 -107h-52l-9 -51h-128l9 51h-189z" />
<glyph horiz-adv-x="385" d="M91 400h142q-2 -33 32 -33q23 0 34.5 19.5t11.5 49.5q0 36 -34 36q-26 0 -51 -20h-114l44 248h314l-19 -107h-200l-11 -62q45 33 99 33q53 0 83.5 -29t30.5 -84q0 -82 -61 -131t-144 -49q-81 0 -122 32.5t-35 96.5z" />
<glyph horiz-adv-x="395" d="M89 432q0 126 69.5 201.5t169.5 75.5q74 0 114.5 -32t36.5 -91h-143q-2 9 -2.5 12.5t-6.5 9t-16 5.5q-21 0 -40.5 -26.5t-28.5 -76.5q42 42 102 42q58 0 88 -28t30 -80q0 -78 -61.5 -125.5t-145.5 -47.5q-79 0 -122.5 42.5t-43.5 118.5zM234 421q0 -54 38 -54 q21 0 34 17.5t13 40.5q0 35 -36 35q-24 0 -48 -13q-1 -8 -1 -26z" />
<glyph horiz-adv-x="331" d="M90 280l201 313h-177l19 107h311l-19 -107l-198 -313h-137z" />
<glyph horiz-adv-x="408" d="M78 377q0 38 25 72t78 48q-27 10 -42 32t-15 47q0 63 57.5 98t147.5 35q75 0 119.5 -27t44.5 -78q0 -34 -25 -64t-65 -43q66 -19 66 -87q0 -67 -58.5 -103t-158.5 -36q-82 0 -128 27t-46 79zM223 399q0 -32 46 -32q60 0 60 46q0 32 -46 32q-60 0 -60 -46zM262 567 q0 -30 37 -30q50 0 50 45q0 31 -37 31q-50 0 -50 -46z" />
<glyph horiz-adv-x="395" d="M90 394h143q2 -27 24 -27q21 0 40.5 26.5t29.5 76.5q-41 -42 -102 -42q-119 0 -119 108q0 78 61.5 125.5t145.5 47.5q79 0 122.5 -42.5t43.5 -118.5q0 -126 -69.5 -201.5t-169.5 -75.5q-74 0 -114 32t-36 91zM250 555q0 -35 35 -35q26 0 49 14q1 8 1 25q0 54 -39 54 q-21 0 -33.5 -17.5t-12.5 -40.5z" />
<glyph horiz-adv-x="444" d="M52 168q0 114 69.5 187.5t175.5 73.5q79 0 123.5 -47.5t44.5 -129.5q0 -114 -69.5 -187.5t-175.5 -73.5q-78 0 -123 48t-45 129zM198 162q0 -68 40 -68q33 0 57 49t24 115q0 68 -40 68q-33 0 -57 -49t-24 -115z" />
<glyph horiz-adv-x="281" d="M53 247l21 119l117 54h144l-74 -420h-144l53 301z" />
<glyph horiz-adv-x="389" d="M34 0l18 107q26 17 62.5 41t54.5 36t42 28.5t35 26.5t22.5 22t15.5 23t4 22q0 27 -28 27q-37 0 -48 -45h-142q18 69 72.5 105t134.5 36q73 0 112.5 -29.5t39.5 -81.5q0 -56 -38.5 -95t-151.5 -116h158l-18 -107h-345z" />
<glyph horiz-adv-x="408" d="M41 120h142q-2 -16 6.5 -24.5t31.5 -8.5q26 0 37.5 13t11.5 29q0 32 -62 32h-46l17 99h46q68 0 68 48q0 25 -28 25q-35 0 -45 -33h-142q16 61 71 95t133 34q69 0 111 -26.5t42 -76.5q0 -35 -23 -65.5t-65 -43.5q64 -16 64 -78q0 -67 -60.5 -107.5t-146.5 -40.5t-128 32.5 t-35 96.5z" />
<glyph horiz-adv-x="389" d="M19 51l18 107l160 262h135l-164 -262h59l13 76h128l-13 -76h51l-18 -107h-52l-9 -51h-128l9 51h-189z" />
<glyph horiz-adv-x="385" d="M41 120h142q-2 -33 32 -33q23 0 34.5 19.5t11.5 49.5q0 36 -34 36q-26 0 -51 -20h-114l44 248h314l-19 -107h-200l-11 -62q45 33 99 33q53 0 83.5 -29t30.5 -84q0 -82 -61 -131t-144 -49q-81 0 -122 32.5t-35 96.5z" />
<glyph horiz-adv-x="395" d="M39 152q0 126 69.5 201.5t169.5 75.5q74 0 114.5 -32t36.5 -91h-143q-2 9 -2.5 12.5t-6.5 9t-16 5.5q-21 0 -40.5 -26.5t-28.5 -76.5q42 42 102 42q58 0 88 -28t30 -80q0 -78 -61.5 -125.5t-145.5 -47.5q-79 0 -122.5 42.5t-43.5 118.5zM184 141q0 -54 38 -54 q21 0 34 17.5t13 40.5q0 35 -36 35q-24 0 -48 -13q-1 -8 -1 -26z" />
<glyph horiz-adv-x="331" d="M41 0l201 313h-177l19 107h311l-19 -107l-198 -313h-137z" />
<glyph horiz-adv-x="408" d="M28 97q0 38 25 72t78 48q-27 10 -42 32t-15 47q0 63 57.5 98t147.5 35q75 0 119.5 -27t44.5 -78q0 -34 -25 -64t-65 -43q66 -19 66 -87q0 -67 -58.5 -103t-158.5 -36q-82 0 -128 27t-46 79zM173 119q0 -32 46 -32q60 0 60 46q0 32 -46 32q-60 0 -60 -46zM212 287 q0 -30 37 -30q50 0 50 45q0 31 -37 31q-50 0 -50 -46z" />
<glyph horiz-adv-x="395" d="M40 114h143q2 -27 24 -27q21 0 40.5 26.5t29.5 76.5q-41 -42 -102 -42q-119 0 -119 108q0 78 61.5 125.5t145.5 47.5q79 0 122.5 -42.5t43.5 -118.5q0 -126 -69.5 -201.5t-169.5 -75.5q-74 0 -114 32t-36 91zM200 275q0 -35 35 -35q26 0 49 14q1 8 1 25q0 54 -39 54 q-21 0 -33.5 -17.5t-12.5 -40.5z" />
<glyph horiz-adv-x="786" d="M72 132l285 242l-199 246l115 89l195 -241l284 241l92 -108l-287 -243l200 -247l-116 -88l-195 241l-284 -241z" />
<glyph horiz-adv-x="993" d="M70 302l23 129h920l-23 -129h-920z" />
<glyph horiz-adv-x="493" d="M70 302l23 129h420l-23 -129h-420z" />
<glyph horiz-adv-x="322" d="M70 303l22 129h250l-22 -129h-250z" />
<glyph horiz-adv-x="340" d="M102 292l28 159l271 180l-33 -190l-113 -71l88 -70l-33 -188z" />
<glyph horiz-adv-x="340" d="M71 112l33 190l113 71l-88 70l33 188l208 -180l-28 -159z" />
<glyph horiz-adv-x="610" d="M102 292l28 159l271 180l-33 -190l-113 -71l88 -70l-33 -188zM372 292l28 159l271 180l-33 -190l-113 -71l88 -70l-33 -188z" />
<glyph horiz-adv-x="610" d="M71 112l33 190l113 71l-88 70l33 188l208 -180l-28 -159zM341 112l33 190l113 71l-88 70l33 188l208 -180l-28 -159z" />
<glyph horiz-adv-x="516" d="M40 145q0 53 24.5 93t59 63.5t68.5 44.5t56.5 48.5t19.5 63.5h166q2 -47 -13 -81t-39.5 -51.5t-53 -34t-53 -29.5t-41 -37t-16.5 -57q0 -25 14.5 -40t42.5 -15q66 0 83 83h178q-52 -211 -285 -211q-96 0 -153.5 42t-57.5 118zM272 598q0 50 33.5 83.5t85.5 33.5 q39 0 61.5 -23t22.5 -60q0 -50 -34 -83t-85 -33q-39 0 -61.5 22.5t-22.5 59.5z" />
<glyph horiz-adv-x="305" d="M40 0l107 458h135l-53 -458h-189zM142 598q0 50 33.5 83.5t85.5 33.5q39 0 61.5 -23t22.5 -60q0 -50 -34 -83t-85 -33q-39 0 -61.5 22.5t-22.5 59.5z" />
<glyph horiz-adv-x="982" d="M60 263q0 230 163 381t415 151q168 0 276 -94.5t108 -251.5q0 -94 -30 -170t-78.5 -121.5t-104.5 -69t-112 -23.5q-44 0 -82 17t-51 55q-45 -41 -80.5 -57t-77.5 -16q-69 0 -105.5 59.5t-36.5 151.5q0 142 76.5 246.5t183.5 104.5q62 0 101 -61l7 41h180l-66 -373 q-9 -53 28 -53t74.5 78.5t37.5 179.5q0 122 -67.5 185.5t-197.5 63.5q-84 0 -160 -26.5t-135 -76.5t-94 -129t-35 -176q0 -313 328 -313q55 0 131 13t118 29l-18 -108q-46 -17 -121 -30t-143 -13q-82 0 -158 25.5t-138 74t-99 128t-37 178.5zM445 290q0 -45 14 -73t40 -28 q32 0 64 27l46 259q-19 26 -45 26q-54 0 -86.5 -64.5t-32.5 -146.5z" />
<glyph horiz-adv-x="834" d="M88 223l20 115h736l-20 -115h-736z" />
<glyph horiz-adv-x="434" d="M88 223l20 115h336l-20 -115h-336z" />
<glyph horiz-adv-x="298" d="M88 223l20 115h200l-20 -115h-200z" />
<glyph horiz-adv-x="424" d="M80 391q20 80 81.5 123t154.5 43q83 0 130.5 -34t47.5 -95q0 -43 -19.5 -74t-47 -48t-54.5 -31.5t-44 -33t-14 -43.5h-151q-3 45 13.5 73.5t42 41t51 22t44 26.5t18.5 44q0 19 -10.5 29t-25.5 10q-46 0 -57 -53h-160zM133 58q0 44 30 73.5t75 29.5q35 0 55 -20t20 -53 q0 -44 -30 -73.5t-76 -29.5q-35 0 -54.5 20t-19.5 53z" />
<glyph horiz-adv-x="404" d="M-20 114q0 43 19.5 74t47 48t54.5 31.5t44 33t14 43.5h151q3 -45 -13.5 -73.5t-42 -41t-51 -22t-44 -26.5t-18.5 -44q0 -19 10.5 -29t25.5 -10q46 0 57 53h160q-20 -80 -81.5 -123t-154.5 -43q-83 0 -130.5 34t-47.5 95zM161 454q0 44 30 73.5t76 29.5q35 0 54.5 -20 t19.5 -53q0 -44 -30 -73.5t-75 -29.5q-35 0 -55 20t-20 53z" />
<glyph horiz-adv-x="258" d="M40 58q0 44 30 73.5t75 29.5q35 0 55 -20t20 -53q0 -44 -30 -73.5t-76 -29.5q-35 0 -54.5 20t-19.5 53zM89 198l40 345h169l-83 -345h-126z" />
<glyph horiz-adv-x="208" d="M-10 0l83 345h126l-40 -345h-169zM68 455q0 44 30 73.5t76 29.5q35 0 54.5 -20t19.5 -53q0 -44 -30 -73.5t-75 -29.5q-35 0 -55 20t-20 53z" />
<glyph horiz-adv-x="362" d="M124 411q0 61 45.5 103.5t109.5 42.5q49 0 79.5 -30t30.5 -78q0 -61 -45.5 -103.5t-109.5 -42.5q-49 0 -79.5 30t-30.5 78zM211 422q0 -16 10 -27t27 -11q23 0 38.5 16t15.5 38q0 16 -10 27t-27 11q-23 0 -38.5 -16t-15.5 -38z" />
<glyph horiz-adv-x="244" d="M120 310l26 233h144l-56 -233h-114z" />
<glyph horiz-adv-x="420" d="M120 310l26 233h144l-56 -233h-114zM296 310l26 233h144l-56 -233h-114z" />
<glyph horiz-adv-x="244" d="M89 450l103 217h160l-133 -217h-130z" />
<glyph horiz-adv-x="440" d="M89 450l103 217h160l-133 -217h-130zM285 450l103 217h160l-133 -217h-130z" />
<glyph horiz-adv-x="244" d="M89 450l133 217h130l-103 -217h-160z" />
<glyph horiz-adv-x="440" d="M89 450l133 217h130l-103 -217h-160zM285 450l133 217h130l-103 -217h-160z" />
<glyph horiz-adv-x="464" d="M80 223l20 115h135l23 134h115l-23 -134h134l-20 -115h-134l-24 -135h-115l24 135h-135z" />
<glyph horiz-adv-x="464" d="M80 223l20 115h384l-20 -115h-384z" />
<glyph horiz-adv-x="457" d="M61 133l20 115h384l-20 -115h-384zM92 313l20 115h384l-20 -115h-384z" />
<glyph horiz-adv-x="372" d="M100 201q0 248 239 438h153q-96 -79 -157 -200.5t-61 -243.5q0 -83 23 -163t65 -129h-153q-46 51 -77.5 128t-31.5 170z" />
<glyph horiz-adv-x="371" d="M-40 -97q95 79 156.5 200.5t61.5 243.5q0 83 -23 163t-65 129h153q45 -49 76.5 -126.5t31.5 -171.5q0 -247 -238 -438h-153z" />
<glyph horiz-adv-x="358" d="M100 -97l130 736h238l-18 -100h-72l-95 -536h72l-17 -100h-238z" />
<glyph horiz-adv-x="358" d="M0 -97l17 100h72l95 536h-72l18 100h238l-130 -736h-238z" />
<glyph horiz-adv-x="362" d="M80 219l19 106q44 0 63.5 9t25.5 41l16 89q16 90 82 132.5t166 42.5h20l-17 -100h-20q-30 0 -44 -17.5t-20 -50.5l-15 -85q-8 -45 -36 -75.5t-62 -39.5q32 -9 48.5 -39.5t8.5 -75.5l-15 -85q-13 -68 40 -68h20l-17 -100h-20q-101 0 -152.5 42.5t-35.5 132.5l16 90 q6 32 -11 41.5t-60 9.5z" />
<glyph horiz-adv-x="371" d="M0 -97l17 100h20q29 0 43 18t20 50l15 85q8 45 36 75.5t63 39.5q-32 9 -49 39.5t-9 75.5l15 85q13 68 -40 68h-20l17 100h20q101 0 152.5 -42.5t35.5 -132.5l-16 -89q-6 -32 11 -41t60 -9l-19 -106q-43 0 -63 -9.5t-26 -41.5l-16 -90q-16 -90 -81.5 -132.5t-165.5 -42.5 h-20z" />
<glyph horiz-adv-x="452" d="M20 -31l358 605h174l-358 -605h-174z" />
<glyph horiz-adv-x="484" d="M140 574h158l146 -605h-158z" />
<glyph horiz-adv-x="576" d="M30 128q0 52 32.5 95.5t87.5 67.5q-36 49 -36 88q0 76 68.5 127t164.5 51q87 0 139.5 -42.5t46.5 -121.5h-161q3 55 -44 55q-23 0 -37.5 -13.5t-14.5 -36.5q0 -26 32 -64l97 -117q17 37 25 81h152q-17 -96 -95 -180l99 -118h-196l-22 26q-76 -41 -158 -41 q-80 0 -130 37.5t-50 105.5zM181 156q0 -31 22 -45t54 -14q23 0 46 9l-91 110q-31 -24 -31 -60z" />
<glyph horiz-adv-x="901" d="M105 369l441 375l81 -98l-245 -208h556l-24 -138h-556l171 -207l-115 -99z" />
<glyph horiz-adv-x="901" d="M93 300l24 138h556l-171 208l115 98l309 -375l-441 -375l-81 99l244 207h-555z" />
<glyph horiz-adv-x="830" d="M111 404l441 375l309 -375l-116 -98l-171 207l-97 -555h-138l97 556l-244 -208z" />
<glyph horiz-adv-x="830" d="M99 333l115 98l171 -208l98 556h138l-98 -556l244 208l82 -98l-441 -375z" />
<glyph horiz-adv-x="749" d="M103 128l93 531h530l-24 -140h-294l323 -392l-115 -98l-324 393l-51 -294h-138z" />
<glyph horiz-adv-x="749" d="M62 127l462 392h-293l24 140h530l-93 -531h-138l51 295l-462 -394z" />
<glyph horiz-adv-x="749" d="M139 561l115 98l323 -395l53 296h138l-94 -531h-530l25 140l293 -1z" />
<glyph horiz-adv-x="749" d="M85 29l94 531h138l-52 -294l462 393l81 -98l-462 -393l294 1l-25 -140h-530z" />
<glyph horiz-adv-x="1727" d="M105 369l441 375l81 -98l-245 -208h1382l-24 -138h-1382l171 -207l-115 -99z" />
<glyph horiz-adv-x="1727" d="M93 300l24 138h1382l-171 208l115 98l309 -375l-441 -375l-81 99l244 207h-1381z" />
<glyph horiz-adv-x="251" d="M149 563l43 240h151l-74 -240h-120z" />
<glyph horiz-adv-x="449" d="M182 749l153 148h222l-230 -148h-145z" />
<glyph horiz-adv-x="482" d="M208 897h118q-3 -19 12.5 -31t53.5 -12q73 0 80 43h118q-14 -80 -78.5 -120.5t-140.5 -40.5t-126.5 40.5t-36.5 120.5z" />
<glyph horiz-adv-x="581" d="M208 897h158l70 -57l91 57h162l-178 -148h-177z" />
<glyph horiz-adv-x="581" d="M182 749l178 148h177l126 -148h-158l-71 57l-90 -57h-162z" />
<glyph horiz-adv-x="520" d="M196 822q0 45 32.5 74.5t79.5 29.5q37 0 59 -20.5t22 -54.5q0 -46 -32 -75.5t-80 -29.5q-37 0 -59 21t-22 55zM426 821q0 46 32 75.5t80 29.5q37 0 59 -21t22 -55q0 -45 -32.5 -74.5t-79.5 -29.5q-37 0 -59 20.5t-22 54.5z" />
<glyph horiz-adv-x="302" d="M196 820q0 47 34.5 78.5t84.5 31.5q39 0 62.5 -22t23.5 -58q0 -48 -34.5 -79t-85.5 -31q-39 0 -62 22t-23 58z" />
<glyph horiz-adv-x="449" d="M208 897h212l111 -148h-135z" />
<glyph horiz-adv-x="626" d="M182 749l128 148h197l-195 -148h-130zM409 749l128 148h197l-195 -148h-130z" />
<glyph horiz-adv-x="460" d="M187 777l20 114h360l-20 -114h-360z" />
<glyph horiz-adv-x="378" d="M194 810q0 52 47 87t112 35q54 0 88 -26t34 -68q0 -52 -47 -87t-113 -35q-53 0 -87 26t-34 68zM292 818q0 -15 9.5 -24.5t25.5 -9.5q21 0 35.5 13.5t14.5 32.5q0 15 -10 24.5t-26 9.5q-21 0 -35 -13t-14 -33z" />
<glyph horiz-adv-x="539" d="M189 791q29 57 71 88.5t83 31.5q35 0 90.5 -20t67.5 -20q31 0 54 38l87 -42q-29 -57 -70 -88.5t-82 -31.5q-35 0 -90.5 20t-68.5 20q-30 0 -55 -38z" />
<glyph horiz-adv-x="395" d="M152 580l122 115h194l-183 -115h-133z" />
<glyph horiz-adv-x="428" d="M173 695h110q-5 -29 48 -29q54 0 59 29h111q-11 -62 -64.5 -92t-121.5 -30q-69 0 -111 29.5t-31 92.5z" />
<glyph horiz-adv-x="495" d="M173 695h136l53 -34l66 34h140l-148 -115h-141z" />
<glyph horiz-adv-x="495" d="M152 580l148 115h141l106 -115h-136l-54 34l-65 -34h-140z" />
<glyph horiz-adv-x="447" d="M163 638q0 35 28 58.5t66 23.5q30 0 49 -17.5t19 -44.5q0 -35 -27.5 -58t-65.5 -23q-31 0 -50 17t-19 44zM351 638q0 35 27.5 58.5t65.5 23.5q31 0 49.5 -17t18.5 -44q0 -35 -27 -58.5t-66 -23.5q-31 0 -49.5 17t-18.5 44z" />
<glyph horiz-adv-x="266" d="M163 636q0 37 28.5 61t68.5 24q31 0 51 -17.5t20 -45.5q0 -37 -28.5 -60.5t-68.5 -23.5q-32 0 -51.5 17t-19.5 45z" />
<glyph horiz-adv-x="395" d="M173 695h185l89 -115h-123z" />
<glyph horiz-adv-x="553" d="M152 580l103 115h173l-156 -115h-120zM350 580l102 115h174l-156 -115h-120z" />
<glyph horiz-adv-x="388" d="M154 590l18 101h288l-18 -101h-288z" />
<glyph horiz-adv-x="332" d="M162 628q0 41 37 67.5t94 26.5q47 0 75 -20t28 -52q0 -41 -37 -67.5t-95 -26.5q-47 0 -74.5 20t-27.5 52zM248 635q0 -22 26 -22q15 0 25 8.5t10 21.5q0 22 -26 22q-15 0 -25 -8.5t-10 -21.5z" />
<glyph horiz-adv-x="468" d="M158 614q50 96 126 96q26 0 71.5 -13.5t61.5 -13.5q20 0 39 25l80 -38q-48 -96 -126 -96q-26 0 -71.5 13.5t-61.5 13.5q-19 0 -38 -25z" />
</font>
</defs>
</svg>
